<?xml version="1.0" standalone="no"?>
<!DOCTYPE svg PUBLIC "-//W3C//DTD SVG 1.1//EN" "http://www.w3.org/Graphics/SVG/1.1/DTD/svg11.dtd" >
<svg xmlns="http://www.w3.org/2000/svg" xmlns:xlink="http://www.w3.org/1999/xlink" version="1.1">
<metadata>
Created by FontForge 20170731 at Wed Sep  1 18:46:30 2021
 By Aleksey,,,
Copyright 2020 The Inter Project Authors (https://github.com/rsms/inter)
</metadata>
<defs>
<font id="Inter-ExtraBold" horiz-adv-x="0" >
  <font-face 
    font-family="Inter ExtraBold"
    font-weight="800"
    font-stretch="normal"
    units-per-em="2816"
    panose-1="2 0 5 3 0 0 0 2 0 4"
    ascent="2252"
    descent="-564"
    x-height="1536"
    cap-height="2048"
    bbox="-2525.01 -912 7274 3158"
    underline-thickness="192"
    underline-position="-752"
    unicode-range="U+0020-1F852"
  />
<missing-glyph horiz-adv-x="3008" 
d="M306 -640v512h2396v-512h-2396zM306 1472v512h2396v-512h-2396zM306 2176v512h2396v-512h-2396zM306 64v512h2396v-512h-2396zM306 768v512h2396v-512h-2396z" />
    <glyph glyph-name=".notdef" horiz-adv-x="3008" 
d="M306 -640v512h2396v-512h-2396zM306 1472v512h2396v-512h-2396zM306 2176v512h2396v-512h-2396zM306 64v512h2396v-512h-2396zM306 768v512h2396v-512h-2396z" />
    <glyph glyph-name=".null" 
 />
    <glyph glyph-name="nonmarkingreturn" horiz-adv-x="938" 
 />
    <glyph glyph-name="uni0020" unicode=" " horiz-adv-x="606" 
 />
    <glyph glyph-name="uni0021" unicode="!" horiz-adv-x="957" 
d="M730 2048l-46 -1421h-411l-46 1421h503zM478 -29q-107 0 -183.5 76t-76.5 184q0 106 76.5 181.5t183.5 75.5q103 0 181.5 -75.5t78.5 -181.5q0 -72 -36.5 -131t-95 -94t-128.5 -35z" />
    <glyph glyph-name="uni0022" unicode="&#x22;" horiz-adv-x="1094" 
d="M452 2048v-803h-332v803h332zM970 2048v-803h-332v803h332z" />
    <glyph glyph-name="uni0023" unicode="#" horiz-adv-x="1846" 
d="M935 0l336 2048h360l-336 -2048h-360zM22 488l61 360h1624l-61 -360h-1624zM215 0l336 2048h360l-336 -2048h-360zM139 1200l61 360h1624l-61 -360h-1624z" />
    <glyph glyph-name="uni0024" unicode="$" horiz-adv-x="1860" 
d="M867 -256v2560h164v-2560h-164zM1262 1434q-10 110 -88.5 171.5t-223.5 61.5q-96 0 -160 -25t-96 -68.5t-33 -99.5q-2 -46 18.5 -81t60 -61.5t95.5 -46.5t126 -35l176 -40q152 -33 268.5 -88t196 -131t120.5 -175t42 -222q-1 -194 -98 -333t-278.5 -213t-437.5 -74
q-257 0 -448 77t-297 234t-109 397h474q6 -99 53 -165t129.5 -100t191.5 -34q100 0 170.5 27t108.5 75t39 110q-1 58 -36 99.5t-107.5 72t-184.5 56.5l-214 50q-266 61 -419 197.5t-152 369.5q-1 190 102 333t285 223t415 80q238 0 413.5 -80.5t272.5 -225.5t99 -336h-474z
" />
    <glyph glyph-name="uni0025" unicode="%" horiz-adv-x="2464" 
d="M1298 384v108q0 126 54.5 233t158.5 172t254 65q153 0 257.5 -64.5t158 -171t53.5 -234.5v-108q0 -126 -54 -233t-159 -172t-256 -65q-152 0 -256 65t-157.5 172t-53.5 233zM1617 492v-108q0 -64 31.5 -123t116.5 -59q87 0 117 57.5t30 124.5v108q0 67 -28.5 126.5
t-118.5 59.5q-84 0 -116 -59.5t-32 -126.5zM236 1556v108q0 128 55.5 234.5t159.5 171t252 64.5q153 0 257.5 -64.5t158.5 -171t54 -234.5v-108q0 -128 -54.5 -234t-159.5 -169t-256 -63t-255.5 64t-158 170t-53.5 232zM558 1664v-108q0 -67 31.5 -124.5t113.5 -57.5
q88 0 117.5 57.5t29.5 124.5v108q0 67 -28 126.5t-119 59.5q-84 0 -114.5 -61t-30.5 -125zM387 0l1408 2048h273l-1408 -2048h-273z" />
    <glyph glyph-name="uni0026" unicode="&#x26;" horiz-adv-x="1931" 
d="M799 -31q-216 0 -372.5 77t-240.5 207.5t-84 290.5q0 118 46.5 208.5t129 167t192.5 150.5l430 275q73 46 103.5 97t30.5 102q0 55 -42.5 100t-125.5 44q-53 0 -92 -22t-60.5 -59t-21.5 -84q0 -61 35 -125t94.5 -136t132.5 -159l981 -1103h-498l-821 891q-70 78 -147 175
t-130 212.5t-53 251.5q0 153 72 277t202.5 197.5t304.5 73.5q168 0 290 -69t188 -183t66 -250q0 -144 -71 -264.5t-201 -213.5l-421 -301q-67 -48 -105 -102.5t-38 -118.5q0 -66 31.5 -115t89.5 -77t136 -28q104 0 208 49.5t190 140t138 215t52 273.5h394q0 -184 -39 -341.5
t-116.5 -282t-191.5 -206.5q-36 -20 -70 -38t-70 -38q-118 -85 -255.5 -122t-270.5 -37z" />
    <glyph glyph-name="uni0027" unicode="'" horiz-adv-x="576" 
d="M452 2048v-803h-332v803h332z" />
    <glyph glyph-name="uni0028" unicode="(" horiz-adv-x="1196" 
d="M252 806q0 371 100 682.5t312 578.5h474q-80 -99 -149 -241t-119.5 -311t-79 -350t-28.5 -359q0 -236 49 -476.5t134 -446t193 -337.5h-474q-212 267 -312 578.5t-100 681.5z" />
    <glyph glyph-name="uni0029" unicode=")" horiz-adv-x="1196" 
d="M944 806q0 -370 -100 -681.5t-312 -578.5h-474q81 99 149.5 241t119 311t79 350t28.5 358q0 237 -49 477.5t-134 446t-193 337.5h474q212 -267 312 -578.5t100 -682.5z" />
    <glyph glyph-name="uni002A" unicode="*" horiz-adv-x="1651" 
d="M678 896l29 370l-308 -211l-147 258l334 159l-334 159l147 258l308 -211l-29 370h295l-29 -370l308 211l147 -258l-334 -159l334 -159l-147 -258l-308 211l29 -370h-295z" />
    <glyph glyph-name="uni002B" unicode="+" horiz-adv-x="1933" 
d="M765 102v1448h403v-1448h-403zM242 624v403h1448v-403h-1448z" />
    <glyph glyph-name="uni002C" unicode="," horiz-adv-x="874" 
d="M654 280l-9 -111q-12 -138 -48.5 -269.5t-77.5 -236.5t-65 -163h-308q16 58 43.5 163t51.5 237t27 268l2 112h384z" />
    <glyph glyph-name="uni002D" unicode="-" horiz-adv-x="1328" 
d="M1138 1017v-377h-948v377h948z" />
    <glyph glyph-name="uni002E" unicode="." horiz-adv-x="859" 
d="M430 -29q-108 0 -184.5 76t-75.5 184q-1 106 75.5 181.5t184.5 75.5q102 0 180.5 -75.5t79.5 -181.5q-1 -72 -37.5 -131t-95 -94t-127.5 -35z" />
    <glyph glyph-name="uni002F" unicode="/" horiz-adv-x="1129" 
d="M1103 2144l-660 -2452h-417l660 2452h417z" />
    <glyph glyph-name="uni0030" unicode="0" horiz-adv-x="1997" 
d="M998 -50q-268 0 -462 127.5t-299 367t-104 576.5t105.5 572.5t298 359t461.5 123.5t462.5 -123.5t299.5 -359.5t104 -572q0 -338 -105 -578t-298.5 -366.5t-462.5 -126.5zM998 355q160 0 259 163.5t98 502.5q0 222 -45 366.5t-125 215.5t-187 71q-159 0 -257 -160.5
t-99 -492.5q-1 -225 43.5 -373t125.5 -220.5t187 -72.5z" />
    <glyph glyph-name="uni0031" unicode="1" horiz-adv-x="1401" 
d="M1098 2048v-2048h-494v1586h-12l-458 -280v428l505 314h459z" />
    <glyph glyph-name="uni0032" unicode="2" horiz-adv-x="1797" 
d="M151 0v356l747 654q84 76 143 139.5t90 128t31 140.5q0 85 -37 145.5t-102 93.5t-149 33q-85 0 -149 -34.5t-99.5 -99.5t-35.5 -158h-469q0 209 94 361t264.5 234.5t396.5 82.5q233 0 405 -78t266.5 -217.5t94.5 -323.5q0 -117 -47 -232t-168.5 -254t-344.5 -333
l-245 -226v-13h830v-399h-1516z" />
    <glyph glyph-name="uni0033" unicode="3" horiz-adv-x="1878" 
d="M930 -28q-234 0 -414.5 80.5t-284.5 222.5t-106 327h498q3 -67 43 -118.5t109 -80.5t157 -29t155.5 31.5t105.5 87t37 127.5q1 72 -41 128t-118.5 87t-180.5 31h-199v352h199q91 0 160.5 30t108.5 84.5t38 125.5q1 69 -32.5 121.5t-93 81.5t-137.5 29q-82 0 -148.5 -29
t-105.5 -82t-41 -123h-473q2 183 102 322.5t272.5 218.5t393.5 79q220 0 387 -77t260 -209.5t93 -299.5q1 -173 -112.5 -285t-291.5 -138v-16q238 -28 359.5 -154t120.5 -315q0 -178 -104.5 -315.5t-290 -216t-425.5 -78.5z" />
    <glyph glyph-name="uni0034" unicode="4" horiz-adv-x="1942" 
d="M126 340v386l839 1322h343v-524h-199l-491 -778v-16h1215v-390h-1707zM1115 0v458l10 169v1421h463v-2048h-473z" />
    <glyph glyph-name="uni0035" unicode="5" horiz-adv-x="1850" 
d="M935 -28q-224 0 -398 81t-274.5 223t-104.5 326h480q6 -113 92 -181.5t205 -68.5q93 0 165 41t113 115.5t40 171.5q1 99 -40.5 173t-114 115.5t-166.5 41.5q-89 1 -168.5 -39t-120.5 -109l-437 82l89 1104h1314v-399h-907l-47 -483h12q51 85 164.5 140.5t258.5 55.5
q184 0 328.5 -85.5t228 -236.5t83.5 -346q0 -211 -99.5 -374t-278 -255.5t-417.5 -92.5z" />
    <glyph glyph-name="uni0036" unicode="6" horiz-adv-x="1894" 
d="M972 -28q-168 0 -322 54.5t-274 174t-189 314t-68 474.5q1 253 62 454.5t174.5 342.5t272 215.5t354.5 74.5q215 0 379.5 -83.5t263.5 -224t117 -312.5h-487q-22 97 -96.5 147.5t-176.5 50.5q-188 0 -280.5 -163t-94.5 -436h13q42 92 121 158t181.5 101.5t217.5 35.5
q184 0 325 -85t221 -232.5t79 -337.5q1 -214 -100 -377.5t-279.5 -254.5t-413.5 -91zM969 352q91 0 163 43t113 117t40 167q1 94 -39.5 167t-112 116t-163.5 43q-67 0 -125 -25t-100.5 -69.5t-66.5 -104t-25 -128.5q1 -91 42 -165t112 -117.5t162 -43.5z" />
    <glyph glyph-name="uni0037" unicode="7" horiz-adv-x="1698" 
d="M238 0l826 1636v13h-966v399h1478v-402l-829 -1646h-509z" />
    <glyph glyph-name="uni0038" unicode="8" horiz-adv-x="1902" 
d="M951 -28q-239 0 -426.5 76.5t-294 208t-106.5 297.5q0 127 61 233t165.5 176.5t233.5 90.5v16q-169 31 -276.5 157t-107.5 295q0 160 97.5 285t267 197t386.5 72t386.5 -72t267 -197t97.5 -285q0 -170 -108.5 -295.5t-275.5 -156.5v-16q128 -20 232.5 -90.5t166 -176.5
t61.5 -233q0 -166 -107 -297.5t-293.5 -208t-426.5 -76.5zM951 323q91 0 160 34.5t108.5 96.5t39.5 140q0 80 -40 142t-109.5 97.5t-158.5 35.5q-88 0 -158 -35.5t-110 -97.5t-40 -142q0 -78 39.5 -139.5t109 -96.5t159.5 -35zM951 1218q78 0 138.5 32t95 89t34.5 129
t-34.5 127t-94.5 86.5t-139 31.5q-78 0 -139 -31.5t-95 -86.5t-34 -127t34.5 -128.5t95.5 -89t138 -32.5z" />
    <glyph glyph-name="uni0039" unicode="9" horiz-adv-x="1894" 
d="M922 2076q168 0 321 -54.5t273 -173t189 -311.5t69 -471q1 -256 -60 -458.5t-174.5 -344.5t-272.5 -216.5t-355 -74.5q-216 0 -380.5 83.5t-263 225.5t-117.5 318h487q23 -102 97 -153.5t177 -51.5q188 0 281 163t93 443h-12q-43 -92 -121.5 -158t-181.5 -101t-217 -35
q-184 0 -324.5 84t-220 231t-80.5 336q-1 212 99 374.5t279 254t415 90.5zM925 1696q-92 0 -163.5 -43t-112.5 -116t-40 -164t41.5 -164t111 -116t161.5 -43q68 0 126 25t101 69.5t67.5 103.5t23.5 126q-1 89 -42 162t-112.5 116.5t-161.5 43.5z" />
    <glyph glyph-name="uni003A" unicode=":" horiz-adv-x="859" 
d="M430 -29q-108 0 -184.5 76t-75.5 184q-1 106 75.5 181.5t184.5 75.5q102 0 180.5 -75.5t79.5 -181.5q-1 -72 -37.5 -131t-95 -94t-127.5 -35zM430 1025q-108 0 -184.5 75.5t-75.5 184.5q-1 106 75.5 181.5t184.5 75.5q102 0 180.5 -75.5t79.5 -181.5q-1 -72 -37.5 -131
t-95 -94t-127.5 -35z" />
    <glyph glyph-name="uni003B" unicode=";" horiz-adv-x="874" 
d="M654 280l-9 -111q-12 -138 -48.5 -269.5t-77.5 -236.5t-65 -163h-308q16 58 43.5 163t51.5 237t27 268l2 112h384zM466 1025q-108 0 -184.5 75.5t-75.5 184.5q-1 106 75.5 181.5t184.5 75.5q102 0 180.5 -75.5t79.5 -181.5q-1 -72 -37.5 -131t-95 -94t-127.5 -35z" />
    <glyph glyph-name="uni003C" unicode="&#x3c;" horiz-adv-x="1933" 
d="M242 618v416l1448 608v-455l-956 -357l15 22v-53l-15 23l956 -358v-454z" />
    <glyph glyph-name="uni003D" unicode="=" horiz-adv-x="1933" 
d="M251 969v401h1431v-401h-1431zM251 281v401h1431v-401h-1431z" />
    <glyph glyph-name="uni003E" unicode="&#x3e;" horiz-adv-x="1933" 
d="M1690 618l-1448 -608v454l956 358l-14 -23v53l14 -22l-956 357v455l1448 -608v-416z" />
    <glyph glyph-name="uni003F" unicode="?" horiz-adv-x="1636" 
d="M540 627v41q0 170 28.5 271t83.5 162.5t134 112.5q63 40 112.5 81.5t78.5 89.5t29 109q0 59 -28 104t-76.5 69.5t-107.5 24.5t-110.5 -27t-84 -76.5t-33.5 -119.5h-460q3 210 97.5 344t250.5 198.5t344 64.5q206 0 366.5 -64t252.5 -189t92 -306q0 -119 -40 -210
t-111.5 -160.5t-167.5 -126.5q-75 -44 -124.5 -92t-74.5 -109.5t-25 -150.5v-41h-426zM761 -29q-108 0 -184.5 76t-75.5 184q-1 106 75.5 181.5t184.5 75.5q103 0 181 -75.5t79 -181.5q-1 -72 -37.5 -131t-95 -94t-127.5 -35z" />
    <glyph glyph-name="uni0040" unicode="@" horiz-adv-x="2991" 
d="M1550 -607q-324 0 -578 87.5t-430 256t-268 409.5t-93 549q1 305 93.5 555.5t271 432t438 280.5t592.5 99q304 0 546 -86t412.5 -248t260.5 -391t89 -517q1 -197 -38 -353t-118.5 -267t-200 -174.5t-283.5 -75.5q-132 -11 -200 16t-96 78.5t-39 115.5h-12
q-23 -61 -100.5 -108.5t-184.5 -72t-220 -17.5q-114 8 -222 54.5t-194.5 137t-137 228.5t-51.5 325q1 187 52.5 321.5t135 224t183.5 139t196 64.5q116 20 224 3t182.5 -55t92.5 -82h15v112h346v-1000q2 -65 26 -94t62 -29q58 0 102.5 57.5t69 177t23.5 304.5
q1 206 -53.5 352.5t-147.5 242.5t-211.5 150.5t-250.5 76.5t-260 22q-255 0 -441 -76.5t-308 -211.5t-181.5 -312.5t-60.5 -380.5q1 -231 66 -408.5t191 -297.5t311.5 -181.5t425.5 -61.5q117 0 228 15t202.5 38t150.5 48l114 -325q-63 -39 -173.5 -72.5t-252 -54
t-296.5 -20.5zM1526 333q119 0 188 44.5t98 131.5t26 213q0 104 -26 184t-94 126t-196 46q-110 0 -186.5 -43t-117 -123t-40.5 -193q0 -99 33 -187.5t109 -143.5t206 -55z" />
    <glyph glyph-name="uni0041" unicode="A" horiz-adv-x="2173" 
d="M598 0h-532l691 2048h659l691 -2048h-532l-481 1532h-16zM527 806h1112v-376h-1112v376z" />
    <glyph glyph-name="uni0042" unicode="B" horiz-adv-x="1870" 
d="M155 0v2048h854q230 0 385.5 -65t234 -182t78.5 -271q0 -117 -49 -208.5t-135 -151.5t-199 -84v-20q124 -6 229.5 -67t169.5 -169.5t64 -256.5q0 -165 -84 -294.5t-243 -204t-386 -74.5h-919zM650 399h306q161 0 237.5 61t76.5 170q0 79 -37 136.5t-105 89t-163 31.5
h-315v-488zM650 1206h274q81 0 144 27t98.5 78t35.5 123q0 103 -73 162t-197 59h-282v-449z" />
    <glyph glyph-name="uni0043" unicode="C" horiz-adv-x="2141" 
d="M2014 1306h-500q-10 77 -41 139t-82 106t-120.5 67.5t-153.5 23.5q-149 0 -256.5 -73t-165 -211t-57.5 -334q0 -204 58.5 -341.5t165 -207t252.5 -69.5q82 0 149.5 21t119 61.5t85 99t46.5 132.5l500 -3q-13 -136 -78.5 -268t-179.5 -240.5t-277.5 -172.5t-374.5 -64
q-278 0 -497.5 122.5t-346.5 357.5t-127 572q0 338 129 573t349 357t493 122q186 0 344 -51.5t278 -150t195 -241.5t93 -327z" />
    <glyph glyph-name="uni0044" unicode="D" horiz-adv-x="2056" 
d="M912 0h-757v2048h756q313 0 539.5 -122.5t349.5 -352t123 -548.5q0 -320 -122.5 -550t-349.5 -352.5t-539 -122.5zM650 422h243q172 0 291.5 58.5t181 191t61.5 353.5t-62 352.5t-182.5 190t-296.5 58.5h-236v-1204z" />
    <glyph glyph-name="uni0045" unicode="E" horiz-adv-x="1738" 
d="M155 0v2048h1428v-402h-933v-420h860v-403h-860v-421h933v-402h-1428z" />
    <glyph glyph-name="uni0046" unicode="F" horiz-adv-x="1646" 
d="M155 0v2048h1398v-402h-903v-420h814v-403h-814v-823h-495z" />
    <glyph glyph-name="uni0047" unicode="G" horiz-adv-x="2159" 
d="M1499 1379q-17 63 -50 111.5t-81 82.5t-110 51.5t-136 17.5q-149 0 -257.5 -72t-167.5 -209.5t-59 -333.5q0 -197 57 -336t165 -212t262 -73q136 0 230.5 44.5t143.5 126.5t49 193l92 -11h-498v361h883v-271q0 -275 -116.5 -471t-320 -301t-467.5 -105q-293 0 -515 127
t-346 362.5t-124 559.5q0 252 75 447.5t209.5 331.5t312 206t382.5 70q178 0 331.5 -51t272 -144t192.5 -221t92 -281h-501z" />
    <glyph glyph-name="uni0048" unicode="H" horiz-adv-x="2106" 
d="M155 0v2048h495v-822h807v822h494v-2048h-494v823h-807v-823h-495z" />
    <glyph glyph-name="uni0049" unicode="I" horiz-adv-x="805" 
d="M650 2048v-2048h-495v2048h495z" />
    <glyph glyph-name="uni004A" unicode="J" horiz-adv-x="1630" 
d="M987 2048h488v-1416q-1 -199 -95 -347.5t-259.5 -230.5t-382.5 -82q-192 0 -348.5 67t-249 208t-91.5 361h493q3 -79 30.5 -134.5t76.5 -83.5t117 -28q71 0 120 30.5t74.5 90.5t26.5 149v1416z" />
    <glyph glyph-name="uni004B" unicode="K" horiz-adv-x="1977" 
d="M155 0v2048h495v-866h27l677 866h583l-726 -914l739 -1134h-592l-510 805l-198 -250v-555h-495z" />
    <glyph glyph-name="uni004C" unicode="L" horiz-adv-x="1603" 
d="M155 0v2048h495v-1646h852v-402h-1347z" />
    <glyph glyph-name="uni004D" unicode="M" horiz-adv-x="2600" 
d="M155 2048h613l520 -1268h24l520 1268h613v-2048h-482v1258h-17l-492 -1245h-308l-492 1252h-17v-1265h-482v2048z" />
    <glyph glyph-name="uni004E" unicode="N" horiz-adv-x="2053" 
d="M1898 2048v-2048h-420l-815 1182h-13v-1182h-495v2048h426l806 -1180h17v1180h494z" />
    <glyph glyph-name="uni004F" unicode="O" horiz-adv-x="2221" 
d="M2088 1024q0 -338 -130 -573t-351.5 -357t-496.5 -122q-276 0 -497 123t-350.5 357.5t-129.5 571.5q0 338 129.5 573t350.5 357t497 122q275 0 496.5 -122t351.5 -357t130 -573zM1582 1024q0 200 -56.5 338t-162 209t-253.5 71q-147 0 -253 -71t-162.5 -209t-56.5 -338
t56.5 -338t162.5 -209t253 -71q148 0 253.5 71t162 209t56.5 338z" />
    <glyph glyph-name="uni0050" unicode="P" horiz-adv-x="1836" 
d="M155 0v2048h846q230 0 397.5 -89.5t258.5 -249t91 -370.5q0 -212 -92.5 -370.5t-263.5 -245.5t-406 -87h-522v390h430q112 0 187.5 39t114.5 109.5t39 164.5q0 95 -39 164.5t-115 107.5t-187 38h-244v-1649h-495z" />
    <glyph glyph-name="uni0051" unicode="Q" horiz-adv-x="2224" 
d="M938 736h400l170 -217l223 -256l343 -423h-448l-240 287l-142 204zM2088 1024q0 -338 -130 -573t-351.5 -357t-496.5 -122q-276 0 -497 123t-350.5 357.5t-129.5 571.5q0 338 129.5 573t350.5 357t497 122q275 0 496.5 -122t351.5 -357t130 -573zM1582 1024
q0 200 -56.5 338t-162 209t-253.5 71q-147 0 -253 -71t-162.5 -209t-56.5 -338t56.5 -338t162.5 -209t253 -71q148 0 253.5 71t162 209t56.5 338z" />
    <glyph glyph-name="uni0052" unicode="R" horiz-adv-x="1864" 
d="M155 0v2048h846q230 0 397.5 -82.5t258.5 -236t91 -363.5q0 -213 -93 -361.5t-264 -226t-405 -77.5h-535v390h443q112 0 187.5 29.5t114.5 90t39 155.5t-39 157.5t-115 94t-187 31.5h-244v-1649h-495zM1308 936l510 -936h-540l-500 936h530z" />
    <glyph glyph-name="uni0053" unicode="S" horiz-adv-x="1860" 
d="M1262 1434q-10 110 -88.5 171.5t-223.5 61.5q-96 0 -160 -25t-96 -68.5t-33 -99.5q-2 -46 18.5 -81t60 -61.5t95.5 -46.5t126 -35l176 -40q152 -33 268.5 -88t196 -131t120.5 -175t42 -222q-1 -194 -98 -333t-278.5 -213t-437.5 -74q-257 0 -448 77t-297 234t-109 397
h474q6 -99 53 -165t129.5 -100t191.5 -34q100 0 170.5 27t108.5 75t39 110q-1 58 -36 99.5t-107.5 72t-184.5 56.5l-214 50q-266 61 -419 197.5t-152 369.5q-1 190 102 333t285 223t415 80q238 0 413.5 -80.5t272.5 -225.5t99 -336h-474z" />
    <glyph glyph-name="uni0054" unicode="T" horiz-adv-x="1907" 
d="M88 1646v402h1731v-402h-621v-1646h-488v1646h-622z" />
    <glyph glyph-name="uni0055" unicode="U" horiz-adv-x="2043" 
d="M1394 2048h494v-1321q0 -229 -109 -398.5t-304 -262t-453 -92.5q-261 0 -456 92.5t-303 262t-108 398.5v1321h495v-1278q0 -106 46.5 -189t130.5 -130t195 -47t194.5 47t130.5 130t47 189v1278z" />
    <glyph glyph-name="uni0056" unicode="V" horiz-adv-x="2173" 
d="M620 2048l458 -1500h17l458 1500h554l-691 -2048h-659l-691 2048h554z" />
    <glyph glyph-name="uni0057" unicode="W" horiz-adv-x="2998" 
d="M646 0l-596 2048h547l309 -1342h17l353 1342h446l353 -1345h17l310 1345h546l-595 -2048h-477l-369 1242h-16l-369 -1242h-476z" />
    <glyph glyph-name="uni0058" unicode="X" horiz-adv-x="2080" 
d="M656 2048l374 -647h16l378 647h554l-618 -1024l638 -1024h-568l-384 654h-16l-384 -654h-564l635 1024l-619 1024h558z" />
    <glyph glyph-name="uni0059" unicode="Y" horiz-adv-x="2096" 
d="M53 2048h553l433 -857h18l433 857h553l-749 -1364v-684h-492v684z" />
    <glyph glyph-name="uni005A" unicode="Z" horiz-adv-x="1917" 
d="M148 0v282l995 1364h-994v402h1620v-282l-995 -1364h994v-402h-1620z" />
    <glyph glyph-name="uni005B" unicode="[" horiz-adv-x="1196" 
d="M287 -454v2521h855v-359h-381v-1803h381v-359h-855z" />
    <glyph glyph-name="uni005C" unicode="\" horiz-adv-x="1129" 
d="M686 -308l-660 2452h417l660 -2452h-417z" />
    <glyph glyph-name="uni005D" unicode="]" horiz-adv-x="1196" 
d="M909 2067v-2521h-855v359h381v1803h-381v359h855z" />
    <glyph glyph-name="uni005E" unicode="^" horiz-adv-x="1390" 
d="M659 1811h72v-113h-72v113zM86 1120l425 890h368l425 -890h-351l-267 618h18l-266 -618h-352z" />
    <glyph glyph-name="uni005F" unicode="_" horiz-adv-x="1365" 
d="M1366 0v-358h-1367v358h1367z" />
    <glyph glyph-name="uni0060" unicode="`" horiz-adv-x="1400" 
d="M685 1731l-303 451h433l203 -451h-333z" />
    <glyph glyph-name="uni0061" unicode="a" horiz-adv-x="1649" 
d="M588 -26q-147 0 -260.5 49.5t-179 150t-65.5 252.5q0 128 45 216t124 143t182 83.5t220 38.5q131 12 211 25.5t116.5 39t36.5 72.5v5q0 77 -53 119t-143 42q-97 0 -156 -42t-75 -116l-451 16q20 140 103.5 250.5t230 174t352.5 63.5q147 0 271 -34.5t216 -100
t142.5 -160.5t50.5 -217v-1044h-460v214h-12q-41 -78 -104.5 -132t-149 -81t-192.5 -27zM739 294q79 0 142.5 32t101.5 88.5t38 131.5v146q-21 -11 -50.5 -20t-64.5 -17t-72 -14t-71 -11q-69 -11 -117.5 -34t-74 -59.5t-25.5 -86.5q0 -76 54.5 -116t138.5 -40z" />
    <glyph glyph-name="uni0062" unicode="b" horiz-adv-x="1802" 
d="M155 0v2048h489v-775h10q30 70 85.5 135t142 106.5t207.5 41.5q160 0 299.5 -84t225.5 -259t86 -446q0 -261 -82.5 -437t-222 -264t-309.5 -88q-116 0 -201 38t-142.5 100t-88.5 133h-15v-249h-484zM634 768q0 -124 33.5 -216t97 -142.5t152.5 -50.5q90 0 153 50.5
t95.5 142.5t32.5 216t-32.5 215t-95 141t-153.5 50q-90 0 -153 -49t-96.5 -140t-33.5 -217z" />
    <glyph glyph-name="uni0063" unicode="c" horiz-adv-x="1681" 
d="M872 -29q-243 0 -416.5 100t-266.5 278.5t-93 413.5q0 236 93.5 414.5t267 278.5t414.5 100q213 0 371.5 -77t248 -217.5t94.5 -329.5h-457q-14 118 -79.5 185t-170.5 67q-85 0 -149 -47.5t-99.5 -140t-35.5 -228.5t35.5 -229.5t99.5 -141t149 -47.5q68 0 120.5 29
t86.5 85.5t43 137.5h457q-7 -190 -94.5 -332t-245 -220.5t-373.5 -78.5z" />
    <glyph glyph-name="uni0064" unicode="d" horiz-adv-x="1802" 
d="M716 -22q-170 0 -309 88t-222 264t-83 437q0 271 86 446t225.5 259t300.5 84q121 0 207 -41.5t142 -106.5t85 -135h10v775h489v-2048h-484v249h-15q-31 -71 -88 -133t-142.5 -100t-201.5 -38zM886 359q89 0 152 50.5t97 142.5t34 216q0 126 -33.5 217t-97 140t-152.5 49
q-91 0 -154 -50t-95.5 -141t-32.5 -215t33 -216t95.5 -142.5t153.5 -50.5z" />
    <glyph glyph-name="uni0065" unicode="e" horiz-adv-x="1698" 
d="M873 -29q-241 0 -415.5 95.5t-268 273t-93.5 422.5q0 238 94 416.5t265 278t403 99.5q164 0 300 -51t235 -151t154 -246.5t55 -335.5v-122h-1335v284h880q-1 78 -37 139t-98.5 95.5t-143.5 34.5q-82 0 -147 -36.5t-103 -99t-40 -141.5v-289q0 -94 37 -164.5t105 -109.5
t162 -39q65 0 118 18t91 53t57 86l449 -13q-28 -151 -122.5 -262.5t-247.5 -173t-354 -61.5z" />
    <glyph glyph-name="uni0066" unicode="f" horiz-adv-x="1109" 
d="M1028 1536v-360h-988v360h988zM246 0v1614q0 178 67 295.5t186 176t275 58.5q102 0 192.5 -15.5t134.5 -27.5l-78 -358q-27 9 -65.5 15t-72.5 6q-86 0 -118 -38t-32 -104v-1622h-489z" />
    <glyph glyph-name="uni0067" unicode="g" horiz-adv-x="1806" 
d="M871 -608q-219 0 -375 61t-245 167t-107 240l463 26q13 -47 48.5 -82t93 -54t135.5 -19q123 0 203.5 59.5t80.5 207.5v270h-17q-29 -71 -88 -127t-146.5 -88t-200.5 -32q-168 0 -307.5 78.5t-223 244t-83.5 426.5q0 269 86 443.5t225.5 258.5t300.5 84q121 0 207.5 -41.5
t142.5 -106.5t85 -135h14v263h487v-1542q0 -195 -98 -329t-274 -203.5t-407 -69.5zM886 377q89 0 152 47t97 135t34 211q0 125 -33.5 215.5t-97 139.5t-152.5 49q-91 0 -154 -50t-95.5 -140.5t-32.5 -213.5t33 -211t95.5 -135t153.5 -47z" />
    <glyph glyph-name="uni0068" unicode="h" horiz-adv-x="1789" 
d="M644 876v-876h-489v2048h473v-794h17q52 142 170.5 222t290.5 80q162 0 282 -71.5t186.5 -201.5t65.5 -304v-979h-489v883q1 128 -64 200t-183 72q-77 0 -135.5 -33.5t-91 -95.5t-33.5 -150z" />
    <glyph glyph-name="uni0069" unicode="i" horiz-adv-x="799" 
d="M155 0v1536h489v-1536h-489zM400 1715q-103 0 -177 68.5t-74 165.5q0 96 74 164.5t177 68.5q104 0 177.5 -68.5t73.5 -164.5q0 -97 -73.5 -165.5t-177.5 -68.5z" />
    <glyph glyph-name="uni006A" unicode="j" horiz-adv-x="799" 
d="M155 1536h489v-1600q0 -190 -77.5 -302t-218.5 -161t-333 -49q-26 0 -49 1t-50 2v371q18 -2 32 -3t28 -1q101 0 140 37.5t39 114.5v1590zM399 1715q-103 0 -177 68.5t-74 165.5q0 96 74 164.5t177 68.5q104 0 177.5 -68.5t73.5 -164.5q0 -97 -73.5 -165.5t-177.5 -68.5z
" />
    <glyph glyph-name="uni006B" unicode="k" horiz-adv-x="1673" 
d="M596 403l2 583h68l432 550h554l-642 -788h-129zM155 0v2048h489v-2048h-489zM1109 0l-402 638l322 347l645 -985h-565z" />
    <glyph glyph-name="uni006C" unicode="l" horiz-adv-x="799" 
d="M644 2048v-2048h-489v2048h489z" />
    <glyph glyph-name="uni006D" unicode="m" horiz-adv-x="2608" 
d="M155 0v1536h465v-282h17q48 140 162 221t272 81q160 0 274 -82t145 -220h16q43 137 168 219.5t295 82.5q218 0 354 -139.5t136 -382.5v-1034h-489v922q0 115 -59 175.5t-153 60.5q-101 0 -158.5 -65.5t-57.5 -175.5v-917h-470v927q0 107 -58 169t-153 62
q-64 0 -113 -30.5t-76.5 -86.5t-27.5 -132v-909h-489z" />
    <glyph glyph-name="uni006E" unicode="n" horiz-adv-x="1786" 
d="M644 876v-876h-489v1536h465v-282h17q51 141 174 221.5t293 80.5q162 0 281.5 -72.5t186 -202t65.5 -302.5v-979h-489v883q1 128 -64.5 200t-181.5 72q-77 0 -135.5 -33.5t-90 -95.5t-32.5 -150z" />
    <glyph glyph-name="uni006F" unicode="o" horiz-adv-x="1744" 
d="M872 -29q-242 0 -415.5 99.5t-267 278t-93.5 414.5q0 237 93.5 415.5t267 278t415.5 99.5t415.5 -99.5t267 -278t93.5 -415.5q0 -236 -93.5 -414.5t-267 -278t-415.5 -99.5zM875 340q88 0 149 54t93.5 150t32.5 222q0 128 -32.5 224t-93.5 150t-149 54q-91 0 -153.5 -54
t-95 -150t-32.5 -224q0 -126 32.5 -222t95 -150t153.5 -54z" />
    <glyph glyph-name="uni0070" unicode="p" horiz-adv-x="1802" 
d="M155 -576v2112h484v-263h15q30 70 85.5 135t142 106.5t207.5 41.5q160 0 299.5 -84t225.5 -259t86 -446q0 -261 -82.5 -437t-222 -264t-309.5 -88q-116 0 -201 38t-142.5 100t-88.5 133h-10v-825h-489zM634 768q0 -124 33.5 -216t97 -142.5t152.5 -50.5q90 0 153 50.5
t95.5 142.5t32.5 216t-32.5 215t-95 141t-153.5 50q-90 0 -153 -49t-96.5 -140t-33.5 -217z" />
    <glyph glyph-name="uni0071" unicode="q" horiz-adv-x="1802" 
d="M1158 -576v825h-10q-31 -71 -88 -133t-142.5 -100t-201.5 -38q-170 0 -309 88t-222 264t-83 437q0 271 86 446t225.5 259t300.5 84q121 0 207 -41.5t142 -106.5t85 -135h15v263h484v-2112h-489zM886 359q89 0 152 50.5t97 142.5t34 216q0 126 -33.5 217t-97 140
t-152.5 49q-91 0 -154 -50t-95.5 -141t-32.5 -215t33 -216t95.5 -142.5t153.5 -50.5z" />
    <glyph glyph-name="uni0072" unicode="r" horiz-adv-x="1186" 
d="M155 0v1536h475v-280h16q42 152 137 226.5t221 74.5q34 0 70 -4.5t67 -13.5v-425q-35 12 -91.5 19t-100.5 7q-87 0 -156.5 -38.5t-109 -107t-39.5 -160.5v-834h-489z" />
    <glyph glyph-name="uni0073" unicode="s" horiz-adv-x="1619" 
d="M1496 1067l-449 -12q-7 48 -38 85.5t-80.5 59t-114.5 21.5q-85 0 -144.5 -34t-58.5 -92q-1 -45 36.5 -78t134.5 -53l296 -56q230 -44 342.5 -146t113.5 -270q-1 -158 -93.5 -275t-252.5 -181.5t-366 -64.5q-329 0 -518.5 135.5t-216.5 363.5l483 12q16 -84 83 -128
t171 -44q94 0 153 35t60 93q-1 52 -46 83.5t-141 49.5l-268 51q-231 42 -344 155.5t-112 289.5q-1 154 82 263.5t236 167.5t361 58q312 0 492 -130.5t199 -358.5z" />
    <glyph glyph-name="uni0074" unicode="t" horiz-adv-x="1117" 
d="M1022 1536v-360h-969v360h969zM256 1904h489v-1421q0 -45 14.5 -72.5t42.5 -39t67 -11.5q28 0 59.5 5.5t47.5 9.5l74 -353q-35 -10 -98.5 -25t-151.5 -19q-172 -8 -294.5 40.5t-187 151.5t-62.5 259v1475z" />
    <glyph glyph-name="uni0075" unicode="u" horiz-adv-x="1790" 
d="M1146 663v873h488v-1536h-466v286h-16q-51 -141 -173.5 -223.5t-295.5 -82.5q-157 0 -276 72t-185 201.5t-67 303.5v979h489v-883q1 -125 66 -197t177 -72q73 0 131.5 32.5t93 95t34.5 151.5z" />
    <glyph glyph-name="uni0076" unicode="v" horiz-adv-x="1677" 
d="M1645 1536l-527 -1536h-560l-526 1536h515l283 -1058h16l284 1058h515z" />
    <glyph glyph-name="uni0077" unicode="w" horiz-adv-x="2429" 
d="M442 0l-400 1536h491l207 -984h13l222 984h479l228 -977h13l201 977h491l-401 -1536h-523l-240 895h-17l-240 -895h-524z" />
    <glyph glyph-name="uni0078" unicode="x" horiz-adv-x="1648" 
d="M571 1536l253 -506l262 506h493l-429 -768l445 -768h-489l-282 510l-275 -510h-496l446 768l-424 768h496z" />
    <glyph glyph-name="uni0079" unicode="y" horiz-adv-x="1677" 
d="M454 -576q-88 0 -166 13.5t-134 35.5l108 355q72 -24 130.5 -28t101 18.5t65.5 79.5l19 46l-546 1592h512l283 -1096h16l287 1096h515l-579 -1683q-42 -126 -118.5 -222.5t-197 -151.5t-296.5 -55z" />
    <glyph glyph-name="uni007A" unicode="z" horiz-adv-x="1639" 
d="M159 0v279l712 867v10h-687v380h1270v-306l-660 -840v-10h684v-380h-1319z" />
    <glyph glyph-name="uni007B" unicode="{" horiz-adv-x="1196" 
d="M82 796v226q174 0 241.5 69t67.5 219v189q0 201 59.5 316t163 169t239.5 68.5t289 14.5v-359q-120 0 -179.5 -29t-79.5 -88t-20 -149v-256q0 -76 -31 -146t-114 -125t-236.5 -87t-399.5 -32zM1142 -454q-153 0 -289 14.5t-239.5 68.5t-163 169t-59.5 316v188
q0 151 -67.5 219.5t-241.5 68.5v227q246 0 399.5 -32.5t236.5 -87t114 -124.5t31 -146v-256q0 -90 20 -149t79.5 -88t179.5 -29v-359zM82 590v432h399v-432h-399z" />
    <glyph glyph-name="uni007C" unicode="|" horiz-adv-x="1096" 
d="M784 2708v-3368h-472v3368h472z" />
    <glyph glyph-name="uni007D" unicode="}" horiz-adv-x="1196" 
d="M1114 817v-227q-173 0 -241 -68.5t-68 -219.5v-188q0 -201 -59.5 -316t-163 -169t-239 -68.5t-289.5 -14.5v359q120 0 179.5 29t79.5 88t20 149v256q0 76 31 146t114 124.5t236.5 87t399.5 32.5zM54 2067q154 0 289.5 -14.5t239 -68.5t163 -169t59.5 -316v-189
q0 -150 68 -219t241 -69v-226q-246 0 -399.5 32t-236.5 87t-114 125t-31 146v256q0 90 -20 149t-79.5 88t-179.5 29v359zM1114 1022v-432h-399v432h399z" />
    <glyph glyph-name="uni007E" unicode="~" horiz-adv-x="1933" 
d="M210 534q-7 198 43 339t152 216t249 75q91 0 177 -37t196 -134q53 -46 91 -73t90 -27q66 0 111 53.5t41 174.5h363q8 -197 -44 -338t-154.5 -216.5t-245.5 -75.5q-98 0 -185.5 40t-191.5 131q-58 52 -92.5 76t-84.5 24q-67 0 -111 -52.5t-41 -175.5h-363z" />
    <glyph glyph-name="uni00A0" unicode="&#xa0;" horiz-adv-x="606" 
 />
    <glyph glyph-name="uni00A1" unicode="&#xa1;" horiz-adv-x="957" 
d="M730 -517h-503l46 1421h411zM478 1560q103 0 181.5 -76t78.5 -184q0 -106 -78.5 -181.5t-181.5 -75.5q-107 0 -183.5 75.5t-76.5 181.5q0 72 35 131t94.5 94t130.5 35z" />
    <glyph glyph-name="uni00A2" unicode="&#xa2;" horiz-adv-x="1681" 
d="M792 0v2048h164v-2048h-164zM872 232q-243 0 -416.5 100t-266.5 278.5t-93 413.5t93.5 414t267 278.5t414.5 99.5q213 0 371.5 -77t248 -217.5t94.5 -329.5h-457q-14 118 -79.5 185t-170.5 67q-85 0 -149 -47.5t-99.5 -140t-35.5 -228.5t35.5 -229t99.5 -141t149 -48
q68 0 120.5 29t86.5 85.5t43 137.5h457q-7 -190 -94.5 -332t-245 -220t-373.5 -78z" />
    <glyph glyph-name="uni00A3" unicode="&#xa3;" horiz-adv-x="1930" 
d="M1735 0h-1532v402h1532v-402zM1351 822h-1153v378h1153v-378zM900 1482l32 -845q5 -141 -65 -227.5t-237 -152.5l-280 145q39 13 58.5 41.5t26 69.5t5.5 92l-31 877q-7 188 74.5 321t231.5 203t347 70q161 0 285 -40.5t209.5 -117.5t130 -185t46.5 -243l-463 -6
q-1 78 -28.5 122.5t-73 62t-101.5 17.5q-52 0 -89.5 -22.5t-58 -68t-19.5 -113.5z" />
    <glyph glyph-name="uni00A4" unicode="&#xa4;" horiz-adv-x="2193" 
d="M1098 -28q-176 0 -330.5 65.5t-271.5 183.5t-183.5 275t-65.5 340q-1 183 65.5 339.5t183.5 273.5t271.5 182t330.5 65q174 0 327.5 -65t270.5 -182t183.5 -273.5t67.5 -339.5q-1 -183 -67.5 -340t-183.5 -275t-270.5 -183.5t-327.5 -65.5zM1098 246q120 0 225.5 45
t185.5 125.5t125.5 187.5t46.5 232q-1 168 -79.5 301.5t-211 211t-292.5 77.5q-164 0 -296.5 -77.5t-210 -211t-76.5 -301.5q-1 -166 76.5 -300t210 -212t296.5 -78zM1717 1253l-202 206l286 284l205 -206zM1801 -39l-286 284l202 202l289 -280zM398 -39l-202 206l286 280
l205 -202zM482 1253l-286 284l202 206l289 -284z" />
    <glyph glyph-name="uni00A5" unicode="&#xa5;" horiz-adv-x="1634" 
d="M540 2048l390 -996l-327 -269l-563 1265h500zM710 1065l384 983h500l-567 -1265zM1053 1079v-1079h-488v1079h488zM1443 1068v-270h-1310v270h1310zM1443 672v-270h-1310v270h1310z" />
    <glyph glyph-name="uni00A6" unicode="&#xa6;" horiz-adv-x="1046" 
d="M306 578h434v-962h-434v962zM740 2048v-958h-434v958h434z" />
    <glyph glyph-name="uni00A7" unicode="&#xa7;" horiz-adv-x="1709" 
d="M1448 1532h-423q-1 59 -49 99.5t-140 40.5q-40 0 -81.5 -10t-68.5 -35t-27 -72q0 -44 29.5 -79t72 -58.5t79.5 -35.5l382 -161q39 -17 99 -49.5t116 -87t88.5 -136t20.5 -196.5q-10 -87 -55.5 -138.5t-99 -77.5t-87.5 -35l-6 -4q88 -78 134 -173t47 -215
q0 -161 -80.5 -278t-220 -180.5t-319.5 -63.5q-193 0 -339.5 70t-228 195.5t-81.5 295.5h424q-1 -77 59.5 -119t172.5 -35q64 3 123.5 28.5t60.5 86.5q0 44 -30 77.5t-70.5 57t-74.5 38.5l-381 157q-42 17 -102 49.5t-116 88t-89 138t-21 197.5q10 88 53 139t97.5 76.5
t94.5 36.5v2q-80 77 -129.5 172t-48.5 217q0 150 76.5 267.5t213 185.5t313.5 68q183 0 320 -70.5t214.5 -194t77.5 -279.5zM1153 723q6 26 -7.5 53t-49 52.5t-96.5 49.5l-315 125q-33 13 -60 8t-45 -23.5t-24 -46.5q-10 -39 28 -80.5t126 -74.5l320 -127q28 -11 53 -6
t44 23t26 47z" />
    <glyph glyph-name="uni00A8" unicode="&#xa8;" horiz-adv-x="1453" 
d="M416 1731q-94 0 -160.5 64t-66.5 154t66.5 153.5t160.5 63.5q93 0 158.5 -63.5t65.5 -153.5t-65.5 -154t-158.5 -64zM1040 1731q-94 0 -160.5 64t-66.5 154t66.5 153.5t160.5 63.5q93 0 158.5 -63.5t65.5 -153.5t-65.5 -154t-158.5 -64z" />
    <glyph glyph-name="uni00A9" unicode="&#xa9;" horiz-adv-x="2576" 
d="M741 1024q0 153 74.5 278.5t200.5 200.5t279 75q134 0 248.5 -59.5t188 -161.5t88.5 -231h-316q-14 67 -73 108.5t-136 41.5q-69 0 -126 -33.5t-91.5 -90.5t-34.5 -127q0 -69 34.5 -126.5t91.5 -92t126 -34.5q77 0 134 41.5t71 108.5h316q-15 -129 -87.5 -231
t-185.5 -161.5t-248 -59.5q-153 0 -279 75t-200.5 200.5t-74.5 278.5zM1288 -32q-218 0 -409.5 82t-337 227.5t-228 336.5t-81.5 410t83.5 410t227.5 336.5t336 227.5t409 82q219 0 410.5 -82t336 -227.5t226.5 -336.5t83 -410t-81 -410t-227 -336.5t-337 -227.5t-411 -82z
M1288 334q144 0 269.5 54t219.5 148.5t147.5 219t53.5 267.5q-1 144 -54.5 269.5t-148 219.5t-219.5 148t-268 54q-142 0 -266.5 -54t-219.5 -149t-149 -220t-55 -268q0 -142 53.5 -266.5t148.5 -219.5t220 -149t268 -54z" />
    <glyph glyph-name="uni00AA" unicode="&#xaa;" horiz-adv-x="1408" 
d="M877 1184v468q0 82 -40.5 129t-126.5 47q-92 0 -143.5 -35t-51.5 -101l-249 17q0 140 122.5 231.5t321.5 91.5q188 0 302 -95.5t114 -284.5v-432q0 -56 7 -120t33 -131h-254q-15 45 -25 100.5t-10 114.5zM940 1581v-160h-206q-123 0 -180.5 -46t-57.5 -106
q0 -55 40 -87.5t126 -32.5q58 0 117.5 25.5t100 62.5t40.5 71l24 -163q-32 -69 -115.5 -131t-229.5 -62q-170 0 -261.5 85.5t-91.5 226.5q0 153 120.5 235t367.5 82h206z" />
    <glyph glyph-name="uni00AB" unicode="&#xab;" horiz-adv-x="1843" 
d="M1005 220h-445l-404 600v20h465zM1005 1448l-384 -620h-465v20l404 600h445zM1712 220h-445l-404 600v20h465zM1712 1448l-384 -620h-465v20l404 600h445z" />
    <glyph glyph-name="uni00AC" unicode="&#xac;" horiz-adv-x="1670" 
d="M1435 1108v-236h-1193v236h1193zM1435 1000v-484h-285v484h285z" />
    <glyph glyph-name="uni00AD" unicode="&#xad;" horiz-adv-x="1328" 
d="M1138 1017v-377h-948v377h948z" />
    <glyph glyph-name="uni00AE" unicode="&#xae;" horiz-adv-x="1862" 
d="M638 916v738h357q78 0 138.5 -30t94 -85t33.5 -132q0 -78 -35 -132.5t-96.5 -83t-141.5 -28.5h-240v145h202q45 0 73 25t28 74q0 51 -28 74.5t-72 23.5h-111v-589h-202zM1118 1254l163 -338h-221l-150 338h208zM931 476q-166 0 -311 62t-255 172t-172 255t-62 311t62 311
t172 255t255 172t311 62t311 -62t255 -172t172 -255t62 -311t-62 -311t-172 -255t-255 -172t-311 -62zM931 694q162 0 294 78.5t210.5 210.5t78.5 293t-78.5 293t-211 210.5t-293.5 78.5t-293 -78.5t-210.5 -210.5t-78.5 -293t78.5 -293t210.5 -210.5t293 -78.5z" />
    <glyph glyph-name="uni00AF" unicode="&#xaf;" horiz-adv-x="1699" 
d="M1343 2048v-242h-987v242h987z" />
    <glyph glyph-name="uni00B0" unicode="&#xb0;" horiz-adv-x="1299" 
d="M650 1058q-139 0 -253 67.5t-181.5 181.5t-67.5 252q0 139 67.5 253t181.5 181.5t253 67.5t252.5 -67.5t181 -181.5t67.5 -253q0 -138 -67.5 -252t-181 -181.5t-252.5 -67.5zM650 1370q52 0 95 25.5t68.5 68.5t25.5 95q0 53 -25.5 96t-68.5 68.5t-95 25.5
q-53 0 -96 -25.5t-68.5 -68.5t-25.5 -95q0 -53 25.5 -96.5t69 -68.5t95.5 -25z" />
    <glyph glyph-name="uni00B1" unicode="&#xb1;" horiz-adv-x="1933" 
d="M242 70v378h1448v-378h-1448zM242 910v365h1448v-365h-1448zM765 586v1014h403v-1014h-403z" />
    <glyph glyph-name="uni00B2" unicode="&#xb2;" horiz-adv-x="1197" 
d="M118 1024v242l493 381q51 40 90 73.5t61.5 68.5t22.5 79q0 66 -55.5 100.5t-133.5 34.5q-84 0 -135 -39t-51 -118h-323q0 200 144.5 311t368.5 111q154 0 267.5 -53t175.5 -143t62 -200q0 -90 -37.5 -167t-115 -149t-198.5 -146l-152 -100v-11h510v-275h-994z" />
    <glyph glyph-name="uni00B3" unicode="&#xb3;" horiz-adv-x="1257" 
d="M623 1008q-155 0 -276 47t-191.5 132t-73.5 197h344q6 -47 61.5 -72t135.5 -25q81 0 139.5 29t58.5 86q0 53 -58 87.5t-161 34.5h-155v250h155q87 0 138 33t51 83q0 52 -45.5 82.5t-118.5 30.5q-80 0 -135.5 -29t-58.5 -75h-323q2 109 71.5 192.5t186.5 130t262 46.5
q148 0 258 -48t170 -129t60 -179q0 -108 -74.5 -171.5t-177.5 -76.5v-11q144 -12 225.5 -83.5t81.5 -189.5q0 -110 -71.5 -193.5t-195.5 -131t-283 -47.5z" />
    <glyph glyph-name="uni00B4" unicode="&#xb4;" horiz-adv-x="1400" 
d="M525 1731l202 451h433l-302 -451h-333z" />
    <glyph glyph-name="uni00B5" unicode="&#xb5;" horiz-adv-x="1918" 
d="M155 -550v2086h489v-873q1 -82 40.5 -145t110.5 -98.5t165 -35.5q93 0 164 35.5t111 99t39 144.5v873h489v-1536h-466v215h-12q-41 -92 -128 -144.5t-197 -52.5q-111 0 -198.5 52.5t-127.5 144.5h-12v-765h-467z" />
    <glyph glyph-name="uni00B6" unicode="&#xb6;" horiz-adv-x="1726" 
d="M1322 1684h-368v-924h-120q-227 0 -383.5 83.5t-237 229t-80.5 331.5q0 184 80.5 329.5t237 230t383.5 84.5h488v-364zM1202 0v2048h369v-2048h-369z" />
    <glyph glyph-name="uni00B7" unicode="&#xb7;" horiz-adv-x="859" 
d="M430 637q-108 0 -184.5 76t-75.5 184q-1 106 75.5 181.5t184.5 75.5q102 0 180.5 -75.5t79.5 -181.5q-1 -72 -37.5 -131t-95 -94t-127.5 -35z" />
    <glyph glyph-name="uni00B8" unicode="&#xb8;" horiz-adv-x="1155" 
d="M482 8h196l-16 -90q110 -16 176 -79.5t67 -165.5q1 -156 -148.5 -246.5t-415.5 -90.5l-2 201q137 0 212 31t78 94q3 58 -45 92.5t-149 47.5z" />
    <glyph glyph-name="uni00B9" unicode="&#xb9;" horiz-adv-x="911" 
d="M393 1024v928h-7l-287 -176v279l317 197h297v-1228h-320z" />
    <glyph glyph-name="uni00BA" unicode="&#xba;" horiz-adv-x="1398" 
d="M204 1436v105q0 143 61 254t172 174t262 63q229 0 362 -138t133 -353v-105q0 -142 -59 -252t-169 -172.5t-263 -62.5q-231 0 -365 137t-134 350zM454 1541v-105q0 -123 62 -203.5t187 -80.5q122 0 182 80.5t60 203.5v105q0 120 -60.5 203.5t-185.5 83.5
q-122 0 -183.5 -83.5t-61.5 -203.5z" />
    <glyph glyph-name="uni00BB" unicode="&#xbb;" horiz-adv-x="1856" 
d="M127 220l384 620h465v-20l-404 -600h-445zM127 1448h445l404 -600v-20h-465zM847 220l384 620h465v-20l-404 -600h-445zM847 1448h445l404 -600v-20h-465z" />
    <glyph glyph-name="uni00BC" unicode="&#xbc;" horiz-adv-x="2472" 
d="M323 0l1408 2048h273l-1408 -2048h-273zM347 960v809h-7l-260 -160v261l288 178h276v-1088h-297zM1366 167v241l501 680h205v-321h-117l-284 -345v-10h739v-245h-1044zM1962 0v238l4 111v739h283v-1088h-287z" />
    <glyph glyph-name="uni00BD" unicode="&#xbd;" horiz-adv-x="2570" 
d="M323 0l1408 2048h273l-1408 -2048h-273zM347 960v809h-7l-260 -160v261l288 178h276v-1088h-297zM1607 0v216l448 338q62 47 108.5 90t46.5 102q0 58 -50.5 87.5t-123.5 29.5q-75 0 -121 -33t-46 -102h-286q0 177 130 276.5t330 99.5q206 0 328 -103t122 -251
q0 -82 -34.5 -151t-105 -131.5t-177.5 -124.5l-137 -84v-11h456v-248h-888z" />
    <glyph glyph-name="uni00BE" unicode="&#xbe;" horiz-adv-x="2733" 
d="M584 0l1408 2048h273l-1408 -2048h-273zM1627 167v241l501 680h205v-321h-117l-284 -345v-10h739v-245h-1044zM2223 0v238l4 111v739h283v-1088h-287zM564 944q-147 0 -255.5 44t-169.5 119t-64 169h308q5 -40 53 -62.5t118 -22.5q80 0 135 27t55 75q0 45 -50.5 75
t-147.5 30h-146v228h146q75 0 121.5 28t46.5 74q0 44 -40.5 72t-112.5 28q-65 0 -116 -24t-55 -64h-291q4 96 67.5 169t169 114t234.5 41q132 0 230 -43t152.5 -115t54.5 -159q0 -88 -61 -147t-160 -72v-11q133 -11 202 -76.5t69 -166.5q0 -97 -65 -171.5t-176.5 -116.5
t-251.5 -42z" />
    <glyph glyph-name="uni00BF" unicode="&#xbf;" horiz-adv-x="1636" 
d="M1096 882v-40q0 -170 -28.5 -271.5t-83 -162.5t-134.5 -112q-62 -41 -112 -82t-79 -89t-29 -109q0 -60 28 -104.5t76.5 -69t107.5 -24.5t110.5 26.5t84 77t33.5 119.5h460q-3 -210 -97.5 -344.5t-250 -198.5t-344.5 -64q-205 0 -366 64t-253 188.5t-92 306.5
q0 120 40 210.5t111.5 160t167.5 125.5q76 46 125 93t74 109.5t25 150.5v40h426zM875 1538q108 0 185 -75.5t75 -184.5q2 -106 -75 -181t-185 -75q-103 0 -180.5 75t-79.5 181q1 73 37.5 132t95.5 93.5t127 34.5z" />
    <glyph glyph-name="uni00C0" unicode="&#xc0;" horiz-adv-x="2173" 
d="M598 0h-532l691 2048h659l691 -2048h-532l-481 1532h-16zM527 806h1112v-376h-1112v376zM923 2243l-303 451h433l203 -451h-333z" />
    <glyph glyph-name="uni00C1" unicode="&#xc1;" horiz-adv-x="2173" 
d="M598 0h-532l691 2048h659l691 -2048h-532l-481 1532h-16zM527 806h1112v-376h-1112v376zM918 2243l202 451h433l-302 -451h-333z" />
    <glyph glyph-name="uni00C2" unicode="&#xc2;" horiz-adv-x="2173" 
d="M598 0h-532l691 2048h659l691 -2048h-532l-481 1532h-16zM527 806h1112v-376h-1112v376zM1285 2232l-199 232l-198 -232h-410v13l433 448h351l432 -448v-13h-409z" />
    <glyph glyph-name="uni00C3" unicode="&#xc3;" horiz-adv-x="2173" 
d="M598 0h-532l691 2048h659l691 -2048h-532l-481 1532h-16zM527 806h1112v-376h-1112v376zM807 2249l-254 1q0 204 96.5 308t236.5 104q73 0 125.5 -23.5t93.5 -54.5t76 -54.5t75 -23.5q58 0 85.5 42t28.5 113l250 -3q-2 -201 -98.5 -306.5t-234.5 -107.5q-76 -1 -128.5 23
t-91 55t-73.5 55t-77 24q-50 0 -80 -40t-30 -112z" />
    <glyph glyph-name="uni00C4" unicode="&#xc4;" horiz-adv-x="2173" 
d="M598 0h-532l691 2048h659l691 -2048h-532l-481 1532h-16zM527 806h1112v-376h-1112v376zM776 2243q-94 0 -160.5 64t-66.5 154t66.5 153.5t160.5 63.5q93 0 158.5 -63.5t65.5 -153.5t-65.5 -154t-158.5 -64zM1400 2243q-94 0 -160.5 64t-66.5 154t66.5 153.5t160.5 63.5
q93 0 158.5 -63.5t65.5 -153.5t-65.5 -154t-158.5 -64z" />
    <glyph glyph-name="uni00C5" unicode="&#xc5;" horiz-adv-x="2173" 
d="M598 0h-532l691 2048h659l691 -2048h-532l-481 1532h-16zM527 806h1112v-376h-1112v376zM1087 2159q-131 0 -223 89.5t-92 215.5q0 84 42.5 153t114 110t157.5 41q88 0 159 -41t113 -110t42 -153t-42 -153.5t-113 -110.5t-158 -41zM1086 2338q54 1 93 37.5t39 88.5
t-38.5 89t-93.5 36q-54 -1 -92.5 -37t-38.5 -88t38.5 -89t92.5 -37z" />
    <glyph glyph-name="uni00C6" unicode="&#xc6;" horiz-adv-x="2938" 
d="M66 0l838 2048h1879v-402h-933v-420h860v-403h-860v-421h933v-402h-1428v1553h-141l-604 -1553h-544zM546 430v376h1096v-376h-1096z" />
    <glyph glyph-name="uni00C7" unicode="&#xc7;" horiz-adv-x="2141" 
d="M2014 1306h-500q-10 77 -41 139t-82 106t-120.5 67.5t-153.5 23.5q-149 0 -256.5 -73t-165 -211t-57.5 -334q0 -204 58.5 -341.5t165 -207t252.5 -69.5q82 0 149.5 21t119 61.5t85 99t46.5 132.5l500 -3q-13 -136 -78.5 -268t-179.5 -240.5t-277.5 -172.5t-374.5 -64
q-278 0 -497.5 122.5t-346.5 357.5t-127 572q0 338 129 573t349 357t493 122q186 0 344 -51.5t278 -150t195 -241.5t93 -327zM997 11h196l-16 -90q110 -16 176 -79.5t67 -165.5q1 -156 -148.5 -246.5t-415.5 -90.5l-2 201q137 0 212 31t78 94q3 58 -45 92.5t-149 47.5z" />
    <glyph glyph-name="uni00C8" unicode="&#xc8;" horiz-adv-x="1738" 
d="M155 0v2048h1428v-402h-933v-420h860v-403h-860v-421h933v-402h-1428zM710 2243l-303 451h433l203 -451h-333z" />
    <glyph glyph-name="uni00C9" unicode="&#xc9;" horiz-adv-x="1738" 
d="M155 0v2048h1428v-402h-933v-420h860v-403h-860v-421h933v-402h-1428zM705 2243l202 451h433l-302 -451h-333z" />
    <glyph glyph-name="uni00CA" unicode="&#xca;" horiz-adv-x="1738" 
d="M155 0v2048h1428v-402h-933v-420h860v-403h-860v-421h933v-402h-1428zM1072 2232l-199 232l-198 -232h-410v13l433 448h351l432 -448v-13h-409z" />
    <glyph glyph-name="uni00CB" unicode="&#xcb;" horiz-adv-x="1738" 
d="M155 0v2048h1428v-402h-933v-420h860v-403h-860v-421h933v-402h-1428zM563 2243q-94 0 -160.5 64t-66.5 154t66.5 153.5t160.5 63.5q93 0 158.5 -63.5t65.5 -153.5t-65.5 -154t-158.5 -64zM1187 2243q-94 0 -160.5 64t-66.5 154t66.5 153.5t160.5 63.5q93 0 158.5 -63.5
t65.5 -153.5t-65.5 -154t-158.5 -64z" />
    <glyph glyph-name="uni00CC" unicode="&#xcc;" horiz-adv-x="805" 
d="M650 2048v-2048h-495v2048h495zM240 2243l-303 451h433l203 -451h-333z" />
    <glyph glyph-name="uni00CD" unicode="&#xcd;" horiz-adv-x="805" 
d="M650 2048v-2048h-495v2048h495zM235 2243l202 451h433l-302 -451h-333z" />
    <glyph glyph-name="uni00CE" unicode="&#xce;" horiz-adv-x="805" 
d="M650 2048v-2048h-495v2048h495zM603 2232l-199 232l-198 -232h-410v13l433 448h351l432 -448v-13h-409z" />
    <glyph glyph-name="uni00CF" unicode="&#xcf;" horiz-adv-x="805" 
d="M650 2048v-2048h-495v2048h495zM94 2243q-95 0 -161.5 64t-66.5 154t66.5 153.5t161.5 63.5q93 0 158.5 -63.5t65.5 -153.5t-65.5 -154t-158.5 -64zM718 2243q-95 0 -161.5 64t-66.5 154t66.5 153.5t161.5 63.5q93 0 158.5 -63.5t65.5 -153.5t-65.5 -154t-158.5 -64z" />
    <glyph glyph-name="uni00D0" unicode="&#xd0;" horiz-adv-x="2056" 
d="M912 0h-546v422h527q172 0 291.5 58.5t181 191t61.5 353.5t-62 352.5t-182.5 190t-296.5 58.5h-529v422h554q313 0 539.5 -122.5t349.5 -352t123 -548.5q0 -320 -122.5 -550t-349.5 -352.5t-539 -122.5zM650 2048v-2048h-495v2048h495zM-119 951v274h1037v-274h-1037z
" />
    <glyph glyph-name="uni00D1" unicode="&#xd1;" horiz-adv-x="2053" 
d="M1898 2048v-2048h-420l-815 1182h-13v-1182h-495v2048h426l806 -1180h17v1180h494zM749 2238l-255 2q0 203 97 307t236 105q74 0 126.5 -23.5t93 -55t76 -55t75.5 -23.5q57 1 84.5 42.5t28.5 112.5l251 -3q-3 -201 -99 -306.5t-234 -106.5q-76 -1 -129 23t-91.5 55
t-73.5 54.5t-77 23.5q-49 0 -79 -39.5t-30 -112.5z" />
    <glyph glyph-name="uni00D2" unicode="&#xd2;" horiz-adv-x="2221" 
d="M2088 1024q0 -338 -130 -573t-351.5 -357t-496.5 -122q-276 0 -497 123t-350.5 357.5t-129.5 571.5q0 338 129.5 573t350.5 357t497 122q275 0 496.5 -122t351.5 -357t130 -573zM1582 1024q0 200 -56.5 338t-162 209t-253.5 71q-147 0 -253 -71t-162.5 -209t-56.5 -338
t56.5 -338t162.5 -209t253 -71q148 0 253.5 71t162 209t56.5 338zM947 2243l-303 451h433l203 -451h-333z" />
    <glyph glyph-name="uni00D3" unicode="&#xd3;" horiz-adv-x="2221" 
d="M2088 1024q0 -338 -130 -573t-351.5 -357t-496.5 -122q-276 0 -497 123t-350.5 357.5t-129.5 571.5q0 338 129.5 573t350.5 357t497 122q275 0 496.5 -122t351.5 -357t130 -573zM1582 1024q0 200 -56.5 338t-162 209t-253.5 71q-147 0 -253 -71t-162.5 -209t-56.5 -338
t56.5 -338t162.5 -209t253 -71q148 0 253.5 71t162 209t56.5 338zM942 2243l202 451h433l-302 -451h-333z" />
    <glyph glyph-name="uni00D4" unicode="&#xd4;" horiz-adv-x="2221" 
d="M2088 1024q0 -338 -130 -573t-351.5 -357t-496.5 -122q-276 0 -497 123t-350.5 357.5t-129.5 571.5q0 338 129.5 573t350.5 357t497 122q275 0 496.5 -122t351.5 -357t130 -573zM1582 1024q0 200 -56.5 338t-162 209t-253.5 71q-147 0 -253 -71t-162.5 -209t-56.5 -338
t56.5 -338t162.5 -209t253 -71q148 0 253.5 71t162 209t56.5 338zM1309 2232l-199 232l-198 -232h-410v13l433 448h351l432 -448v-13h-409z" />
    <glyph glyph-name="uni00D5" unicode="&#xd5;" horiz-adv-x="2221" 
d="M2088 1024q0 -338 -130 -573t-351.5 -357t-496.5 -122q-276 0 -497 123t-350.5 357.5t-129.5 571.5q0 338 129.5 573t350.5 357t497 122q275 0 496.5 -122t351.5 -357t130 -573zM1582 1024q0 200 -56.5 338t-162 209t-253.5 71q-147 0 -253 -71t-162.5 -209t-56.5 -338
t56.5 -338t162.5 -209t253 -71q148 0 253.5 71t162 209t56.5 338zM831 2249l-254 1q0 204 96.5 308t236.5 104q73 0 125.5 -23.5t93.5 -54.5t76 -54.5t75 -23.5q58 0 85.5 42t28.5 113l250 -3q-2 -201 -98.5 -306.5t-234.5 -107.5q-76 -1 -128.5 23t-91 55t-73.5 55t-77 24
q-50 0 -80 -40t-30 -112z" />
    <glyph glyph-name="uni00D6" unicode="&#xd6;" horiz-adv-x="2221" 
d="M2088 1024q0 -338 -130 -573t-351.5 -357t-496.5 -122q-276 0 -497 123t-350.5 357.5t-129.5 571.5q0 338 129.5 573t350.5 357t497 122q275 0 496.5 -122t351.5 -357t130 -573zM1582 1024q0 200 -56.5 338t-162 209t-253.5 71q-147 0 -253 -71t-162.5 -209t-56.5 -338
t56.5 -338t162.5 -209t253 -71q148 0 253.5 71t162 209t56.5 338zM800 2243q-94 0 -160.5 64t-66.5 154t66.5 153.5t160.5 63.5q93 0 158.5 -63.5t65.5 -153.5t-65.5 -154t-158.5 -64zM1424 2243q-94 0 -160.5 64t-66.5 154t66.5 153.5t160.5 63.5q93 0 158.5 -63.5
t65.5 -153.5t-65.5 -154t-158.5 -64z" />
    <glyph glyph-name="uni00D7" unicode="&#xd7;" horiz-adv-x="1933" 
d="M1426 67l-1218 1215l299 302l1218 -1218zM507 67l-299 299l1218 1218l299 -302z" />
    <glyph glyph-name="uni00D8" unicode="&#xd8;" horiz-adv-x="2221" 
d="M474 -103l-210 142l1482 2108l209 -142zM2088 1024q0 -338 -130 -573t-351.5 -357t-496.5 -122q-276 0 -497 123t-350.5 357.5t-129.5 571.5q0 338 129.5 573t350.5 357t497 122q275 0 496.5 -122t351.5 -357t130 -573zM1582 1024q0 200 -56.5 338t-162 209t-253.5 71
q-147 0 -253 -71t-162.5 -209t-56.5 -338t56.5 -338t162.5 -209t253 -71q148 0 253.5 71t162 209t56.5 338z" />
    <glyph glyph-name="uni00D9" unicode="&#xd9;" horiz-adv-x="2043" 
d="M1394 2048h494v-1321q0 -229 -109 -398.5t-304 -262t-453 -92.5q-261 0 -456 92.5t-303 262t-108 398.5v1321h495v-1278q0 -106 46.5 -189t130.5 -130t195 -47t194.5 47t130.5 130t47 189v1278zM858 2243l-303 451h433l203 -451h-333z" />
    <glyph glyph-name="uni00DA" unicode="&#xda;" horiz-adv-x="2043" 
d="M1394 2048h494v-1321q0 -229 -109 -398.5t-304 -262t-453 -92.5q-261 0 -456 92.5t-303 262t-108 398.5v1321h495v-1278q0 -106 46.5 -189t130.5 -130t195 -47t194.5 47t130.5 130t47 189v1278zM853 2243l202 451h433l-302 -451h-333z" />
    <glyph glyph-name="uni00DB" unicode="&#xdb;" horiz-adv-x="2043" 
d="M1394 2048h494v-1321q0 -229 -109 -398.5t-304 -262t-453 -92.5q-261 0 -456 92.5t-303 262t-108 398.5v1321h495v-1278q0 -106 46.5 -189t130.5 -130t195 -47t194.5 47t130.5 130t47 189v1278zM1220 2232l-199 232l-198 -232h-410v13l433 448h351l432 -448v-13h-409z
" />
    <glyph glyph-name="uni00DC" unicode="&#xdc;" horiz-adv-x="2043" 
d="M1394 2048h494v-1321q0 -229 -109 -398.5t-304 -262t-453 -92.5q-261 0 -456 92.5t-303 262t-108 398.5v1321h495v-1278q0 -106 46.5 -189t130.5 -130t195 -47t194.5 47t130.5 130t47 189v1278zM711 2243q-94 0 -160.5 64t-66.5 154t66.5 153.5t160.5 63.5
q93 0 158.5 -63.5t65.5 -153.5t-65.5 -154t-158.5 -64zM1335 2243q-94 0 -160.5 64t-66.5 154t66.5 153.5t160.5 63.5q93 0 158.5 -63.5t65.5 -153.5t-65.5 -154t-158.5 -64z" />
    <glyph glyph-name="uni00DD" unicode="&#xdd;" horiz-adv-x="2096" 
d="M53 2048h553l433 -857h18l433 857h553l-749 -1364v-684h-492v684zM879 2243l202 451h433l-302 -451h-333z" />
    <glyph glyph-name="uni00DE" unicode="&#xde;" horiz-adv-x="1926" 
d="M155 2048h495v-2048h-495v2048zM383 1688h535q256 0 433.5 -82.5t269 -226.5t91.5 -330t-91.5 -329.5t-269 -225t-433.5 -81.5h-535v370h535q116 0 187 38t102.5 97.5t31.5 126.5q0 68 -31.5 130t-102.5 100.5t-187 38.5h-535v374z" />
    <glyph glyph-name="uni00DF" unicode="&#xdf;" horiz-adv-x="1921" 
d="M155 0v1502q0 179 91 307.5t258.5 197.5t393.5 69q209 0 385 -62.5t283 -187t107 -313.5q0 -154 -75.5 -264t-210.5 -146v-23q202 -12 317.5 -156t113.5 -360q0 -185 -87 -310.5t-240 -189.5t-352 -64h-285v390h193q84 0 146.5 28t96.5 79.5t33 120.5q-1 108 -84 170.5
t-225 62.5h-152v368h100q63 0 109.5 30t72.5 80.5t27 112.5q2 102 -66.5 167t-190.5 65q-123 0 -196.5 -69t-73.5 -187v-1418h-489z" />
    <glyph glyph-name="uni00E0" unicode="&#xe0;" horiz-adv-x="1649" 
d="M588 -26q-147 0 -260.5 49.5t-179 150t-65.5 252.5q0 128 45 216t124 143t182 83.5t220 38.5q131 12 211 25.5t116.5 39t36.5 72.5v5q0 77 -53 119t-143 42q-97 0 -156 -42t-75 -116l-451 16q20 140 103.5 250.5t230 174t352.5 63.5q147 0 271 -34.5t216 -100
t142.5 -160.5t50.5 -217v-1044h-460v214h-12q-41 -78 -104.5 -132t-149 -81t-192.5 -27zM739 294q79 0 142.5 32t101.5 88.5t38 131.5v146q-21 -11 -50.5 -20t-64.5 -17t-72 -14t-71 -11q-69 -11 -117.5 -34t-74 -59.5t-25.5 -86.5q0 -76 54.5 -116t138.5 -40zM679 1731
l-303 451h433l203 -451h-333z" />
    <glyph glyph-name="uni00E1" unicode="&#xe1;" horiz-adv-x="1649" 
d="M588 -26q-147 0 -260.5 49.5t-179 150t-65.5 252.5q0 128 45 216t124 143t182 83.5t220 38.5q131 12 211 25.5t116.5 39t36.5 72.5v5q0 77 -53 119t-143 42q-97 0 -156 -42t-75 -116l-451 16q20 140 103.5 250.5t230 174t352.5 63.5q147 0 271 -34.5t216 -100
t142.5 -160.5t50.5 -217v-1044h-460v214h-12q-41 -78 -104.5 -132t-149 -81t-192.5 -27zM739 294q79 0 142.5 32t101.5 88.5t38 131.5v146q-21 -11 -50.5 -20t-64.5 -17t-72 -14t-71 -11q-69 -11 -117.5 -34t-74 -59.5t-25.5 -86.5q0 -76 54.5 -116t138.5 -40zM674 1731
l202 451h433l-302 -451h-333z" />
    <glyph glyph-name="uni00E2" unicode="&#xe2;" horiz-adv-x="1649" 
d="M588 -26q-147 0 -260.5 49.5t-179 150t-65.5 252.5q0 128 45 216t124 143t182 83.5t220 38.5q131 12 211 25.5t116.5 39t36.5 72.5v5q0 77 -53 119t-143 42q-97 0 -156 -42t-75 -116l-451 16q20 140 103.5 250.5t230 174t352.5 63.5q147 0 271 -34.5t216 -100
t142.5 -160.5t50.5 -217v-1044h-460v214h-12q-41 -78 -104.5 -132t-149 -81t-192.5 -27zM739 294q79 0 142.5 32t101.5 88.5t38 131.5v146q-21 -11 -50.5 -20t-64.5 -17t-72 -14t-71 -11q-69 -11 -117.5 -34t-74 -59.5t-25.5 -86.5q0 -76 54.5 -116t138.5 -40zM1041 1720
l-199 232l-198 -232h-410v13l433 448h351l432 -448v-13h-409z" />
    <glyph glyph-name="uni00E3" unicode="&#xe3;" horiz-adv-x="1649" 
d="M588 -26q-147 0 -260.5 49.5t-179 150t-65.5 252.5q0 128 45 216t124 143t182 83.5t220 38.5q131 12 211 25.5t116.5 39t36.5 72.5v5q0 77 -53 119t-143 42q-97 0 -156 -42t-75 -116l-451 16q20 140 103.5 250.5t230 174t352.5 63.5q147 0 271 -34.5t216 -100
t142.5 -160.5t50.5 -217v-1044h-460v214h-12q-41 -78 -104.5 -132t-149 -81t-192.5 -27zM739 294q79 0 142.5 32t101.5 88.5t38 131.5v146q-21 -11 -50.5 -20t-64.5 -17t-72 -14t-71 -11q-69 -11 -117.5 -34t-74 -59.5t-25.5 -86.5q0 -76 54.5 -116t138.5 -40zM563 1726
l-255 2q0 203 97 307t236 105q74 0 126.5 -23.5t93 -55t76 -55t75.5 -23.5q57 1 84.5 42.5t28.5 112.5l251 -3q-3 -201 -99 -306.5t-234 -106.5q-76 -1 -129 23t-91.5 55t-73.5 54.5t-77 23.5q-49 0 -79 -39.5t-30 -112.5z" />
    <glyph glyph-name="uni00E4" unicode="&#xe4;" horiz-adv-x="1649" 
d="M588 -26q-147 0 -260.5 49.5t-179 150t-65.5 252.5q0 128 45 216t124 143t182 83.5t220 38.5q131 12 211 25.5t116.5 39t36.5 72.5v5q0 77 -53 119t-143 42q-97 0 -156 -42t-75 -116l-451 16q20 140 103.5 250.5t230 174t352.5 63.5q147 0 271 -34.5t216 -100
t142.5 -160.5t50.5 -217v-1044h-460v214h-12q-41 -78 -104.5 -132t-149 -81t-192.5 -27zM739 294q79 0 142.5 32t101.5 88.5t38 131.5v146q-21 -11 -50.5 -20t-64.5 -17t-72 -14t-71 -11q-69 -11 -117.5 -34t-74 -59.5t-25.5 -86.5q0 -76 54.5 -116t138.5 -40zM532 1731
q-94 0 -160.5 64t-66.5 154t66.5 153.5t160.5 63.5q93 0 158.5 -63.5t65.5 -153.5t-65.5 -154t-158.5 -64zM1156 1731q-94 0 -160.5 64t-66.5 154t66.5 153.5t160.5 63.5q93 0 158.5 -63.5t65.5 -153.5t-65.5 -154t-158.5 -64z" />
    <glyph glyph-name="uni00E5" unicode="&#xe5;" horiz-adv-x="1649" 
d="M588 -26q-147 0 -260.5 49.5t-179 150t-65.5 252.5q0 128 45 216t124 143t182 83.5t220 38.5q131 12 211 25.5t116.5 39t36.5 72.5v5q0 77 -53 119t-143 42q-97 0 -156 -42t-75 -116l-451 16q20 140 103.5 250.5t230 174t352.5 63.5q147 0 271 -34.5t216 -100
t142.5 -160.5t50.5 -217v-1044h-460v214h-12q-41 -78 -104.5 -132t-149 -81t-192.5 -27zM739 294q79 0 142.5 32t101.5 88.5t38 131.5v146q-21 -11 -50.5 -20t-64.5 -17t-72 -14t-71 -11q-69 -11 -117.5 -34t-74 -59.5t-25.5 -86.5q0 -76 54.5 -116t138.5 -40zM842 1698
q-92 0 -168 44t-121.5 117.5t-45.5 162.5q0 90 45.5 164t121.5 118.5t168 44.5q93 0 169 -44.5t121 -118.5t45 -164q0 -89 -45 -162.5t-121 -117.5t-169 -44zM842 1886q61 0 102.5 40.5t41.5 95.5q0 56 -41.5 98t-102.5 41q-60 -1 -102 -42t-42 -97q0 -55 42 -96t102 -40z
" />
    <glyph glyph-name="uni00E6" unicode="&#xe6;" horiz-adv-x="2562" 
d="M1773 -29q-201 0 -358.5 82.5t-222.5 244.5l-33 950q102 164 242.5 236t321.5 72q163 0 299.5 -51t235.5 -151t153.5 -246.5t54.5 -335.5v-122h-1292v284h838q-2 78 -38 139t-98.5 95.5t-142.5 34.5q-83 0 -148 -36.5t-102.5 -99.5t-39.5 -141v-289q0 -94 37 -164.5
t105 -109.5t162 -39q64 0 117.5 18t91.5 53t57 86l449 -13q-28 -151 -123 -262.5t-240 -173t-326 -61.5zM739 294q79 0 142.5 32t101.5 88.5t38 131.5v146q-21 -11 -50.5 -20t-64.5 -17t-72 -14t-71 -11q-69 -11 -117.5 -34t-74 -59.5t-25.5 -86.5q0 -76 54.5 -116
t138.5 -40zM620 -26q-163 0 -284 49.5t-187 150.5t-66 252q0 128 45 215.5t124.5 142.5t182.5 84t219 39q132 12 211.5 26t116 39.5t36.5 71.5v5q0 78 -53 119.5t-143 41.5q-96 0 -156 -42t-75 -116l-451 16q20 140 103.5 250.5t231 174t361.5 63.5q74 0 141 -13.5
t125.5 -41t103 -71.5t71.5 -104l-38 -1084h-29q-45 -86 -134.5 -146t-207.5 -91t-248 -31z" />
    <glyph glyph-name="uni00E7" unicode="&#xe7;" horiz-adv-x="1681" 
d="M872 -29q-243 0 -416.5 100t-266.5 278.5t-93 413.5q0 236 93.5 414.5t267 278.5t414.5 100q213 0 371.5 -77t248 -217.5t94.5 -329.5h-457q-14 118 -79.5 185t-170.5 67q-85 0 -149 -47.5t-99.5 -140t-35.5 -228.5t35.5 -229.5t99.5 -141t149 -47.5q68 0 120.5 29
t86.5 85.5t43 137.5h457q-7 -190 -94.5 -332t-245 -220.5t-373.5 -78.5zM776 8h196l-16 -90q110 -16 176 -79.5t67 -165.5q1 -156 -148.5 -246.5t-415.5 -90.5l-2 201q137 0 212 31t78 94q3 58 -45 92.5t-149 47.5z" />
    <glyph glyph-name="uni00E8" unicode="&#xe8;" horiz-adv-x="1698" 
d="M873 -29q-241 0 -415.5 95.5t-268 273t-93.5 422.5q0 238 94 416.5t265 278t403 99.5q164 0 300 -51t235 -151t154 -246.5t55 -335.5v-122h-1335v284h880q-1 78 -37 139t-98.5 95.5t-143.5 34.5q-82 0 -147 -36.5t-103 -99t-40 -141.5v-289q0 -94 37 -164.5t105 -109.5
t162 -39q65 0 118 18t91 53t57 86l449 -13q-28 -151 -122.5 -262.5t-247.5 -173t-354 -61.5zM686 1731l-303 451h433l203 -451h-333z" />
    <glyph glyph-name="uni00E9" unicode="&#xe9;" horiz-adv-x="1698" 
d="M873 -29q-241 0 -415.5 95.5t-268 273t-93.5 422.5q0 238 94 416.5t265 278t403 99.5q164 0 300 -51t235 -151t154 -246.5t55 -335.5v-122h-1335v284h880q-1 78 -37 139t-98.5 95.5t-143.5 34.5q-82 0 -147 -36.5t-103 -99t-40 -141.5v-289q0 -94 37 -164.5t105 -109.5
t162 -39q65 0 118 18t91 53t57 86l449 -13q-28 -151 -122.5 -262.5t-247.5 -173t-354 -61.5zM681 1731l202 451h433l-302 -451h-333z" />
    <glyph glyph-name="uni00EA" unicode="&#xea;" horiz-adv-x="1698" 
d="M873 -29q-241 0 -415.5 95.5t-268 273t-93.5 422.5q0 238 94 416.5t265 278t403 99.5q164 0 300 -51t235 -151t154 -246.5t55 -335.5v-122h-1335v284h880q-1 78 -37 139t-98.5 95.5t-143.5 34.5q-82 0 -147 -36.5t-103 -99t-40 -141.5v-289q0 -94 37 -164.5t105 -109.5
t162 -39q65 0 118 18t91 53t57 86l449 -13q-28 -151 -122.5 -262.5t-247.5 -173t-354 -61.5zM1048 1720l-199 232l-198 -232h-410v13l433 448h351l432 -448v-13h-409z" />
    <glyph glyph-name="uni00EB" unicode="&#xeb;" horiz-adv-x="1698" 
d="M873 -29q-241 0 -415.5 95.5t-268 273t-93.5 422.5q0 238 94 416.5t265 278t403 99.5q164 0 300 -51t235 -151t154 -246.5t55 -335.5v-122h-1335v284h880q-1 78 -37 139t-98.5 95.5t-143.5 34.5q-82 0 -147 -36.5t-103 -99t-40 -141.5v-289q0 -94 37 -164.5t105 -109.5
t162 -39q65 0 118 18t91 53t57 86l449 -13q-28 -151 -122.5 -262.5t-247.5 -173t-354 -61.5zM539 1731q-94 0 -160.5 64t-66.5 154t66.5 153.5t160.5 63.5q93 0 158.5 -63.5t65.5 -153.5t-65.5 -154t-158.5 -64zM1163 1731q-94 0 -160.5 64t-66.5 154t66.5 153.5t160.5 63.5
q93 0 158.5 -63.5t65.5 -153.5t-65.5 -154t-158.5 -64z" />
    <glyph glyph-name="uni00EC" unicode="&#xec;" horiz-adv-x="799" 
d="M155 0v1536h489v-1536h-489zM236 1731l-303 451h433l203 -451h-333z" />
    <glyph glyph-name="uni00ED" unicode="&#xed;" horiz-adv-x="799" 
d="M155 0v1536h489v-1536h-489zM231 1731l202 451h433l-302 -451h-333z" />
    <glyph glyph-name="uni00EE" unicode="&#xee;" horiz-adv-x="799" 
d="M155 0v1536h489v-1536h-489zM599 1720l-199 232l-198 -232h-410v13l433 448h351l432 -448v-13h-409z" />
    <glyph glyph-name="uni00EF" unicode="&#xef;" horiz-adv-x="799" 
d="M155 0v1536h489v-1536h-489zM90 1731q-95 0 -161.5 64t-66.5 154t66.5 153.5t161.5 63.5q93 0 158.5 -63.5t65.5 -153.5t-65.5 -154t-158.5 -64zM714 1731q-95 0 -161.5 64t-66.5 154t66.5 153.5t161.5 63.5q93 0 158.5 -63.5t65.5 -153.5t-65.5 -154t-158.5 -64z" />
    <glyph glyph-name="uni00F0" unicode="&#xf0;" horiz-adv-x="1707" 
d="M1302 1922l-976 -504l-14 208l977 505zM845 -32q-225 0 -393.5 92t-262 258t-93.5 386q0 199 77.5 360.5t219 256.5t331.5 95q86 0 157 -21t128 -56t98 -79h22q-72 148 -203.5 274t-291.5 222t-319 153l21 246q249 -45 478 -158t408.5 -287.5t284 -403.5t104.5 -506
q0 -250 -92.5 -437.5t-264 -291t-409.5 -103.5zM859 332q93 0 161 49t104.5 139.5t36.5 213.5q0 115 -33 203.5t-100.5 138.5t-168.5 50q-99 0 -166 -48.5t-100.5 -135.5t-33.5 -204q0 -122 35.5 -213t102.5 -142t162 -51z" />
    <glyph glyph-name="uni00F1" unicode="&#xf1;" horiz-adv-x="1786" 
d="M644 876v-876h-489v1536h465v-282h17q51 141 174 221.5t293 80.5q162 0 281.5 -72.5t186 -202t65.5 -302.5v-979h-489v883q1 128 -64.5 200t-181.5 72q-77 0 -135.5 -33.5t-90 -95.5t-32.5 -150zM615 1726l-255 2q0 203 97 307t236 105q74 0 126.5 -23.5t93 -55t76 -55
t75.5 -23.5q57 1 84.5 42.5t28.5 112.5l251 -3q-3 -201 -99 -306.5t-234 -106.5q-76 -1 -129 23t-91.5 55t-73.5 54.5t-77 23.5q-49 0 -79 -39.5t-30 -112.5z" />
    <glyph glyph-name="uni00F2" unicode="&#xf2;" horiz-adv-x="1744" 
d="M872 -29q-242 0 -415.5 99.5t-267 278t-93.5 414.5q0 237 93.5 415.5t267 278t415.5 99.5t415.5 -99.5t267 -278t93.5 -415.5q0 -236 -93.5 -414.5t-267 -278t-415.5 -99.5zM875 340q88 0 149 54t93.5 150t32.5 222q0 128 -32.5 224t-93.5 150t-149 54q-91 0 -153.5 -54
t-95 -150t-32.5 -224q0 -126 32.5 -222t95 -150t153.5 -54zM708 1731l-303 451h433l203 -451h-333z" />
    <glyph glyph-name="uni00F3" unicode="&#xf3;" horiz-adv-x="1744" 
d="M872 -29q-242 0 -415.5 99.5t-267 278t-93.5 414.5q0 237 93.5 415.5t267 278t415.5 99.5t415.5 -99.5t267 -278t93.5 -415.5q0 -236 -93.5 -414.5t-267 -278t-415.5 -99.5zM875 340q88 0 149 54t93.5 150t32.5 222q0 128 -32.5 224t-93.5 150t-149 54q-91 0 -153.5 -54
t-95 -150t-32.5 -224q0 -126 32.5 -222t95 -150t153.5 -54zM703 1731l202 451h433l-302 -451h-333z" />
    <glyph glyph-name="uni00F4" unicode="&#xf4;" horiz-adv-x="1744" 
d="M872 -29q-242 0 -415.5 99.5t-267 278t-93.5 414.5q0 237 93.5 415.5t267 278t415.5 99.5t415.5 -99.5t267 -278t93.5 -415.5q0 -236 -93.5 -414.5t-267 -278t-415.5 -99.5zM875 340q88 0 149 54t93.5 150t32.5 222q0 128 -32.5 224t-93.5 150t-149 54q-91 0 -153.5 -54
t-95 -150t-32.5 -224q0 -126 32.5 -222t95 -150t153.5 -54zM1071 1720l-199 232l-198 -232h-410v13l433 448h351l432 -448v-13h-409z" />
    <glyph glyph-name="uni00F5" unicode="&#xf5;" horiz-adv-x="1744" 
d="M872 -29q-242 0 -415.5 99.5t-267 278t-93.5 414.5q0 237 93.5 415.5t267 278t415.5 99.5t415.5 -99.5t267 -278t93.5 -415.5q0 -236 -93.5 -414.5t-267 -278t-415.5 -99.5zM875 340q88 0 149 54t93.5 150t32.5 222q0 128 -32.5 224t-93.5 150t-149 54q-91 0 -153.5 -54
t-95 -150t-32.5 -224q0 -126 32.5 -222t95 -150t153.5 -54zM593 1726l-255 2q0 203 97 307t236 105q74 0 126.5 -23.5t93 -55t76 -55t75.5 -23.5q57 1 84.5 42.5t28.5 112.5l251 -3q-3 -201 -99 -306.5t-234 -106.5q-76 -1 -129 23t-91.5 55t-73.5 54.5t-77 23.5
q-49 0 -79 -39.5t-30 -112.5z" />
    <glyph glyph-name="uni00F6" unicode="&#xf6;" horiz-adv-x="1744" 
d="M872 -29q-242 0 -415.5 99.5t-267 278t-93.5 414.5q0 237 93.5 415.5t267 278t415.5 99.5t415.5 -99.5t267 -278t93.5 -415.5q0 -236 -93.5 -414.5t-267 -278t-415.5 -99.5zM875 340q88 0 149 54t93.5 150t32.5 222q0 128 -32.5 224t-93.5 150t-149 54q-91 0 -153.5 -54
t-95 -150t-32.5 -224q0 -126 32.5 -222t95 -150t153.5 -54zM562 1731q-95 0 -161.5 64t-66.5 154t66.5 153.5t161.5 63.5q93 0 158.5 -63.5t65.5 -153.5t-65.5 -154t-158.5 -64zM1186 1731q-95 0 -161.5 64t-66.5 154t66.5 153.5t161.5 63.5q93 0 158.5 -63.5t65.5 -153.5
t-65.5 -154t-158.5 -64z" />
    <glyph glyph-name="uni00F7" unicode="&#xf7;" horiz-adv-x="1933" 
d="M1686 1014v-377h-1440v377h1440zM966 -5q-109 0 -186 77t-77 186q0 108 77 184t186 76q108 0 184 -76t76 -184q0 -109 -76 -186t-184 -77zM966 1134q-72 0 -132 35.5t-95.5 95t-35.5 132.5q0 108 77.5 183.5t185.5 75.5t184 -75.5t76 -183.5q0 -109 -76 -186t-184 -77z
" />
    <glyph glyph-name="uni00F8" unicode="&#xf8;" horiz-adv-x="1744" 
d="M418 -103l-209 142l1113 1588l213 -142zM872 -32q-242 0 -415.5 99.5t-267 278t-93.5 414.5q0 237 93.5 415.5t267 278t415.5 99.5t415.5 -99.5t267 -278t93.5 -415.5q0 -236 -93.5 -414.5t-267 -278t-415.5 -99.5zM875 337q88 0 149 53.5t93.5 149.5t32.5 223
q0 128 -32.5 223.5t-93.5 149.5t-149 54q-91 0 -153.5 -54t-95 -149.5t-32.5 -223.5q0 -127 32.5 -223t95 -149.5t153.5 -53.5z" />
    <glyph glyph-name="uni00F9" unicode="&#xf9;" horiz-adv-x="1790" 
d="M1146 663v873h488v-1536h-466v286h-16q-51 -141 -173.5 -223.5t-295.5 -82.5q-157 0 -276 72t-185 201.5t-67 303.5v979h489v-883q1 -125 66 -197t177 -72q73 0 131.5 32.5t93 95t34.5 151.5zM733 1731l-303 451h433l203 -451h-333z" />
    <glyph glyph-name="uni00FA" unicode="&#xfa;" horiz-adv-x="1790" 
d="M1146 663v873h488v-1536h-466v286h-16q-51 -141 -173.5 -223.5t-295.5 -82.5q-157 0 -276 72t-185 201.5t-67 303.5v979h489v-883q1 -125 66 -197t177 -72q73 0 131.5 32.5t93 95t34.5 151.5zM728 1731l202 451h433l-302 -451h-333z" />
    <glyph glyph-name="uni00FB" unicode="&#xfb;" horiz-adv-x="1790" 
d="M1146 663v873h488v-1536h-466v286h-16q-51 -141 -173.5 -223.5t-295.5 -82.5q-157 0 -276 72t-185 201.5t-67 303.5v979h489v-883q1 -125 66 -197t177 -72q73 0 131.5 32.5t93 95t34.5 151.5zM1095 1720l-199 232l-198 -232h-410v13l433 448h351l432 -448v-13h-409z" />
    <glyph glyph-name="uni00FC" unicode="&#xfc;" horiz-adv-x="1790" 
d="M1146 663v873h488v-1536h-466v286h-16q-51 -141 -173.5 -223.5t-295.5 -82.5q-157 0 -276 72t-185 201.5t-67 303.5v979h489v-883q1 -125 66 -197t177 -72q73 0 131.5 32.5t93 95t34.5 151.5zM586 1731q-94 0 -160.5 64t-66.5 154t66.5 153.5t160.5 63.5
q93 0 158.5 -63.5t65.5 -153.5t-65.5 -154t-158.5 -64zM1210 1731q-94 0 -160.5 64t-66.5 154t66.5 153.5t160.5 63.5q93 0 158.5 -63.5t65.5 -153.5t-65.5 -154t-158.5 -64z" />
    <glyph glyph-name="uni00FD" unicode="&#xfd;" horiz-adv-x="1677" 
d="M454 -576q-88 0 -166 13.5t-134 35.5l108 355q72 -24 130.5 -28t101 18.5t65.5 79.5l19 46l-546 1592h512l283 -1096h16l287 1096h515l-579 -1683q-42 -126 -118.5 -222.5t-197 -151.5t-296.5 -55zM667 1731l202 451h433l-302 -451h-333z" />
    <glyph glyph-name="uni00FE" unicode="&#xfe;" horiz-adv-x="1729" 
d="M155 2048h489v-764l-178 -545l178 -432v-883h-489v2624zM449 1382h212q27 57 77.5 96t121 58.5t155.5 19.5q158 0 297.5 -84t227 -259t86.5 -446q1 -263 -83 -438.5t-223.5 -263t-306.5 -87.5q-80 0 -150 17.5t-122 54.5t-80 96h-212v1236zM1166 768q1 130 -32.5 221
t-100 138t-167.5 47q-107 0 -167.5 -55t-84.5 -147.5t-25 -203.5q1 -108 24 -201.5t83 -150.5t170 -57q100 0 167 48t100.5 139.5t32.5 221.5z" />
    <glyph glyph-name="uni00FF" unicode="&#xff;" horiz-adv-x="1677" 
d="M454 -576q-88 0 -166 13.5t-134 35.5l108 355q72 -24 130.5 -28t101 18.5t65.5 79.5l19 46l-546 1592h512l283 -1096h16l287 1096h515l-579 -1683q-42 -126 -118.5 -222.5t-197 -151.5t-296.5 -55zM525 1731q-94 0 -160.5 64t-66.5 154t66.5 153.5t160.5 63.5
q93 0 158.5 -63.5t65.5 -153.5t-65.5 -154t-158.5 -64zM1149 1731q-94 0 -160.5 64t-66.5 154t66.5 153.5t160.5 63.5q93 0 158.5 -63.5t65.5 -153.5t-65.5 -154t-158.5 -64z" />
    <glyph glyph-name="uni0100" unicode="&#x100;" horiz-adv-x="2173" 
d="M598 0h-532l691 2048h659l691 -2048h-532l-481 1532h-16zM527 806h1112v-376h-1112v376zM1580 2560v-242h-987v242h987z" />
    <glyph glyph-name="uni0101" unicode="&#x101;" horiz-adv-x="1649" 
d="M588 -26q-147 0 -260.5 49.5t-179 150t-65.5 252.5q0 128 45 216t124 143t182 83.5t220 38.5q131 12 211 25.5t116.5 39t36.5 72.5v5q0 77 -53 119t-143 42q-97 0 -156 -42t-75 -116l-451 16q20 140 103.5 250.5t230 174t352.5 63.5q147 0 271 -34.5t216 -100
t142.5 -160.5t50.5 -217v-1044h-460v214h-12q-41 -78 -104.5 -132t-149 -81t-192.5 -27zM739 294q79 0 142.5 32t101.5 88.5t38 131.5v146q-21 -11 -50.5 -20t-64.5 -17t-72 -14t-71 -11q-69 -11 -117.5 -34t-74 -59.5t-25.5 -86.5q0 -76 54.5 -116t138.5 -40zM1336 2048
v-242h-987v242h987z" />
    <glyph glyph-name="uni0102" unicode="&#x102;" horiz-adv-x="2173" 
d="M598 0h-532l691 2048h659l691 -2048h-532l-481 1532h-16zM527 806h1112v-376h-1112v376zM1286 2592h322q-1 -188 -141.5 -302t-380.5 -114t-380.5 114t-139.5 302h319q-1 -66 45 -120t156 -54q107 0 153 53t47 121z" />
    <glyph glyph-name="uni0103" unicode="&#x103;" horiz-adv-x="1649" 
d="M588 -26q-147 0 -260.5 49.5t-179 150t-65.5 252.5q0 128 45 216t124 143t182 83.5t220 38.5q131 12 211 25.5t116.5 39t36.5 72.5v5q0 77 -53 119t-143 42q-97 0 -156 -42t-75 -116l-451 16q20 140 103.5 250.5t230 174t352.5 63.5q147 0 271 -34.5t216 -100
t142.5 -160.5t50.5 -217v-1044h-460v214h-12q-41 -78 -104.5 -132t-149 -81t-192.5 -27zM739 294q79 0 142.5 32t101.5 88.5t38 131.5v146q-21 -11 -50.5 -20t-64.5 -17t-72 -14t-71 -11q-69 -11 -117.5 -34t-74 -59.5t-25.5 -86.5q0 -76 54.5 -116t138.5 -40zM1042 2080
h322q-1 -188 -141.5 -302t-380.5 -114t-380.5 114t-139.5 302h319q-1 -66 45 -120t156 -54q107 0 153 53t47 121z" />
    <glyph glyph-name="uni0104" unicode="&#x104;" horiz-adv-x="2173" 
d="M598 0h-532l691 2048h659l691 -2048h-532l-481 1532h-16zM527 806h1112v-376h-1112v376zM1910 -565q-136 0 -228.5 69t-122.5 195q-21 84 -9.5 170t55 155t116.5 102l386 -126q-95 -37 -151 -80t-55 -109q-1 -50 24.5 -76t69.5 -26q30 0 52.5 7.5t42.5 12.5l54 -234
q-38 -21 -97 -40.5t-137 -19.5z" />
    <glyph glyph-name="uni0105" unicode="&#x105;" horiz-adv-x="1649" 
d="M588 -26q-147 0 -260.5 49.5t-179 150t-65.5 252.5q0 128 45 216t124 143t182 83.5t220 38.5q131 12 211 25.5t116.5 39t36.5 72.5v5q0 77 -53 119t-143 42q-97 0 -156 -42t-75 -116l-451 16q20 140 103.5 250.5t230 174t352.5 63.5q147 0 271 -34.5t216 -100
t142.5 -160.5t50.5 -217v-1044h-460v214h-12q-41 -78 -104.5 -132t-149 -81t-192.5 -27zM739 294q79 0 142.5 32t101.5 88.5t38 131.5v146q-21 -11 -50.5 -20t-64.5 -17t-72 -14t-71 -11q-69 -11 -117.5 -34t-74 -59.5t-25.5 -86.5q0 -76 54.5 -116t138.5 -40zM1309 -565
q-136 0 -228.5 69t-122.5 195q-21 84 -9.5 170t55 155t116.5 102l386 -126q-95 -37 -151 -80t-55 -109q-1 -50 24.5 -76t69.5 -26q30 0 52.5 7.5t42.5 12.5l54 -234q-38 -21 -97 -40.5t-137 -19.5z" />
    <glyph glyph-name="uni0106" unicode="&#x106;" horiz-adv-x="2141" 
d="M2014 1306h-500q-10 77 -41 139t-82 106t-120.5 67.5t-153.5 23.5q-149 0 -256.5 -73t-165 -211t-57.5 -334q0 -204 58.5 -341.5t165 -207t252.5 -69.5q82 0 149.5 21t119 61.5t85 99t46.5 132.5l500 -3q-13 -136 -78.5 -268t-179.5 -240.5t-277.5 -172.5t-374.5 -64
q-278 0 -497.5 122.5t-346.5 357.5t-127 572q0 338 129 573t349 357t493 122q186 0 344 -51.5t278 -150t195 -241.5t93 -327zM935 2243l202 451h433l-302 -451h-333z" />
    <glyph glyph-name="uni0107" unicode="&#x107;" horiz-adv-x="1681" 
d="M872 -29q-243 0 -416.5 100t-266.5 278.5t-93 413.5q0 236 93.5 414.5t267 278.5t414.5 100q213 0 371.5 -77t248 -217.5t94.5 -329.5h-457q-14 118 -79.5 185t-170.5 67q-85 0 -149 -47.5t-99.5 -140t-35.5 -228.5t35.5 -229.5t99.5 -141t149 -47.5q68 0 120.5 29
t86.5 85.5t43 137.5h457q-7 -190 -94.5 -332t-245 -220.5t-373.5 -78.5zM705 1731l202 451h433l-302 -451h-333z" />
    <glyph glyph-name="uni0108" unicode="&#x108;" horiz-adv-x="2141" 
d="M2014 1306h-500q-10 77 -41 139t-82 106t-120.5 67.5t-153.5 23.5q-149 0 -256.5 -73t-165 -211t-57.5 -334q0 -204 58.5 -341.5t165 -207t252.5 -69.5q82 0 149.5 21t119 61.5t85 99t46.5 132.5l500 -3q-13 -136 -78.5 -268t-179.5 -240.5t-277.5 -172.5t-374.5 -64
q-278 0 -497.5 122.5t-346.5 357.5t-127 572q0 338 129 573t349 357t493 122q186 0 344 -51.5t278 -150t195 -241.5t93 -327zM1303 2232l-199 232l-198 -232h-410v13l433 448h351l432 -448v-13h-409z" />
    <glyph glyph-name="uni0109" unicode="&#x109;" horiz-adv-x="1681" 
d="M872 -29q-243 0 -416.5 100t-266.5 278.5t-93 413.5q0 236 93.5 414.5t267 278.5t414.5 100q213 0 371.5 -77t248 -217.5t94.5 -329.5h-457q-14 118 -79.5 185t-170.5 67q-85 0 -149 -47.5t-99.5 -140t-35.5 -228.5t35.5 -229.5t99.5 -141t149 -47.5q68 0 120.5 29
t86.5 85.5t43 137.5h457q-7 -190 -94.5 -332t-245 -220.5t-373.5 -78.5zM1072 1720l-199 232l-198 -232h-410v13l433 448h351l432 -448v-13h-409z" />
    <glyph glyph-name="uni010A" unicode="&#x10a;" horiz-adv-x="2141" 
d="M2014 1306h-500q-10 77 -41 139t-82 106t-120.5 67.5t-153.5 23.5q-149 0 -256.5 -73t-165 -211t-57.5 -334q0 -204 58.5 -341.5t165 -207t252.5 -69.5q82 0 149.5 21t119 61.5t85 99t46.5 132.5l500 -3q-13 -136 -78.5 -268t-179.5 -240.5t-277.5 -172.5t-374.5 -64
q-278 0 -497.5 122.5t-346.5 357.5t-127 572q0 338 129 573t349 357t493 122q186 0 344 -51.5t278 -150t195 -241.5t93 -327zM1105 2227q-104 0 -178 68.5t-74 165.5q0 96 74 164.5t177 68.5q104 0 177.5 -68.5t73.5 -164.5q0 -97 -73.5 -165.5t-176.5 -68.5z" />
    <glyph glyph-name="uni010B" unicode="&#x10b;" horiz-adv-x="1681" 
d="M872 -29q-243 0 -416.5 100t-266.5 278.5t-93 413.5q0 236 93.5 414.5t267 278.5t414.5 100q213 0 371.5 -77t248 -217.5t94.5 -329.5h-457q-14 118 -79.5 185t-170.5 67q-85 0 -149 -47.5t-99.5 -140t-35.5 -228.5t35.5 -229.5t99.5 -141t149 -47.5q68 0 120.5 29
t86.5 85.5t43 137.5h457q-7 -190 -94.5 -332t-245 -220.5t-373.5 -78.5zM874 1715q-104 0 -178 68.5t-74 165.5q0 96 74 164.5t177 68.5q104 0 177.5 -68.5t73.5 -164.5q0 -97 -73.5 -165.5t-176.5 -68.5z" />
    <glyph glyph-name="uni010C" unicode="&#x10c;" horiz-adv-x="2141" 
d="M2014 1306h-500q-10 77 -41 139t-82 106t-120.5 67.5t-153.5 23.5q-149 0 -256.5 -73t-165 -211t-57.5 -334q0 -204 58.5 -341.5t165 -207t252.5 -69.5q82 0 149.5 21t119 61.5t85 99t46.5 132.5l500 -3q-13 -136 -78.5 -268t-179.5 -240.5t-277.5 -172.5t-374.5 -64
q-278 0 -497.5 122.5t-346.5 357.5t-127 572q0 338 129 573t349 357t493 122q186 0 344 -51.5t278 -150t195 -241.5t93 -327zM906 2693l198 -232l199 232h409v-13l-432 -448h-351l-433 448v13h410z" />
    <glyph glyph-name="uni010D" unicode="&#x10d;" horiz-adv-x="1681" 
d="M872 -29q-243 0 -416.5 100t-266.5 278.5t-93 413.5q0 236 93.5 414.5t267 278.5t414.5 100q213 0 371.5 -77t248 -217.5t94.5 -329.5h-457q-14 118 -79.5 185t-170.5 67q-85 0 -149 -47.5t-99.5 -140t-35.5 -228.5t35.5 -229.5t99.5 -141t149 -47.5q68 0 120.5 29
t86.5 85.5t43 137.5h457q-7 -190 -94.5 -332t-245 -220.5t-373.5 -78.5zM675 2181l198 -232l199 232h409v-13l-432 -448h-351l-433 448v13h410z" />
    <glyph glyph-name="uni010E" unicode="&#x10e;" horiz-adv-x="2056" 
d="M912 0h-757v2048h756q313 0 539.5 -122.5t349.5 -352t123 -548.5q0 -320 -122.5 -550t-349.5 -352.5t-539 -122.5zM650 422h243q172 0 291.5 58.5t181 191t61.5 353.5t-62 352.5t-182.5 190t-296.5 58.5h-236v-1204zM624 2693l198 -232l199 232h409v-13l-432 -448h-351
l-433 448v13h410z" />
    <glyph glyph-name="uni010F" unicode="&#x10f;" horiz-adv-x="2128" 
d="M716 -22q-170 0 -309 88t-222 264t-83 437q0 271 86 446t225.5 259t300.5 84q121 0 207 -41.5t142 -106.5t85 -135h10v775h489v-2048h-484v249h-15q-31 -71 -88 -133t-142.5 -100t-201.5 -38zM886 359q89 0 152 50.5t97 142.5t34 216q0 126 -33.5 217t-97 140t-152.5 49
q-91 0 -154 -50t-95.5 -141t-32.5 -215t33 -216t95.5 -142.5t153.5 -50.5zM1815 1626v531h346l-74 -531h-272z" />
    <glyph glyph-name="uni0110" unicode="&#x110;" horiz-adv-x="2056" 
d="M912 0h-546v422h527q172 0 291.5 58.5t181 191t61.5 353.5t-62 352.5t-182.5 190t-296.5 58.5h-529v422h554q313 0 539.5 -122.5t349.5 -352t123 -548.5q0 -320 -122.5 -550t-349.5 -352.5t-539 -122.5zM650 2048v-2048h-495v2048h495zM-119 951v274h1037v-274h-1037z
" />
    <glyph glyph-name="uni0111" unicode="&#x111;" horiz-adv-x="1802" 
d="M716 -22q-170 0 -309 88t-222 264t-83 437q0 271 86 446t225.5 259t300.5 84q121 0 207 -41.5t142 -106.5t85 -135h10v775h489v-2048h-484v249h-15q-31 -71 -88 -133t-142.5 -100t-201.5 -38zM886 359q89 0 152 50.5t97 142.5t34 216q0 126 -33.5 217t-97 140t-152.5 49
q-91 0 -154 -50t-95.5 -141t-32.5 -215t33 -216t95.5 -142.5t153.5 -50.5zM769 1633v273h1037v-273h-1037z" />
    <glyph glyph-name="uni0112" unicode="&#x112;" horiz-adv-x="1738" 
d="M155 0v2048h1428v-402h-933v-420h860v-403h-860v-421h933v-402h-1428zM1367 2560v-242h-987v242h987z" />
    <glyph glyph-name="uni0113" unicode="&#x113;" horiz-adv-x="1698" 
d="M873 -29q-241 0 -415.5 95.5t-268 273t-93.5 422.5q0 238 94 416.5t265 278t403 99.5q164 0 300 -51t235 -151t154 -246.5t55 -335.5v-122h-1335v284h880q-1 78 -37 139t-98.5 95.5t-143.5 34.5q-82 0 -147 -36.5t-103 -99t-40 -141.5v-289q0 -94 37 -164.5t105 -109.5
t162 -39q65 0 118 18t91 53t57 86l449 -13q-28 -151 -122.5 -262.5t-247.5 -173t-354 -61.5zM1343 2048v-242h-987v242h987z" />
    <glyph glyph-name="uni0114" unicode="&#x114;" horiz-adv-x="1738" 
d="M155 0v2048h1428v-402h-933v-420h860v-403h-860v-421h933v-402h-1428zM1073 2592h322q-1 -188 -141.5 -302t-380.5 -114t-380.5 114t-139.5 302h319q-1 -66 45 -120t156 -54q107 0 153 53t47 121z" />
    <glyph glyph-name="uni0115" unicode="&#x115;" horiz-adv-x="1698" 
d="M873 -29q-241 0 -415.5 95.5t-268 273t-93.5 422.5q0 238 94 416.5t265 278t403 99.5q164 0 300 -51t235 -151t154 -246.5t55 -335.5v-122h-1335v284h880q-1 78 -37 139t-98.5 95.5t-143.5 34.5q-82 0 -147 -36.5t-103 -99t-40 -141.5v-289q0 -94 37 -164.5t105 -109.5
t162 -39q65 0 118 18t91 53t57 86l449 -13q-28 -151 -122.5 -262.5t-247.5 -173t-354 -61.5zM1049 2080h322q-1 -188 -141.5 -302t-380.5 -114t-380.5 114t-139.5 302h319q-1 -66 45 -120t156 -54q107 0 153 53t47 121z" />
    <glyph glyph-name="uni0116" unicode="&#x116;" horiz-adv-x="1738" 
d="M155 0v2048h1428v-402h-933v-420h860v-403h-860v-421h933v-402h-1428zM874 2227q-104 0 -178 68.5t-74 165.5q0 96 74 164.5t177 68.5q104 0 177.5 -68.5t73.5 -164.5q0 -97 -73.5 -165.5t-176.5 -68.5z" />
    <glyph glyph-name="uni0117" unicode="&#x117;" horiz-adv-x="1698" 
d="M873 -29q-241 0 -415.5 95.5t-268 273t-93.5 422.5q0 238 94 416.5t265 278t403 99.5q164 0 300 -51t235 -151t154 -246.5t55 -335.5v-122h-1335v284h880q-1 78 -37 139t-98.5 95.5t-143.5 34.5q-82 0 -147 -36.5t-103 -99t-40 -141.5v-289q0 -94 37 -164.5t105 -109.5
t162 -39q65 0 118 18t91 53t57 86l449 -13q-28 -151 -122.5 -262.5t-247.5 -173t-354 -61.5zM850 1715q-104 0 -178 68.5t-74 165.5q0 96 74 164.5t177 68.5q104 0 177.5 -68.5t73.5 -164.5q0 -97 -73.5 -165.5t-176.5 -68.5z" />
    <glyph glyph-name="uni0118" unicode="&#x118;" horiz-adv-x="1738" 
d="M155 0v2048h1428v-402h-933v-420h860v-403h-860v-421h933v-402h-1428zM1386 -565q-136 0 -228.5 69t-122.5 195q-21 84 -9.5 170t55 155t116.5 102l386 -126q-95 -37 -151 -80t-55 -109q-1 -50 24.5 -76t69.5 -26q30 0 52.5 7.5t42.5 12.5l54 -234q-38 -21 -97 -40.5
t-137 -19.5z" />
    <glyph glyph-name="uni0119" unicode="&#x119;" horiz-adv-x="1698" 
d="M873 -29q-241 0 -415.5 95.5t-268 273t-93.5 422.5q0 238 94 416.5t265 278t403 99.5q164 0 300 -51t235 -151t154 -246.5t55 -335.5v-122h-1335v284h880q-1 78 -37 139t-98.5 95.5t-143.5 34.5q-82 0 -147 -36.5t-103 -99t-40 -141.5v-289q0 -94 37 -164.5t105 -109.5
t162 -39q65 0 118 18t91 53t57 86l449 -13q-28 -151 -122.5 -262.5t-247.5 -173t-354 -61.5zM1067 -511q-136 0 -228.5 69t-122.5 195q-21 84 -9.5 170t55 155t116.5 102l386 -126q-95 -37 -151 -80t-55 -109q-1 -50 24.5 -76t69.5 -26q30 0 52.5 7.5t42.5 12.5l54 -234
q-38 -21 -97 -40.5t-137 -19.5z" />
    <glyph glyph-name="uni011A" unicode="&#x11a;" horiz-adv-x="1738" 
d="M155 0v2048h1428v-402h-933v-420h860v-403h-860v-421h933v-402h-1428zM675 2693l198 -232l199 232h409v-13l-432 -448h-351l-433 448v13h410z" />
    <glyph glyph-name="uni011B" unicode="&#x11b;" horiz-adv-x="1698" 
d="M873 -29q-241 0 -415.5 95.5t-268 273t-93.5 422.5q0 238 94 416.5t265 278t403 99.5q164 0 300 -51t235 -151t154 -246.5t55 -335.5v-122h-1335v284h880q-1 78 -37 139t-98.5 95.5t-143.5 34.5q-82 0 -147 -36.5t-103 -99t-40 -141.5v-289q0 -94 37 -164.5t105 -109.5
t162 -39q65 0 118 18t91 53t57 86l449 -13q-28 -151 -122.5 -262.5t-247.5 -173t-354 -61.5zM651 2181l198 -232l199 232h409v-13l-432 -448h-351l-433 448v13h410z" />
    <glyph glyph-name="uni011C" unicode="&#x11c;" horiz-adv-x="2159" 
d="M1499 1379q-17 63 -50 111.5t-81 82.5t-110 51.5t-136 17.5q-149 0 -257.5 -72t-167.5 -209.5t-59 -333.5q0 -197 57 -336t165 -212t262 -73q136 0 230.5 44.5t143.5 126.5t49 193l92 -11h-498v361h883v-271q0 -275 -116.5 -471t-320 -301t-467.5 -105q-293 0 -515 127
t-346 362.5t-124 559.5q0 252 75 447.5t209.5 331.5t312 206t382.5 70q178 0 331.5 -51t272 -144t192.5 -221t92 -281h-501zM1298 2232l-199 232l-198 -232h-410v13l433 448h351l432 -448v-13h-409z" />
    <glyph glyph-name="uni011D" unicode="&#x11d;" horiz-adv-x="1806" 
d="M871 -608q-219 0 -375 61t-245 167t-107 240l463 26q13 -47 48.5 -82t93 -54t135.5 -19q123 0 203.5 59.5t80.5 207.5v270h-17q-29 -71 -88 -127t-146.5 -88t-200.5 -32q-168 0 -307.5 78.5t-223 244t-83.5 426.5q0 269 86 443.5t225.5 258.5t300.5 84q121 0 207.5 -41.5
t142.5 -106.5t85 -135h14v263h487v-1542q0 -195 -98 -329t-274 -203.5t-407 -69.5zM886 377q89 0 152 47t97 135t34 211q0 125 -33.5 215.5t-97 139.5t-152.5 49q-91 0 -154 -50t-95.5 -140.5t-32.5 -213.5t33 -211t95.5 -135t153.5 -47zM1075 1720l-199 232l-198 -232h-410
v13l433 448h351l432 -448v-13h-409z" />
    <glyph glyph-name="uni011E" unicode="&#x11e;" horiz-adv-x="2159" 
d="M1499 1379q-17 63 -50 111.5t-81 82.5t-110 51.5t-136 17.5q-149 0 -257.5 -72t-167.5 -209.5t-59 -333.5q0 -197 57 -336t165 -212t262 -73q136 0 230.5 44.5t143.5 126.5t49 193l92 -11h-498v361h883v-271q0 -275 -116.5 -471t-320 -301t-467.5 -105q-293 0 -515 127
t-346 362.5t-124 559.5q0 252 75 447.5t209.5 331.5t312 206t382.5 70q178 0 331.5 -51t272 -144t192.5 -221t92 -281h-501zM1299 2592h322q-1 -188 -141.5 -302t-380.5 -114t-380.5 114t-139.5 302h319q-1 -66 45 -120t156 -54q107 0 153 53t47 121z" />
    <glyph glyph-name="uni011F" unicode="&#x11f;" horiz-adv-x="1806" 
d="M871 -608q-219 0 -375 61t-245 167t-107 240l463 26q13 -47 48.5 -82t93 -54t135.5 -19q123 0 203.5 59.5t80.5 207.5v270h-17q-29 -71 -88 -127t-146.5 -88t-200.5 -32q-168 0 -307.5 78.5t-223 244t-83.5 426.5q0 269 86 443.5t225.5 258.5t300.5 84q121 0 207.5 -41.5
t142.5 -106.5t85 -135h14v263h487v-1542q0 -195 -98 -329t-274 -203.5t-407 -69.5zM886 377q89 0 152 47t97 135t34 211q0 125 -33.5 215.5t-97 139.5t-152.5 49q-91 0 -154 -50t-95.5 -140.5t-32.5 -213.5t33 -211t95.5 -135t153.5 -47zM1076 2080h322q-1 -188 -141.5 -302
t-380.5 -114t-380.5 114t-139.5 302h319q-1 -66 45 -120t156 -54q107 0 153 53t47 121z" />
    <glyph glyph-name="uni0120" unicode="&#x120;" horiz-adv-x="2159" 
d="M1499 1379q-17 63 -50 111.5t-81 82.5t-110 51.5t-136 17.5q-149 0 -257.5 -72t-167.5 -209.5t-59 -333.5q0 -197 57 -336t165 -212t262 -73q136 0 230.5 44.5t143.5 126.5t49 193l92 -11h-498v361h883v-271q0 -275 -116.5 -471t-320 -301t-467.5 -105q-293 0 -515 127
t-346 362.5t-124 559.5q0 252 75 447.5t209.5 331.5t312 206t382.5 70q178 0 331.5 -51t272 -144t192.5 -221t92 -281h-501zM1100 2227q-104 0 -178 68.5t-74 165.5q0 96 74 164.5t177 68.5q104 0 177.5 -68.5t73.5 -164.5q0 -97 -73.5 -165.5t-176.5 -68.5z" />
    <glyph glyph-name="uni0121" unicode="&#x121;" horiz-adv-x="1806" 
d="M871 -608q-219 0 -375 61t-245 167t-107 240l463 26q13 -47 48.5 -82t93 -54t135.5 -19q123 0 203.5 59.5t80.5 207.5v270h-17q-29 -71 -88 -127t-146.5 -88t-200.5 -32q-168 0 -307.5 78.5t-223 244t-83.5 426.5q0 269 86 443.5t225.5 258.5t300.5 84q121 0 207.5 -41.5
t142.5 -106.5t85 -135h14v263h487v-1542q0 -195 -98 -329t-274 -203.5t-407 -69.5zM886 377q89 0 152 47t97 135t34 211q0 125 -33.5 215.5t-97 139.5t-152.5 49q-91 0 -154 -50t-95.5 -140.5t-32.5 -213.5t33 -211t95.5 -135t153.5 -47zM877 1715q-104 0 -178 68.5
t-74 165.5q0 96 74 164.5t177 68.5q104 0 177.5 -68.5t73.5 -164.5q0 -97 -73.5 -165.5t-176.5 -68.5z" />
    <glyph glyph-name="uni0122" unicode="&#x122;" horiz-adv-x="2159" 
d="M1499 1379q-17 63 -50 111.5t-81 82.5t-110 51.5t-136 17.5q-149 0 -257.5 -72t-167.5 -209.5t-59 -333.5q0 -197 57 -336t165 -212t262 -73q136 0 230.5 44.5t143.5 126.5t49 193l92 -11h-498v361h883v-271q0 -275 -116.5 -471t-320 -301t-467.5 -105q-293 0 -515 127
t-346 362.5t-124 559.5q0 252 75 447.5t209.5 331.5t312 206t382.5 70q178 0 331.5 -51t272 -144t192.5 -221t92 -281h-501zM749 -642l128 486h445l-235 -486h-338z" />
    <glyph glyph-name="uni0123" unicode="&#x123;" horiz-adv-x="1806" 
d="M871 -608q-219 0 -375 61t-245 167t-107 240l463 26q13 -47 48.5 -82t93 -54t135.5 -19q123 0 203.5 59.5t80.5 207.5v270h-17q-29 -71 -88 -127t-146.5 -88t-200.5 -32q-168 0 -307.5 78.5t-223 244t-83.5 426.5q0 269 86 443.5t225.5 258.5t300.5 84q121 0 207.5 -41.5
t142.5 -106.5t85 -135h14v263h487v-1542q0 -195 -98 -329t-274 -203.5t-407 -69.5zM886 377q89 0 152 47t97 135t34 211q0 125 -33.5 215.5t-97 139.5t-152.5 49q-91 0 -154 -50t-95.5 -140.5t-32.5 -213.5t33 -211t95.5 -135t153.5 -47zM703 1753v195q0 111 25.5 200
t71.5 154t107 103l233 -102q-31 -50 -64 -149t-33 -225l-6 -176h-334z" />
    <glyph glyph-name="uni0124" unicode="&#x124;" horiz-adv-x="2106" 
d="M155 0v2048h495v-822h807v822h494v-2048h-494v823h-807v-823h-495zM1254 2233l-199 232l-198 -232h-410v13l433 448h351l432 -448v-13h-409z" />
    <glyph glyph-name="uni0125" unicode="&#x125;" horiz-adv-x="1789" 
d="M644 876v-876h-489v2048h473v-794h17q52 142 170.5 222t290.5 80q162 0 282 -71.5t186.5 -201.5t65.5 -304v-979h-489v883q1 128 -64 200t-183 72q-77 0 -135.5 -33.5t-91 -95.5t-33.5 -150zM592 2232l-199 232l-198 -232h-410v13l433 448h351l432 -448v-13h-409z" />
    <glyph glyph-name="uni0126" unicode="&#x126;" horiz-adv-x="2313" 
d="M2225 1718v-252h-2137v252h2137zM258 0v2048h495v-822h807v822h494v-2048h-494v823h-807v-823h-495z" />
    <glyph glyph-name="uni0127" unicode="&#x127;" horiz-adv-x="1789" 
d="M644 876v-876h-489v2048h473v-794h17q52 142 170.5 222t290.5 80q162 0 282 -71.5t186.5 -201.5t65.5 -304v-979h-489v883q1 128 -64 200t-183 72q-77 0 -135.5 -33.5t-91 -95.5t-33.5 -150zM-130 1630v273h1037v-273h-1037z" />
    <glyph glyph-name="uni0128" unicode="&#x128;" horiz-adv-x="1277" 
d="M883 2048v-2048h-495v2048h495zM358 2238l-255 2q0 203 97 307t236 105q74 0 126.5 -23.5t93 -55t76 -55t75.5 -23.5q57 1 84.5 42.5t28.5 112.5l251 -3q-3 -201 -99 -306.5t-234 -106.5q-76 -1 -129 23t-91.5 55t-73.5 54.5t-77 23.5q-49 0 -79 -39.5t-30 -112.5z" />
    <glyph glyph-name="uni0129" unicode="&#x129;" horiz-adv-x="822" 
d="M167 0v1536h489v-1536h-489zM133 1726l-255 2q0 203 97 307t236 105q74 0 126.5 -23.5t93 -55t76 -55t75.5 -23.5q57 1 84.5 42.5t28.5 112.5l251 -3q-3 -201 -99 -306.5t-234 -106.5q-76 -1 -129 23t-91.5 55t-73.5 54.5t-77 23.5q-49 0 -79 -39.5t-30 -112.5z" />
    <glyph glyph-name="uni012A" unicode="&#x12a;" horiz-adv-x="805" 
d="M650 2048v-2048h-495v2048h495zM897 2560v-242h-987v242h987z" />
    <glyph glyph-name="uni012B" unicode="&#x12b;" horiz-adv-x="799" 
d="M155 0v1536h489v-1536h-489zM893 2048v-242h-987v242h987z" />
    <glyph glyph-name="uni012C" unicode="&#x12c;" horiz-adv-x="805" 
d="M650 2048v-2048h-495v2048h495zM604 2592h322q-1 -188 -141.5 -302t-380.5 -114t-380.5 114t-139.5 302h319q-1 -66 45 -120t156 -54q107 0 153 53t47 121z" />
    <glyph glyph-name="uni012D" unicode="&#x12d;" horiz-adv-x="799" 
d="M155 0v1536h489v-1536h-489zM600 2080h322q-1 -188 -141.5 -302t-380.5 -114t-380.5 114t-139.5 302h319q-1 -66 45 -120t156 -54q107 0 153 53t47 121z" />
    <glyph glyph-name="uni012E" unicode="&#x12e;" horiz-adv-x="805" 
d="M650 2048v-2048h-495v2048h495zM452 -565q-136 0 -228.5 69t-122.5 195q-21 84 -9.5 170t55 155t116.5 102l386 -126q-95 -37 -151 -80t-55 -109q-1 -50 24.5 -76t69.5 -26q30 0 52.5 7.5t42.5 12.5l54 -234q-38 -21 -97 -40.5t-137 -19.5z" />
    <glyph glyph-name="uni012F" unicode="&#x12f;" horiz-adv-x="831" 
d="M129 0v1536h489v-1536h-489zM420 -565q-135 0 -227.5 69t-123.5 195q-21 84 -9 170t55.5 155t116.5 102l386 -126q-96 -37 -151.5 -80t-54.5 -109q-1 -50 24.5 -76t69.5 -26q30 0 52.5 7.5t41.5 12.5l55 -234q-39 -21 -97.5 -40.5t-137.5 -19.5zM375 1715
q-104 0 -178 68.5t-74 165.5q0 96 74 164.5t177 68.5q104 0 177.5 -68.5t73.5 -164.5q0 -97 -73.5 -165.5t-176.5 -68.5z" />
    <glyph glyph-name="uni0130" unicode="&#x130;" horiz-adv-x="805" 
d="M650 2048v-2048h-495v2048h495zM405 2227q-104 0 -178 68.5t-74 165.5q0 96 74 164.5t177 68.5q104 0 177.5 -68.5t73.5 -164.5q0 -97 -73.5 -165.5t-176.5 -68.5z" />
    <glyph glyph-name="uni0131" unicode="&#x131;" horiz-adv-x="799" 
d="M155 0v1536h489v-1536h-489z" />
    <glyph glyph-name="uni0132" unicode="&#x132;" horiz-adv-x="2435" 
d="M650 2048v-2048h-495v2048h495zM1792 2048h488v-1416q-1 -199 -95 -347.5t-259.5 -230.5t-382.5 -82q-192 0 -348.5 67t-249 208t-91.5 361h493q3 -79 30.5 -134.5t76.5 -83.5t117 -28q71 0 120 30.5t74.5 90.5t26.5 149v1416z" />
    <glyph glyph-name="uni0133" unicode="&#x133;" horiz-adv-x="1598" 
d="M155 0v1536h489v-1536h-489zM400 1715q-103 0 -177 68.5t-74 165.5q0 96 74 164.5t177 68.5q104 0 177.5 -68.5t73.5 -164.5q0 -97 -73.5 -165.5t-177.5 -68.5zM954 1536h489v-1600q0 -190 -77.5 -302t-218.5 -161t-333 -49q-26 0 -49 1t-50 2v371q18 -2 32 -3t28 -1
q101 0 140 37.5t39 114.5v1590zM1198 1715q-103 0 -177 68.5t-74 165.5q0 96 74 164.5t177 68.5q104 0 177.5 -68.5t73.5 -164.5q0 -97 -73.5 -165.5t-177.5 -68.5z" />
    <glyph glyph-name="uni0134" unicode="&#x134;" horiz-adv-x="1630" 
d="M987 2048h488v-1416q-1 -199 -95 -347.5t-259.5 -230.5t-382.5 -82q-192 0 -348.5 67t-249 208t-91.5 361h493q3 -79 30.5 -134.5t76.5 -83.5t117 -28q71 0 120 30.5t74.5 90.5t26.5 149v1416zM1428 2232l-199 232l-198 -232h-410v13l433 448h351l432 -448v-13h-409z" />
    <glyph glyph-name="uni0135" unicode="&#x135;" horiz-adv-x="799" 
d="M155 1536h489v-1600q0 -190 -77.5 -302t-218.5 -161t-333 -49q-26 0 -49 1t-50 2v371q18 -2 32 -3t28 -1q101 0 140 37.5t39 114.5v1590zM598 1720l-199 232l-198 -232h-410v13l433 448h351l432 -448v-13h-409z" />
    <glyph glyph-name="uni0136" unicode="&#x136;" horiz-adv-x="1977" 
d="M155 0v2048h495v-866h27l677 866h583l-726 -914l739 -1134h-592l-510 805l-198 -250v-555h-495zM632 -645l128 486h445l-235 -486h-338z" />
    <glyph glyph-name="uni0137" unicode="&#x137;" horiz-adv-x="1673" 
d="M596 403l2 583h68l432 550h554l-642 -788h-129zM155 0v2048h489v-2048h-489zM1109 0l-402 638l322 347l645 -985h-565zM504 -648l128 486h445l-235 -486h-338z" />
    <glyph glyph-name="uni0138" unicode="&#x138;" horiz-adv-x="1926" 
d="M660 1536v-1536h-471v1536h471zM1756 1536l-701 -1000h-461l-54 457h268l348 543h600zM1137 0l-351 601l409 218l543 -819h-601z" />
    <glyph glyph-name="uni0139" unicode="&#x139;" horiz-adv-x="1603" 
d="M155 0v2048h495v-1646h852v-402h-1347zM229 2243l202 451h433l-302 -451h-333z" />
    <glyph glyph-name="uni013A" unicode="&#x13a;" horiz-adv-x="799" 
d="M644 2048v-2048h-489v2048h489zM231 2243l202 451h433l-302 -451h-333z" />
    <glyph glyph-name="uni013B" unicode="&#x13b;" horiz-adv-x="1603" 
d="M155 0v2048h495v-1646h852v-402h-1347zM483 -648l128 486h445l-235 -486h-338z" />
    <glyph glyph-name="uni013C" unicode="&#x13c;" horiz-adv-x="799" 
d="M644 2048v-2048h-489v2048h489zM54 -648l128 486h445l-235 -486h-338z" />
    <glyph glyph-name="uni013D" unicode="&#x13d;" horiz-adv-x="1603" 
d="M155 0v2048h495v-1646h852v-402h-1347zM944 1626v531h346l-74 -531h-272z" />
    <glyph glyph-name="uni013E" unicode="&#x13e;" horiz-adv-x="1125" 
d="M644 2048v-2048h-489v2048h489zM812 1626v531h346l-74 -531h-272z" />
    <glyph glyph-name="uni013F" unicode="&#x13f;" horiz-adv-x="1648" 
d="M165 0v2048h495v-1646h852v-402h-1347zM1059 1031q-104 0 -178 68.5t-74 165.5q0 96 74 164.5t177 68.5q104 0 177.5 -68.5t73.5 -164.5q0 -97 -73.5 -165.5t-176.5 -68.5z" />
    <glyph glyph-name="uni0140" unicode="&#x140;" horiz-adv-x="1250" 
d="M657 2048v-2048h-489v2048h489zM1034 885q-104 0 -178 68.5t-74 165.5q0 96 74 164.5t177 68.5q104 0 177.5 -68.5t73.5 -164.5q0 -97 -73.5 -165.5t-176.5 -68.5z" />
    <glyph glyph-name="uni0141" unicode="&#x141;" horiz-adv-x="1670" 
d="M1000 1338v-257l-966 -256v253zM270 0v2048h495v-1646h853v-402h-1348z" />
    <glyph glyph-name="uni0142" unicode="&#x142;" horiz-adv-x="799" 
d="M826 1350v-256l-852 -259v256zM644 2048v-2048h-489v2048h489z" />
    <glyph glyph-name="uni0143" unicode="&#x143;" horiz-adv-x="2053" 
d="M1898 2048v-2048h-420l-815 1182h-13v-1182h-495v2048h426l806 -1180h17v1180h494zM859 2243l202 451h433l-302 -451h-333z" />
    <glyph glyph-name="uni0144" unicode="&#x144;" horiz-adv-x="1786" 
d="M644 876v-876h-489v1536h465v-282h17q51 141 174 221.5t293 80.5q162 0 281.5 -72.5t186 -202t65.5 -302.5v-979h-489v883q1 128 -64.5 200t-181.5 72q-77 0 -135.5 -33.5t-90 -95.5t-32.5 -150zM726 1731l202 451h433l-302 -451h-333z" />
    <glyph glyph-name="uni0145" unicode="&#x145;" horiz-adv-x="2053" 
d="M1898 2048v-2048h-420l-815 1182h-13v-1182h-495v2048h426l806 -1180h17v1180h494zM682 -648l128 486h445l-235 -486h-338z" />
    <glyph glyph-name="uni0146" unicode="&#x146;" horiz-adv-x="1786" 
d="M644 876v-876h-489v1536h465v-282h17q51 141 174 221.5t293 80.5q162 0 281.5 -72.5t186 -202t65.5 -302.5v-979h-489v883q1 128 -64.5 200t-181.5 72q-77 0 -135.5 -33.5t-90 -95.5t-32.5 -150zM548 -648l128 486h445l-235 -486h-338z" />
    <glyph glyph-name="uni0147" unicode="&#x147;" horiz-adv-x="2053" 
d="M1898 2048v-2048h-420l-815 1182h-13v-1182h-495v2048h426l806 -1180h17v1180h494zM830 2693l198 -232l199 232h409v-13l-432 -448h-351l-433 448v13h410z" />
    <glyph glyph-name="uni0148" unicode="&#x148;" horiz-adv-x="1786" 
d="M644 876v-876h-489v1536h465v-282h17q51 141 174 221.5t293 80.5q162 0 281.5 -72.5t186 -202t65.5 -302.5v-979h-489v883q1 128 -64.5 200t-181.5 72q-77 0 -135.5 -33.5t-90 -95.5t-32.5 -150zM696 2181l198 -232l199 232h409v-13l-432 -448h-351l-433 448v13h410z" />
    <glyph glyph-name="uni014A" unicode="&#x14a;" horiz-adv-x="2053" 
d="M1478 0h420v-55q0 -215 -81.5 -338t-231.5 -174t-355 -51q-36 0 -79.5 6.5t-81.5 18.5v361q35 -8 80.5 -13t91.5 -5q109 0 173 47.5t64 138.5v64zM1898 2048v-2048h-420l-815 1182h-13v-1182h-495v2048h426l806 -1180h17v1180h494z" />
    <glyph glyph-name="uni014B" unicode="&#x14b;" horiz-adv-x="1821" 
d="M1148 26h489v-59q0 -181 -74.5 -302t-208.5 -181t-316 -60q-61 0 -120.5 3.5t-120.5 14.5l38 396q33 -8 67.5 -13t75.5 -5q83 0 126.5 36t43.5 111v59zM644 876v-876h-489v1536h465v-282h17q51 141 174 221.5t293 80.5q162 0 281.5 -72.5t186 -202t65.5 -302.5v-979h-489
v883q1 128 -64.5 200t-181.5 72q-77 0 -135.5 -33.5t-90 -95.5t-32.5 -150z" />
    <glyph glyph-name="uni014C" unicode="&#x14c;" horiz-adv-x="2221" 
d="M2088 1024q0 -338 -130 -573t-351.5 -357t-496.5 -122q-276 0 -497 123t-350.5 357.5t-129.5 571.5q0 338 129.5 573t350.5 357t497 122q275 0 496.5 -122t351.5 -357t130 -573zM1582 1024q0 200 -56.5 338t-162 209t-253.5 71q-147 0 -253 -71t-162.5 -209t-56.5 -338
t56.5 -338t162.5 -209t253 -71q148 0 253.5 71t162 209t56.5 338zM1604 2560v-242h-987v242h987z" />
    <glyph glyph-name="uni014D" unicode="&#x14d;" horiz-adv-x="1744" 
d="M872 -29q-242 0 -415.5 99.5t-267 278t-93.5 414.5q0 237 93.5 415.5t267 278t415.5 99.5t415.5 -99.5t267 -278t93.5 -415.5q0 -236 -93.5 -414.5t-267 -278t-415.5 -99.5zM875 340q88 0 149 54t93.5 150t32.5 222q0 128 -32.5 224t-93.5 150t-149 54q-91 0 -153.5 -54
t-95 -150t-32.5 -224q0 -126 32.5 -222t95 -150t153.5 -54zM1365 2048v-242h-987v242h987z" />
    <glyph glyph-name="uni014E" unicode="&#x14e;" horiz-adv-x="2221" 
d="M2088 1024q0 -338 -130 -573t-351.5 -357t-496.5 -122q-276 0 -497 123t-350.5 357.5t-129.5 571.5q0 338 129.5 573t350.5 357t497 122q275 0 496.5 -122t351.5 -357t130 -573zM1582 1024q0 200 -56.5 338t-162 209t-253.5 71q-147 0 -253 -71t-162.5 -209t-56.5 -338
t56.5 -338t162.5 -209t253 -71q148 0 253.5 71t162 209t56.5 338zM1310 2592h322q-1 -188 -141.5 -302t-380.5 -114t-380.5 114t-139.5 302h319q-1 -66 45 -120t156 -54q107 0 153 53t47 121z" />
    <glyph glyph-name="uni014F" unicode="&#x14f;" horiz-adv-x="1744" 
d="M872 -29q-242 0 -415.5 99.5t-267 278t-93.5 414.5q0 237 93.5 415.5t267 278t415.5 99.5t415.5 -99.5t267 -278t93.5 -415.5q0 -236 -93.5 -414.5t-267 -278t-415.5 -99.5zM875 340q88 0 149 54t93.5 150t32.5 222q0 128 -32.5 224t-93.5 150t-149 54q-91 0 -153.5 -54
t-95 -150t-32.5 -224q0 -126 32.5 -222t95 -150t153.5 -54zM1072 2080h322q-1 -188 -141.5 -302t-380.5 -114t-380.5 114t-139.5 302h319q-1 -66 45 -120t156 -54q107 0 153 53t47 121z" />
    <glyph glyph-name="uni0150" unicode="&#x150;" horiz-adv-x="2221" 
d="M2088 1024q0 -338 -130 -573t-351.5 -357t-496.5 -122q-276 0 -497 123t-350.5 357.5t-129.5 571.5q0 338 129.5 573t350.5 357t497 122q275 0 496.5 -122t351.5 -357t130 -573zM1582 1024q0 200 -56.5 338t-162 209t-253.5 71q-147 0 -253 -71t-162.5 -209t-56.5 -338
t56.5 -338t162.5 -209t253 -71q148 0 253.5 71t162 209t56.5 338zM1190 2229l321 411h392l-380 -411h-333zM643 2229l282 411h391l-337 -411h-336z" />
    <glyph glyph-name="uni0151" unicode="&#x151;" horiz-adv-x="1744" 
d="M872 -29q-242 0 -415.5 99.5t-267 278t-93.5 414.5q0 237 93.5 415.5t267 278t415.5 99.5t415.5 -99.5t267 -278t93.5 -415.5q0 -236 -93.5 -414.5t-267 -278t-415.5 -99.5zM875 340q88 0 149 54t93.5 150t32.5 222q0 128 -32.5 224t-93.5 150t-149 54q-91 0 -153.5 -54
t-95 -150t-32.5 -224q0 -126 32.5 -222t95 -150t153.5 -54zM951 1717l321 411h392l-380 -411h-333zM404 1717l282 411h391l-337 -411h-336z" />
    <glyph glyph-name="uni0152" unicode="&#x152;" horiz-adv-x="2927" 
d="M1072 0q-265 0 -478 113.5t-337 340.5t-124 567q0 341 124 569.5t337 343t478 114.5h1700v-402h-934v-420h860v-403h-860v-421h934v-402h-1700zM1344 402v1244h-272q-128 0 -227.5 -61.5t-156 -199t-56.5 -364.5q0 -229 56.5 -364.5t156 -195t227.5 -59.5h272z" />
    <glyph glyph-name="uni0153" unicode="&#x153;" horiz-adv-x="2737" 
d="M878 -29q-242 0 -415.5 99.5t-267 278t-93.5 414.5q0 237 93.5 415.5t267 278t415.5 99.5t415.5 -99.5t267 -278t93.5 -415.5q0 -236 -93.5 -414.5t-267 -278t-415.5 -99.5zM881 340q88 0 149 54t93.5 150t32.5 222q0 128 -32.5 224t-93.5 150t-149 54q-91 0 -153.5 -54
t-95 -150t-32.5 -224q0 -126 32.5 -222t95 -150t153.5 -54zM1962 -29q-241 0 -415.5 95.5t-268 273t-93.5 422.5q0 238 94 416.5t265 278t403 99.5q164 0 300 -51t235 -151t154 -246.5t55 -335.5v-122h-1335v284h880q-1 78 -37 139t-98.5 95.5t-143.5 34.5q-82 0 -147 -36.5
t-103 -99t-40 -141.5v-289q0 -94 37 -164.5t105 -109.5t162 -39q65 0 118 18t91 53t57 86l449 -13q-28 -151 -122.5 -262.5t-247.5 -173t-354 -61.5z" />
    <glyph glyph-name="uni0154" unicode="&#x154;" horiz-adv-x="1864" 
d="M155 0v2048h846q230 0 397.5 -82.5t258.5 -236t91 -363.5q0 -213 -93 -361.5t-264 -226t-405 -77.5h-535v390h443q112 0 187.5 29.5t114.5 90t39 155.5t-39 157.5t-115 94t-187 31.5h-244v-1649h-495zM1308 936l510 -936h-540l-500 936h530zM751 2243l202 451h433
l-302 -451h-333z" />
    <glyph glyph-name="uni0155" unicode="&#x155;" horiz-adv-x="1186" 
d="M155 0v1536h475v-280h16q42 152 137 226.5t221 74.5q34 0 70 -4.5t67 -13.5v-425q-35 12 -91.5 19t-100.5 7q-87 0 -156.5 -38.5t-109 -107t-39.5 -160.5v-834h-489zM479 1731l202 451h433l-302 -451h-333z" />
    <glyph glyph-name="uni0156" unicode="&#x156;" horiz-adv-x="1864" 
d="M155 0v2048h846q230 0 397.5 -82.5t258.5 -236t91 -363.5q0 -213 -93 -361.5t-264 -226t-405 -77.5h-535v390h443q112 0 187.5 29.5t114.5 90t39 155.5t-39 157.5t-115 94t-187 31.5h-244v-1649h-495zM1308 936l510 -936h-540l-500 936h530zM607 -648l128 486h445
l-235 -486h-338z" />
    <glyph glyph-name="uni0157" unicode="&#x157;" horiz-adv-x="1186" 
d="M155 0v1536h475v-280h16q42 152 137 226.5t221 74.5q34 0 70 -4.5t67 -13.5v-425q-35 12 -91.5 19t-100.5 7q-87 0 -156.5 -38.5t-109 -107t-39.5 -160.5v-834h-489zM56 -648l128 486h445l-235 -486h-338z" />
    <glyph glyph-name="uni0158" unicode="&#x158;" horiz-adv-x="1864" 
d="M155 0v2048h846q230 0 397.5 -82.5t258.5 -236t91 -363.5q0 -213 -93 -361.5t-264 -226t-405 -77.5h-535v390h443q112 0 187.5 29.5t114.5 90t39 155.5t-39 157.5t-115 94t-187 31.5h-244v-1649h-495zM1308 936l510 -936h-540l-500 936h530zM722 2693l198 -232l199 232
h409v-13l-432 -448h-351l-433 448v13h410z" />
    <glyph glyph-name="uni0159" unicode="&#x159;" horiz-adv-x="1186" 
d="M155 0v1536h475v-280h16q42 152 137 226.5t221 74.5q34 0 70 -4.5t67 -13.5v-425q-35 12 -91.5 19t-100.5 7q-87 0 -156.5 -38.5t-109 -107t-39.5 -160.5v-834h-489zM449 2181l198 -232l199 232h409v-13l-432 -448h-351l-433 448v13h410z" />
    <glyph glyph-name="uni015A" unicode="&#x15a;" horiz-adv-x="1860" 
d="M1262 1434q-10 110 -88.5 171.5t-223.5 61.5q-96 0 -160 -25t-96 -68.5t-33 -99.5q-2 -46 18.5 -81t60 -61.5t95.5 -46.5t126 -35l176 -40q152 -33 268.5 -88t196 -131t120.5 -175t42 -222q-1 -194 -98 -333t-278.5 -213t-437.5 -74q-257 0 -448 77t-297 234t-109 397
h474q6 -99 53 -165t129.5 -100t191.5 -34q100 0 170.5 27t108.5 75t39 110q-1 58 -36 99.5t-107.5 72t-184.5 56.5l-214 50q-266 61 -419 197.5t-152 369.5q-1 190 102 333t285 223t415 80q238 0 413.5 -80.5t272.5 -225.5t99 -336h-474zM763 2243l202 451h433l-302 -451
h-333z" />
    <glyph glyph-name="uni015B" unicode="&#x15b;" horiz-adv-x="1619" 
d="M1496 1067l-449 -12q-7 48 -38 85.5t-80.5 59t-114.5 21.5q-85 0 -144.5 -34t-58.5 -92q-1 -45 36.5 -78t134.5 -53l296 -56q230 -44 342.5 -146t113.5 -270q-1 -158 -93.5 -275t-252.5 -181.5t-366 -64.5q-329 0 -518.5 135.5t-216.5 363.5l483 12q16 -84 83 -128
t171 -44q94 0 153 35t60 93q-1 52 -46 83.5t-141 49.5l-268 51q-231 42 -344 155.5t-112 289.5q-1 154 82 263.5t236 167.5t361 58q312 0 492 -130.5t199 -358.5zM649 1731l202 451h433l-302 -451h-333z" />
    <glyph glyph-name="uni015C" unicode="&#x15c;" horiz-adv-x="1860" 
d="M1262 1434q-10 110 -88.5 171.5t-223.5 61.5q-96 0 -160 -25t-96 -68.5t-33 -99.5q-2 -46 18.5 -81t60 -61.5t95.5 -46.5t126 -35l176 -40q152 -33 268.5 -88t196 -131t120.5 -175t42 -222q-1 -194 -98 -333t-278.5 -213t-437.5 -74q-257 0 -448 77t-297 234t-109 397
h474q6 -99 53 -165t129.5 -100t191.5 -34q100 0 170.5 27t108.5 75t39 110q-1 58 -36 99.5t-107.5 72t-184.5 56.5l-214 50q-266 61 -419 197.5t-152 369.5q-1 190 102 333t285 223t415 80q238 0 413.5 -80.5t272.5 -225.5t99 -336h-474zM1130 2232l-199 232l-198 -232h-410
v13l433 448h351l432 -448v-13h-409z" />
    <glyph glyph-name="uni015D" unicode="&#x15d;" horiz-adv-x="1619" 
d="M1496 1067l-449 -12q-7 48 -38 85.5t-80.5 59t-114.5 21.5q-85 0 -144.5 -34t-58.5 -92q-1 -45 36.5 -78t134.5 -53l296 -56q230 -44 342.5 -146t113.5 -270q-1 -158 -93.5 -275t-252.5 -181.5t-366 -64.5q-329 0 -518.5 135.5t-216.5 363.5l483 12q16 -84 83 -128
t171 -44q94 0 153 35t60 93q-1 52 -46 83.5t-141 49.5l-268 51q-231 42 -344 155.5t-112 289.5q-1 154 82 263.5t236 167.5t361 58q312 0 492 -130.5t199 -358.5zM1016 1720l-199 232l-198 -232h-410v13l433 448h351l432 -448v-13h-409z" />
    <glyph glyph-name="uni015E" unicode="&#x15e;" horiz-adv-x="1860" 
d="M1262 1434q-10 110 -88.5 171.5t-223.5 61.5q-96 0 -160 -25t-96 -68.5t-33 -99.5q-2 -46 18.5 -81t60 -61.5t95.5 -46.5t126 -35l176 -40q152 -33 268.5 -88t196 -131t120.5 -175t42 -222q-1 -194 -98 -333t-278.5 -213t-437.5 -74q-257 0 -448 77t-297 234t-109 397
h474q6 -99 53 -165t129.5 -100t191.5 -34q100 0 170.5 27t108.5 75t39 110q-1 58 -36 99.5t-107.5 72t-184.5 56.5l-214 50q-266 61 -419 197.5t-152 369.5q-1 190 102 333t285 223t415 80q238 0 413.5 -80.5t272.5 -225.5t99 -336h-474zM838 8h196l-16 -90
q110 -16 176 -79.5t67 -165.5q1 -156 -148.5 -246.5t-415.5 -90.5l-2 201q137 0 212 31t78 94q3 58 -45 92.5t-149 47.5z" />
    <glyph glyph-name="uni015F" unicode="&#x15f;" horiz-adv-x="1619" 
d="M1496 1067l-449 -12q-7 48 -38 85.5t-80.5 59t-114.5 21.5q-85 0 -144.5 -34t-58.5 -92q-1 -45 36.5 -78t134.5 -53l296 -56q230 -44 342.5 -146t113.5 -270q-1 -158 -93.5 -275t-252.5 -181.5t-366 -64.5q-329 0 -518.5 135.5t-216.5 363.5l483 12q16 -84 83 -128
t171 -44q94 0 153 35t60 93q-1 52 -46 83.5t-141 49.5l-268 51q-231 42 -344 155.5t-112 289.5q-1 154 82 263.5t236 167.5t361 58q312 0 492 -130.5t199 -358.5zM728 8h196l-16 -90q110 -16 176 -79.5t67 -165.5q1 -156 -148.5 -246.5t-415.5 -90.5l-2 201q137 0 212 31
t78 94q3 58 -45 92.5t-149 47.5z" />
    <glyph glyph-name="uni0160" unicode="&#x160;" horiz-adv-x="1860" 
d="M1262 1434q-10 110 -88.5 171.5t-223.5 61.5q-96 0 -160 -25t-96 -68.5t-33 -99.5q-2 -46 18.5 -81t60 -61.5t95.5 -46.5t126 -35l176 -40q152 -33 268.5 -88t196 -131t120.5 -175t42 -222q-1 -194 -98 -333t-278.5 -213t-437.5 -74q-257 0 -448 77t-297 234t-109 397
h474q6 -99 53 -165t129.5 -100t191.5 -34q100 0 170.5 27t108.5 75t39 110q-1 58 -36 99.5t-107.5 72t-184.5 56.5l-214 50q-266 61 -419 197.5t-152 369.5q-1 190 102 333t285 223t415 80q238 0 413.5 -80.5t272.5 -225.5t99 -336h-474zM733 2693l198 -232l199 232h409v-13
l-432 -448h-351l-433 448v13h410z" />
    <glyph glyph-name="uni0161" unicode="&#x161;" horiz-adv-x="1619" 
d="M1496 1067l-449 -12q-7 48 -38 85.5t-80.5 59t-114.5 21.5q-85 0 -144.5 -34t-58.5 -92q-1 -45 36.5 -78t134.5 -53l296 -56q230 -44 342.5 -146t113.5 -270q-1 -158 -93.5 -275t-252.5 -181.5t-366 -64.5q-329 0 -518.5 135.5t-216.5 363.5l483 12q16 -84 83 -128
t171 -44q94 0 153 35t60 93q-1 52 -46 83.5t-141 49.5l-268 51q-231 42 -344 155.5t-112 289.5q-1 154 82 263.5t236 167.5t361 58q312 0 492 -130.5t199 -358.5zM619 2181l198 -232l199 232h409v-13l-432 -448h-351l-433 448v13h410z" />
    <glyph glyph-name="uni0162" unicode="&#x162;" horiz-adv-x="1907" 
d="M88 1646v402h1731v-402h-621v-1646h-488v1646h-622zM855 8h196l-16 -90q110 -16 176 -79.5t67 -165.5q1 -156 -148.5 -246.5t-415.5 -90.5l-2 201q137 0 212 31t78 94q3 58 -45 92.5t-149 47.5z" />
    <glyph glyph-name="uni0163" unicode="&#x163;" horiz-adv-x="1117" 
d="M1022 1536v-360h-969v360h969zM256 1904h489v-1421q0 -45 14.5 -72.5t42.5 -39t67 -11.5q28 0 59.5 5.5t47.5 9.5l74 -353q-35 -10 -98.5 -25t-151.5 -19q-172 -8 -294.5 40.5t-187 151.5t-62.5 259v1475zM668 8h196l-16 -90q110 -16 176 -79.5t67 -165.5
q1 -156 -148.5 -246.5t-415.5 -90.5l-2 201q137 0 212 31t78 94q3 58 -45 92.5t-149 47.5z" />
    <glyph glyph-name="uni0164" unicode="&#x164;" horiz-adv-x="1907" 
d="M88 1646v402h1731v-402h-621v-1646h-488v1646h-622zM757 2693l198 -232l199 232h409v-13l-432 -448h-351l-433 448v13h410z" />
    <glyph glyph-name="uni0165" unicode="&#x165;" horiz-adv-x="1253" 
d="M1022 1536v-360h-969v360h969zM256 1904h489v-1421q0 -45 14.5 -72.5t42.5 -39t67 -11.5q28 0 59.5 5.5t47.5 9.5l74 -353q-35 -10 -98.5 -25t-151.5 -19q-172 -8 -294.5 40.5t-187 151.5t-62.5 259v1475zM922 1726v531h346l-74 -531h-272z" />
    <glyph glyph-name="uni0166" unicode="&#x166;" horiz-adv-x="1907" 
d="M88 1646v402h1731v-402h-621v-1646h-488v1646h-622zM432 817v273h1037v-273h-1037z" />
    <glyph glyph-name="uni0167" unicode="&#x167;" horiz-adv-x="1117" 
d="M53 747v210h969v-210h-969zM1022 1536v-360h-969v360h969zM256 1904h489v-1421q0 -45 14.5 -72.5t42.5 -39t67 -11.5q28 0 59.5 5.5t47.5 9.5l74 -353q-35 -10 -98.5 -25t-151.5 -19q-172 -8 -294.5 40.5t-187 151.5t-62.5 259v1475z" />
    <glyph glyph-name="uni0168" unicode="&#x168;" horiz-adv-x="2043" 
d="M1394 2048h494v-1321q0 -229 -109 -398.5t-304 -262t-453 -92.5q-261 0 -456 92.5t-303 262t-108 398.5v1321h495v-1278q0 -106 46.5 -189t130.5 -130t195 -47t194.5 47t130.5 130t47 189v1278zM743 2238l-255 2q0 203 97 307t236 105q74 0 126.5 -23.5t93 -55t76 -55
t75.5 -23.5q57 1 84.5 42.5t28.5 112.5l251 -3q-3 -201 -99 -306.5t-234 -106.5q-76 -1 -129 23t-91.5 55t-73.5 54.5t-77 23.5q-49 0 -79 -39.5t-30 -112.5z" />
    <glyph glyph-name="uni0169" unicode="&#x169;" horiz-adv-x="1790" 
d="M1146 663v873h488v-1536h-466v286h-16q-51 -141 -173.5 -223.5t-295.5 -82.5q-157 0 -276 72t-185 201.5t-67 303.5v979h489v-883q1 -125 66 -197t177 -72q73 0 131.5 32.5t93 95t34.5 151.5zM618 1726l-255 2q0 203 97 307t236 105q74 0 126.5 -23.5t93 -55t76 -55
t75.5 -23.5q57 1 84.5 42.5t28.5 112.5l251 -3q-3 -201 -99 -306.5t-234 -106.5q-76 -1 -129 23t-91.5 55t-73.5 54.5t-77 23.5q-49 0 -79 -39.5t-30 -112.5z" />
    <glyph glyph-name="uni016A" unicode="&#x16a;" horiz-adv-x="2043" 
d="M1394 2048h494v-1321q0 -229 -109 -398.5t-304 -262t-453 -92.5q-261 0 -456 92.5t-303 262t-108 398.5v1321h495v-1278q0 -106 46.5 -189t130.5 -130t195 -47t194.5 47t130.5 130t47 189v1278zM1515 2560v-242h-987v242h987z" />
    <glyph glyph-name="uni016B" unicode="&#x16b;" horiz-adv-x="1790" 
d="M1146 663v873h488v-1536h-466v286h-16q-51 -141 -173.5 -223.5t-295.5 -82.5q-157 0 -276 72t-185 201.5t-67 303.5v979h489v-883q1 -125 66 -197t177 -72q73 0 131.5 32.5t93 95t34.5 151.5zM1390 2048v-242h-987v242h987z" />
    <glyph glyph-name="uni016C" unicode="&#x16c;" horiz-adv-x="2043" 
d="M1394 2048h494v-1321q0 -229 -109 -398.5t-304 -262t-453 -92.5q-261 0 -456 92.5t-303 262t-108 398.5v1321h495v-1278q0 -106 46.5 -189t130.5 -130t195 -47t194.5 47t130.5 130t47 189v1278zM1221 2592h322q-1 -188 -141.5 -302t-380.5 -114t-380.5 114t-139.5 302
h319q-1 -66 45 -120t156 -54q107 0 153 53t47 121z" />
    <glyph glyph-name="uni016D" unicode="&#x16d;" horiz-adv-x="1790" 
d="M1146 663v873h488v-1536h-466v286h-16q-51 -141 -173.5 -223.5t-295.5 -82.5q-157 0 -276 72t-185 201.5t-67 303.5v979h489v-883q1 -125 66 -197t177 -72q73 0 131.5 32.5t93 95t34.5 151.5zM1096 2080h322q-1 -188 -141.5 -302t-380.5 -114t-380.5 114t-139.5 302h319
q-1 -66 45 -120t156 -54q107 0 153 53t47 121z" />
    <glyph glyph-name="uni016E" unicode="&#x16e;" horiz-adv-x="2043" 
d="M1394 2048h494v-1321q0 -229 -109 -398.5t-304 -262t-453 -92.5q-261 0 -456 92.5t-303 262t-108 398.5v1321h495v-1278q0 -106 46.5 -189t130.5 -130t195 -47t194.5 47t130.5 130t47 189v1278zM1022 2159q-131 0 -223 89.5t-92 215.5q0 84 42.5 153t114 110t157.5 41
q88 0 159 -41t113 -110t42 -153t-42 -153.5t-113 -110.5t-158 -41zM1021 2338q54 1 93 37.5t39 88.5t-38.5 89t-93.5 36q-54 -1 -92.5 -37t-38.5 -88t38.5 -89t92.5 -37z" />
    <glyph glyph-name="uni016F" unicode="&#x16f;" horiz-adv-x="1790" 
d="M1146 663v873h488v-1536h-466v286h-16q-51 -141 -173.5 -223.5t-295.5 -82.5q-157 0 -276 72t-185 201.5t-67 303.5v979h489v-883q1 -125 66 -197t177 -72q73 0 131.5 32.5t93 95t34.5 151.5zM896 1698q-92 0 -168 44t-121.5 117.5t-45.5 162.5q0 90 45.5 164
t121.5 118.5t168 44.5q93 0 169 -44.5t121 -118.5t45 -164q0 -89 -45 -162.5t-121 -117.5t-169 -44zM896 1886q61 0 102.5 40.5t41.5 95.5q0 56 -41.5 98t-102.5 41q-60 -1 -102 -42t-42 -97q0 -55 42 -96t102 -40z" />
    <glyph glyph-name="uni0170" unicode="&#x170;" horiz-adv-x="2043" 
d="M1394 2048h494v-1321q0 -229 -109 -398.5t-304 -262t-453 -92.5q-261 0 -456 92.5t-303 262t-108 398.5v1321h495v-1278q0 -106 46.5 -189t130.5 -130t195 -47t194.5 47t130.5 130t47 189v1278zM1101 2229l321 411h392l-380 -411h-333zM554 2229l282 411h391l-337 -411
h-336z" />
    <glyph glyph-name="uni0171" unicode="&#x171;" horiz-adv-x="1790" 
d="M1146 663v873h488v-1536h-466v286h-16q-51 -141 -173.5 -223.5t-295.5 -82.5q-157 0 -276 72t-185 201.5t-67 303.5v979h489v-883q1 -125 66 -197t177 -72q73 0 131.5 32.5t93 95t34.5 151.5zM976 1717l321 411h392l-380 -411h-333zM429 1717l282 411h391l-337 -411h-336
z" />
    <glyph glyph-name="uni0172" unicode="&#x172;" horiz-adv-x="2043" 
d="M1394 2048h494v-1321q0 -229 -109 -398.5t-304 -262t-453 -92.5q-261 0 -456 92.5t-303 262t-108 398.5v1321h495v-1278q0 -106 46.5 -189t130.5 -130t195 -47t194.5 47t130.5 130t47 189v1278zM1107 -564q-136 0 -228.5 69t-122.5 195q-21 84 -9.5 170t55 155t116.5 102
l386 -126q-95 -37 -151 -80t-55 -109q-1 -50 24.5 -76t69.5 -26q30 0 52.5 7.5t42.5 12.5l54 -234q-38 -21 -97 -40.5t-137 -19.5z" />
    <glyph glyph-name="uni0173" unicode="&#x173;" horiz-adv-x="1790" 
d="M1146 663v873h488v-1536h-466v286h-16q-51 -141 -173.5 -223.5t-295.5 -82.5q-157 0 -276 72t-185 201.5t-67 303.5v979h489v-883q1 -125 66 -197t177 -72q73 0 131.5 32.5t93 95t34.5 151.5zM1437 -565q-136 0 -228.5 69t-122.5 195q-21 84 -9.5 170t55 155t116.5 102
l386 -126q-95 -37 -151 -80t-55 -109q-1 -50 24.5 -76t69.5 -26q30 0 52.5 7.5t42.5 12.5l54 -234q-38 -21 -97 -40.5t-137 -19.5z" />
    <glyph glyph-name="uni0174" unicode="&#x174;" horiz-adv-x="2998" 
d="M646 0l-596 2048h547l309 -1342h17l353 1342h446l353 -1345h17l310 1345h546l-595 -2048h-477l-369 1242h-16l-369 -1242h-476zM1698 2232l-199 232l-198 -232h-410v13l433 448h351l432 -448v-13h-409z" />
    <glyph glyph-name="uni0175" unicode="&#x175;" horiz-adv-x="2429" 
d="M442 0l-400 1536h491l207 -984h13l222 984h479l228 -977h13l201 977h491l-401 -1536h-523l-240 895h-17l-240 -895h-524zM1413 1720l-199 232l-198 -232h-410v13l433 448h351l432 -448v-13h-409z" />
    <glyph glyph-name="uni0176" unicode="&#x176;" horiz-adv-x="2096" 
d="M53 2048h553l433 -857h18l433 857h553l-749 -1364v-684h-492v684zM1247 2232l-199 232l-198 -232h-410v13l433 448h351l432 -448v-13h-409z" />
    <glyph glyph-name="uni0177" unicode="&#x177;" horiz-adv-x="1677" 
d="M454 -576q-88 0 -166 13.5t-134 35.5l108 355q72 -24 130.5 -28t101 18.5t65.5 79.5l19 46l-546 1592h512l283 -1096h16l287 1096h515l-579 -1683q-42 -126 -118.5 -222.5t-197 -151.5t-296.5 -55zM1034 1720l-199 232l-198 -232h-410v13l433 448h351l432 -448v-13h-409z
" />
    <glyph glyph-name="uni0178" unicode="&#x178;" horiz-adv-x="2096" 
d="M53 2048h553l433 -857h18l433 857h553l-749 -1364v-684h-492v684zM738 2243q-95 0 -161.5 64t-66.5 154t66.5 153.5t161.5 63.5q93 0 158.5 -63.5t65.5 -153.5t-65.5 -154t-158.5 -64zM1362 2243q-95 0 -161.5 64t-66.5 154t66.5 153.5t161.5 63.5q93 0 158.5 -63.5
t65.5 -153.5t-65.5 -154t-158.5 -64z" />
    <glyph glyph-name="uni0179" unicode="&#x179;" horiz-adv-x="1917" 
d="M148 0v282l995 1364h-994v402h1620v-282l-995 -1364h994v-402h-1620zM795 2243l202 451h433l-302 -451h-333z" />
    <glyph glyph-name="uni017A" unicode="&#x17a;" horiz-adv-x="1639" 
d="M159 0v279l712 867v10h-687v380h1270v-306l-660 -840v-10h684v-380h-1319zM649 1731l202 451h433l-302 -451h-333z" />
    <glyph glyph-name="uni017B" unicode="&#x17b;" horiz-adv-x="1917" 
d="M148 0v282l995 1364h-994v402h1620v-282l-995 -1364h994v-402h-1620zM964 2227q-104 0 -178 68.5t-74 165.5q0 96 74 164.5t177 68.5q104 0 177.5 -68.5t73.5 -164.5q0 -97 -73.5 -165.5t-176.5 -68.5z" />
    <glyph glyph-name="uni017C" unicode="&#x17c;" horiz-adv-x="1639" 
d="M159 0v279l712 867v10h-687v380h1270v-306l-660 -840v-10h684v-380h-1319zM818 1715q-104 0 -178 68.5t-74 165.5q0 96 74 164.5t177 68.5q104 0 177.5 -68.5t73.5 -164.5q0 -97 -73.5 -165.5t-176.5 -68.5z" />
    <glyph glyph-name="uni017D" unicode="&#x17d;" horiz-adv-x="1917" 
d="M148 0v282l995 1364h-994v402h1620v-282l-995 -1364h994v-402h-1620zM765 2693l198 -232l199 232h409v-13l-432 -448h-351l-433 448v13h410z" />
    <glyph glyph-name="uni017E" unicode="&#x17e;" horiz-adv-x="1639" 
d="M159 0v279l712 867v10h-687v380h1270v-306l-660 -840v-10h684v-380h-1319zM619 2181l199 -232l198 232h410v-13l-433 -448h-351l-432 448v13h409z" />
    <glyph glyph-name="uni017F" unicode="&#x17f;" horiz-adv-x="835" 
d="M470 0h-472v1605q0 175 71.5 294t206.5 180t326 61q57 0 115.5 -8t119.5 -20l-32 -357q-35 6 -64 9t-79 3q-94 0 -143.5 -40t-48.5 -122v-1605z" />
    <glyph glyph-name="uni0180" unicode="&#x180;" horiz-adv-x="1802" 
d="M155 0v2048h489v-775h10q30 70 85.5 135t142 106.5t207.5 41.5q160 0 299.5 -84t225.5 -259t86 -446q0 -261 -82.5 -437t-222 -264t-309.5 -88q-116 0 -201 38t-142.5 100t-88.5 133h-15v-249h-484zM634 768q0 -124 33.5 -216t97 -142.5t152.5 -50.5q90 0 153 50.5
t95.5 142.5t32.5 216t-32.5 215t-95 141t-153.5 50q-90 0 -153 -49t-96.5 -140t-33.5 -217zM-123 1633v273h1037v-273h-1037z" />
    <glyph glyph-name="uni0181" unicode="&#x181;" horiz-adv-x="2500" 
d="M1064 1649h-330q-84 0 -130 -39t-63 -98.5t-16 -120.5v-133h-437v222q-1 178 77.5 305t223.5 195t344 68h331v-399zM785 0v2048h853q230 0 385.5 -65t234.5 -182t79 -271q0 -117 -49 -208.5t-135.5 -151.5t-198.5 -84v-20q124 -6 229.5 -67t169.5 -169.5t64 -256.5
q0 -165 -84 -294.5t-243 -204t-386 -74.5h-919zM1279 399h307q160 0 236.5 61t76.5 170q0 79 -37 136.5t-105 89t-163 31.5h-315v-488zM1279 1206h275q80 0 143 27t99 78t36 123q0 103 -73 162t-197 59h-283v-449z" />
    <glyph glyph-name="uni0182" unicode="&#x182;" horiz-adv-x="1846" 
d="M155 0v2048h1399v-402h-904v-320h270q250 0 435.5 -81t287 -228t101.5 -346t-101.5 -350t-287 -236t-435.5 -85h-765zM650 392h270q108 0 182.5 37.5t113 102t38.5 143.5q0 114 -86 190.5t-248 76.5h-270v-550z" />
    <glyph glyph-name="uni0183" unicode="&#x183;" horiz-adv-x="1802" 
d="M1477 2048v-335h-833v-440h10q30 70 85.5 135t142 106.5t207.5 41.5q160 0 299.5 -84t225.5 -259t86 -446q0 -261 -82.5 -437t-222 -264t-309.5 -88q-116 0 -201 38t-142.5 100t-88.5 133h-15v-249h-484v2048h1322zM634 768q0 -124 33.5 -216t97 -142.5t152.5 -50.5
q90 0 153 50.5t95.5 142.5t32.5 216t-32.5 215t-95 141t-153.5 50q-90 0 -153 -49t-96.5 -140t-33.5 -217z" />
    <glyph glyph-name="uni0184" unicode="&#x184;" horiz-adv-x="2274" 
d="M935 2048v-402h-897v402h897zM846 1326h456q250 0 435 -81t287 -228t102 -346t-102 -350t-287 -236t-435 -85h-765v2048h494v-1656h271q108 0 182 37.5t112.5 102t38.5 143.5q0 114 -85.5 190.5t-247.5 76.5h-456v384z" />
    <glyph glyph-name="uni0185" unicode="&#x185;" horiz-adv-x="1917" 
d="M386 2112h73v-672h-73l-276 216v234zM667 1382h212q27 62 82 100.5t125 56t144 17.5q158 0 298 -84t228 -259t89 -446q-1 -263 -85 -438.5t-223.5 -263t-305.5 -87.5q-86 0 -156.5 17.5t-120.5 55t-75 95.5h-212v1236zM1385 768q-1 128 -34.5 219t-100 139t-166.5 48
q-110 0 -170 -56t-84 -148t-23 -202q-1 -108 22 -201.5t83.5 -150.5t171.5 -57q99 0 166 48.5t100.5 140t34.5 220.5zM374 2048h488v-764l-179 -545l175 -432v-307h-484v2048z" />
    <glyph glyph-name="uni0186" unicode="&#x186;" horiz-adv-x="2141" 
d="M126 742h501q10 -77 41 -139t82 -106t120.5 -67.5t153.5 -23.5q149 0 256.5 73t164.5 211t57 334q0 204 -58 341.5t-164.5 207t-252.5 69.5q-81 0 -149 -21t-119.5 -61.5t-84.5 -99t-47 -132.5l-501 3q15 137 79.5 268.5t179 240t278 172.5t374.5 64q278 0 497.5 -122.5
t346.5 -357t127 -572.5t-129 -573t-349 -357t-493 -122q-185 0 -343.5 51.5t-279 150t-194.5 242t-94 326.5z" />
    <glyph glyph-name="uni0187" unicode="&#x187;" horiz-adv-x="2422" 
d="M2014 1306h-476v217q0 195 95.5 328t250.5 201.5t336 68.5q58 0 110.5 -1.5t115.5 -10.5v-392q-27 0 -69 2.5t-68 2.5q-64 0 -132 -25.5t-115.5 -85t-47.5 -161.5v-144zM2014 1306h-500q-10 77 -41 139t-82 106t-120.5 67.5t-153.5 23.5q-149 0 -256.5 -73t-165 -211
t-57.5 -334q0 -204 58.5 -341.5t165 -207t252.5 -69.5q82 0 149.5 21t119 61.5t85 99t46.5 132.5l500 -3q-13 -136 -78.5 -268t-179.5 -240.5t-277.5 -172.5t-374.5 -64q-278 0 -497.5 122.5t-346.5 357.5t-127 572q0 338 129 573t349 357t493 122q186 0 344 -51.5t278 -150
t195 -241.5t93 -327z" />
    <glyph glyph-name="uni0188" unicode="&#x188;" horiz-adv-x="1842" 
d="M1591 932h-447v245q0 162 70.5 275.5t192.5 173t275 59.5q46 0 93 -7t97 -21v-306q-29 3 -56 7t-58 4q-88 0 -127.5 -44t-39.5 -144v-242zM872 -29q-243 0 -416.5 100t-266.5 278.5t-93 413.5q0 236 93.5 414.5t267 278.5t414.5 100q213 0 371.5 -77t248 -217.5
t94.5 -329.5h-457q-14 118 -79.5 185t-170.5 67q-85 0 -149 -47.5t-99.5 -140t-35.5 -228.5t35.5 -229.5t99.5 -141t149 -47.5q68 0 120.5 29t86.5 85.5t43 137.5h457q-7 -190 -94.5 -332t-245 -220.5t-373.5 -78.5z" />
    <glyph glyph-name="uni0189" unicode="&#x189;" horiz-adv-x="2056" 
d="M912 0h-546v422h527q172 0 291.5 58.5t181 191t61.5 353.5t-62 352.5t-182.5 190t-296.5 58.5h-529v422h554q313 0 539.5 -122.5t349.5 -352t123 -548.5q0 -320 -122.5 -550t-349.5 -352.5t-539 -122.5zM650 2048v-2048h-495v2048h495zM-119 951v274h1037v-274h-1037z
" />
    <glyph glyph-name="uni018A" unicode="&#x18a;" horiz-adv-x="2692" 
d="M88 1258v222q-1 178 77.5 305t223.5 195t344 68h331v-422h-330q-84 0 -130 -33.5t-63 -87t-16 -114.5v-133h-437zM1548 0h-757v2048h756q313 0 539.5 -122.5t349.5 -352t123 -548.5q0 -320 -122.5 -550t-349.5 -352.5t-539 -122.5zM1286 422h243q172 0 291.5 58.5
t181 191t61.5 353.5t-62 352.5t-182.5 190t-296.5 58.5h-236v-1204z" />
    <glyph glyph-name="uni018B" unicode="&#x18b;" horiz-adv-x="1926" 
d="M1759 0h-764q-250 0 -435.5 86t-287.5 237t-102 348t102 344.5t287.5 229.5t435.5 82h279v330h-913v395h1398v-2052zM1274 388v554h-279q-165 0 -251.5 -76.5t-86.5 -190.5q0 -79 38.5 -144.5t114 -104t185.5 -38.5h279z" />
    <glyph glyph-name="uni018C" unicode="&#x18c;" horiz-adv-x="1802" 
d="M326 2048h1056v-335h-1056v335zM1647 0h-484v249h-15q-31 -71 -88 -133t-142.5 -100t-201.5 -38q-170 0 -309 88t-222 264t-83 437q0 271 86 446t225.5 259t300.5 84q121 0 207 -41.5t142 -106.5t85 -135h10v775h489v-2048zM1169 768q0 126 -33.5 217t-97 140t-152.5 49
q-91 0 -154 -50t-95.5 -141t-32.5 -215t33 -216t95.5 -142.5t153.5 -50.5q89 0 152 50.5t97 142.5t34 216z" />
    <glyph glyph-name="uni018D" unicode="&#x18d;" horiz-adv-x="1952" 
d="M1550 -516h-1172v372h567q-23 16 -57.5 35.5t-81.5 49t-107 75.5q-137 106 -242 221t-164 244t-59 275v28q0 230 85.5 404t251.5 271t407 97q238 0 404.5 -89t253 -248t86.5 -371v-28q0 -196 -74.5 -345.5t-198 -242.5t-270.5 -118q-4 -1 -20 -1h-31q43 -34 102.5 -88
t121 -113t115 -111t83.5 -83v-234zM1254 756v28q0 105 -20.5 196t-80.5 146.5t-175 55.5q-109 0 -169 -51.5t-84 -141.5t-24 -205v-28q0 -152 63 -255t150 -149q15 -7 30 -8.5t32 -1.5q104 0 165 55.5t87 149.5t26 209z" />
    <glyph glyph-name="uni018E" unicode="&#x18e;" horiz-adv-x="1738" 
d="M1583 2048v-2048h-1428v402h934v420h-860v403h860v421h-934v402h1428z" />
    <glyph glyph-name="uni018F" unicode="&#x18f;" horiz-adv-x="2192" 
d="M1077 -28q-274 0 -473.5 115.5t-307 329t-108.5 507.5v252h1449v-398h-963v-41q0 -100 46.5 -175.5t136 -117.5t218.5 -42q157 0 255 62.5t143 168.5t45 240v294q0 102 -25.5 188t-89 150.5t-175.5 100.5t-286 36q-97 0 -199.5 -10.5t-192.5 -27t-153 -34.5l-71 409
q27 13 96 29.5t164 32t202 25.5t212 10q327 0 550.5 -115.5t339 -320.5t115.5 -473v-294q0 -264 -116 -467t-324.5 -318.5t-487.5 -115.5z" />
    <glyph glyph-name="uni0190" unicode="&#x190;" horiz-adv-x="1926" 
d="M1218 980h-341q-200 0 -356 64.5t-244.5 178.5t-88.5 264q0 185 95.5 317t272 202t420.5 70q220 0 392 -73.5t270.5 -203t99.5 -297.5h-486q-1 89 -71.5 135.5t-206.5 46.5q-101 0 -167 -25.5t-98 -76t-32 -126.5q0 -71 29.5 -122.5t92 -79.5t159.5 -28h260v-246z
M877 1100h341v-242h-260q-108 0 -177 -29t-102 -85.5t-33 -139.5q0 -89 37.5 -142.5t107 -77.5t166.5 -24q160 0 241 53.5t82 142.5h489q-1 -178 -104 -309.5t-282.5 -203t-408.5 -71.5q-254 0 -437.5 68.5t-282 202.5t-98.5 330q0 253 190 390t531 137z" />
    <glyph glyph-name="uni0191" unicode="&#x191;" horiz-adv-x="1729" 
d="M238 0h495v-71q0 -165 -49.5 -265.5t-133.5 -152t-188.5 -69.5t-215.5 -18q-34 0 -98.5 1t-108.5 8v367q22 -3 47 -2.5t42 0.5q81 0 145.5 26t64.5 106v70zM238 0v2048h1398v-402h-903v-420h814v-403h-814v-823h-495z" />
    <glyph glyph-name="uni0192" unicode="&#x192;" horiz-adv-x="1398" 
d="M1203 1488v-335h-305v-1167q0 -274 -144.5 -418t-403.5 -144q-55 0 -108 4t-116 16l20 370q25 -7 63.5 -11.5t66.5 -4.5q99 0 126 51t27 137v1167h-226v335h226v117q1 262 161 398.5t443 136.5q68 0 126.5 -8t112.5 -18l-34 -357q-29 6 -61 9.5t-87 3.5q-87 0 -139 -42
t-53 -123v-117h305z" />
    <glyph glyph-name="uni0193" unicode="&#x193;" horiz-adv-x="2406" 
d="M1999 1379h-505v344q0 146 57 258t155 188.5t223 115.5t260 39q55 0 108.5 -7t113.5 -21v-386q-34 3 -67 7.5t-66 4.5q-72 0 -136 -14.5t-103.5 -57t-39.5 -127.5v-344zM1499 1379q-17 63 -50 111.5t-81 82.5t-110 51.5t-136 17.5q-149 0 -257.5 -72t-167.5 -209.5
t-59 -333.5q0 -197 57 -336t165 -212t262 -73q136 0 230.5 44.5t143.5 126.5t49 193l92 -11h-498v361h883v-271q0 -275 -116.5 -471t-320 -301t-467.5 -105q-293 0 -515 127t-346 362.5t-124 559.5q0 252 75 447.5t209.5 331.5t312 206t382.5 70q178 0 331.5 -51t272 -144
t192.5 -221t92 -281h-501z" />
    <glyph glyph-name="uni0194" unicode="&#x194;" horiz-adv-x="2205" 
d="M114 2048h566l562 -1215q132 -279 221.5 -486t135 -347t45.5 -221q0 -111 -67.5 -199t-189 -138t-285.5 -50q-249 0 -403 106.5t-154 293.5q0 36 9.5 80.5t35 114t72.5 178.5t122 272t183 397l555 1214h568l-934 -1831q-37 -75 -65 -147.5t-42.5 -137t-14.5 -116.5
q0 -48 17 -73t51 -25t51.5 25.5t17.5 74.5q0 52 -14.5 117t-40.5 137t-63 145z" />
    <glyph glyph-name="uni0195" unicode="&#x195;" horiz-adv-x="2802" 
d="M155 0v2048h473v-794h17q52 142 170.5 222t290.5 80q162 0 281.5 -71.5t186 -201.5t66.5 -304v-211h-489v115q0 128 -64.5 200t-182.5 72q-77 0 -135.5 -33.5t-91 -95.5t-33.5 -150v-876h-489zM1807 -28q-215 0 -361 76t-220.5 216.5t-74.5 330.5v173h489v-173
q0 -78 25 -127.5t66.5 -72.5t91.5 -23q117 0 191 115.5t109 340.5t35 551v157h488v-157q0 -466 -84.5 -779t-269 -470.5t-485.5 -157.5z" />
    <glyph glyph-name="uni0196" unicode="&#x196;" horiz-adv-x="888" 
d="M155 2048h489v-1568q1 -60 27 -88.5t82 -28.5q29 1 46 3.5t28 6.5l74 -345q-34 -11 -81.5 -22t-136.5 -15q-271 -12 -399 92.5t-129 342.5v1622z" />
    <glyph glyph-name="uni0197" unicode="&#x197;" horiz-adv-x="805" 
d="M650 2048v-2048h-495v2048h495zM-119 952v273h1037v-273h-1037z" />
    <glyph glyph-name="uni0198" unicode="&#x198;" horiz-adv-x="2106" 
d="M155 0v2048h495v-837h27l626 650q114 117 240.5 170.5t263.5 40.5t282 -95l-151 -347q-90 44 -148.5 19.5t-125.5 -92.5l-450 -462l841 -1095h-591l-565 744l-249 -262v-482h-495z" />
    <glyph glyph-name="uni0199" unicode="&#x199;" horiz-adv-x="1666" 
d="M1141 0l-361 532l-136 -149v-383h-489v1456h489v-407h20l416 487h562l-572 -656l598 -880h-527zM644 1298h-489v273q0 166 50 266t133 151.5t184 69.5t203 18q77 0 139.5 -5.5t105.5 -9.5v-367q-29 3 -57.5 5.5t-57.5 2.5q-76 0 -143 -26t-68 -105v-273z" />
    <glyph glyph-name="uni019A" unicode="&#x19a;" horiz-adv-x="799" 
d="M644 2048v-2048h-489v2048h489zM-121 929v273h1037v-273h-1037z" />
    <glyph glyph-name="uni019B" unicode="&#x19b;" horiz-adv-x="1917" 
d="M1226 1898v-281l-929 -291v286zM947 883l-296 -883h-502l563 1535l323 1zM584 2127q157 0 255.5 -62.5t146.5 -178.5l579 -1373q15 -36 36 -74.5t50.5 -65.5t70.5 -27h28h20l-2 -367q-33 -6 -75.5 -6h-96.5q-128 0 -218 43.5t-149 116.5t-93 164l-370 1012l-149 323
q-26 57 -72.5 87.5t-124.5 30.5q-18 0 -39 -0.5t-51 -3.5l-13 349q56 16 136.5 24t130.5 8z" />
    <glyph glyph-name="uni019C" unicode="&#x19c;" horiz-adv-x="2733" 
d="M2047 372v1676h471v-2048h-420zM2106 692l134 4q0 -208 -68.5 -371.5t-200.5 -258t-321 -94.5q-158 0 -274 59t-179.5 191.5t-63.5 353.5v1472h464v-1472q0 -76 24 -127t69 -76.5t109 -25.5q113 0 180.5 45.5t97 123.5t29.5 176zM1192 692l141 4q0 -213 -67.5 -376
t-201 -255.5t-329.5 -92.5q-175 0 -289.5 60t-171 192.5t-56.5 351.5v1472h465v-1472q0 -76 24 -127t69 -76.5t109 -25.5q113 0 180.5 45t97 122.5t29.5 177.5z" />
    <glyph glyph-name="uni019D" unicode="&#x19d;" horiz-adv-x="2113" 
d="M215 0h495v-71q0 -165 -50 -265.5t-133.5 -152t-185.5 -69.5t-206 -18q-39 0 -108.5 1t-110.5 8v367q21 -3 46.5 -2.5t42.5 0.5q81 0 145.5 26t64.5 106v70zM1958 2048v-2048h-420l-815 1182h-13v-1182h-495v2048h426l806 -1180h17v1180h494z" />
    <glyph glyph-name="uni019E" unicode="&#x19e;" horiz-adv-x="1786" 
d="M644 876v-876h-489v1536h465v-282h17q51 141 174.5 221.5t292.5 80.5q162 0 282 -72t185.5 -201.5t65.5 -303.5v-1555h-489v1459q0 127 -64.5 199.5t-181.5 72.5q-77 0 -135 -33.5t-90.5 -95.5t-32.5 -150z" />
    <glyph glyph-name="uni019F" unicode="&#x19f;" horiz-adv-x="2221" 
d="M2088 1024q0 -338 -130 -573t-351.5 -357t-496.5 -122q-276 0 -497 123t-350.5 357.5t-129.5 571.5q0 338 129.5 573t350.5 357t497 122q275 0 496.5 -122t351.5 -357t130 -573zM1582 1024q0 200 -56.5 338t-162 209t-253.5 71q-147 0 -253 -71t-162.5 -209t-56.5 -338
t56.5 -338t162.5 -209t253 -71q148 0 253.5 71t162 209t56.5 338zM1754 1174v-300h-1287v300h1287z" />
    <glyph glyph-name="uni01A0" unicode="&#x1a0;" horiz-adv-x="2327" 
d="M2006 2132h288q0 -299 -125 -465t-402 -166v228q142 0 190.5 106t48.5 297zM2088 1024q0 -338 -130 -573t-351.5 -357t-496.5 -122q-276 0 -497 123t-350.5 357.5t-129.5 571.5q0 338 129.5 573t350.5 357t497 122q275 0 496.5 -122t351.5 -357t130 -573zM1582 1024
q0 200 -56.5 338t-162 209t-253.5 71q-147 0 -253 -71t-162.5 -209t-56.5 -338t56.5 -338t162.5 -209t253 -71q148 0 253.5 71t162 209t56.5 338z" />
    <glyph glyph-name="uni01A1" unicode="&#x1a1;" horiz-adv-x="1812" 
d="M1547 1617h265q0 -262 -128 -406.5t-403 -144.5v172q108 0 165.5 45t79 130t21.5 204zM872 -29q-242 0 -415.5 99.5t-267 278t-93.5 414.5q0 237 93.5 415.5t267 278t415.5 99.5t415.5 -99.5t267 -278t93.5 -415.5q0 -236 -93.5 -414.5t-267 -278t-415.5 -99.5zM875 340
q88 0 149 54t93.5 150t32.5 222q0 128 -32.5 224t-93.5 150t-149 54q-91 0 -153.5 -54t-95 -150t-32.5 -224q0 -126 32.5 -222t95 -150t153.5 -54z" />
    <glyph glyph-name="uni01A2" unicode="&#x1a2;" horiz-adv-x="2698" 
d="M1859 1271v-1021q-57 -64 -169.5 -128.5t-269 -107t-350.5 -42.5q-222 0 -395.5 66t-294.5 191.5t-184 306t-63 409.5v127l495 4v-131q0 -178 43 -309.5t144 -203.5t273 -72q103 0 180.5 24.5t120.5 58.5v828h470zM1859 1798v-1005l-470 -7v821q-51 42 -131.5 61
t-165.5 19q-135 0 -224.5 -38.5t-142 -113t-75 -183t-22.5 -249.5v-147l-495 3v144q0 232 63.5 412t185 305.5t296 190.5t397.5 65q194 0 349.5 -42.5t267 -106.5t167.5 -129zM2542 2048v-2624h-464v2048l-480 -225v523l595 278h349z" />
    <glyph glyph-name="uni01A3" unicode="&#x1a3;" horiz-adv-x="2198" 
d="M831 349q60 0 104.5 15.5t73.5 47.5v493h468v-595q-51 -92 -130.5 -168.5t-202 -123t-306.5 -46.5q-240 0 -400 98.5t-240 270t-80 388.5v30q0 236 80 415.5t240.5 280.5t402.5 101q166 0 294.5 -62.5t215.5 -151.5t126 -168v-372l-468 39v255q-30 42 -74 64t-112 22
q-105 0 -156.5 -56.5t-67.5 -153t-16 -213.5v-30q0 -97 16.5 -184t69.5 -141.5t162 -54.5zM2083 1536v-2112h-470v1602l-339 -115v419l497 206h312z" />
    <glyph glyph-name="uni01A4" unicode="&#x1a4;" horiz-adv-x="2466" 
d="M525 1258h-437v222q-1 178 77.5 305t223.5 195t344 68h897q231 0 398.5 -89.5t258.5 -249t91 -370.5q0 -212 -93 -370.5t-264 -245.5t-406 -87h-336v-636h-494v1649h-51q-84 0 -130 -39t-63 -98.5t-16 -120.5v-133zM1279 1026h245q111 0 187 39t115 109.5t39 164.5
q0 95 -39 164.5t-115 107.5t-188 38h-244v-623z" />
    <glyph glyph-name="uni01A5" unicode="&#x1a5;" horiz-adv-x="1802" 
d="M639 1536h-484q0 230 129 326t414 96q84 0 147.5 -10t96.5 -18v-312q-17 5 -61.5 13.5t-94.5 10.5q-77 1 -112 -25t-35 -81zM155 -576v2112h484v-263h15q30 70 85.5 135t142 106.5t207.5 41.5q160 0 299.5 -84t225.5 -259t86 -446q0 -261 -82.5 -437t-222 -264
t-309.5 -88q-116 0 -201 38t-142.5 100t-88.5 133h-10v-825h-489zM634 768q0 -124 33.5 -216t97 -142.5t152.5 -50.5q90 0 153 50.5t95.5 142.5t32.5 216t-32.5 215t-95 141t-153.5 50q-90 0 -153 -49t-96.5 -140t-33.5 -217z" />
    <glyph glyph-name="uni01A6" unicode="&#x1a6;" horiz-adv-x="2186" 
d="M133 1908v280h486v-280h-486zM133 2048h812q239 0 415 -69.5t272.5 -204.5t96.5 -333q0 -176 -55.5 -292.5t-155 -190t-231.5 -122.5l-162 -96h-682l-3 388h505q97 0 163.5 32t100.5 90.5t34 139.5q0 83 -34 142.5t-100.5 91.5t-163.5 32h-323v-1656h-489v2048z
M1531 -477l-716 1363h515l723 -1344v-19h-522z" />
    <glyph glyph-name="uni01A7" unicode="&#x1a7;" horiz-adv-x="1860" 
d="M598 1434h-474q2 191 99 336t272.5 225.5t413.5 80.5q234 0 415.5 -80t285 -223t101.5 -333q1 -233 -152 -369.5t-419 -197.5l-214 -50q-112 -26 -184.5 -56.5t-107.5 -72t-36 -99.5q1 -62 39 -110t108.5 -75t170.5 -27q110 0 192 34t129.5 100t52.5 165h474
q-3 -240 -109 -397t-297 -234t-448 -77q-255 0 -437 74t-279 213t-98 333q1 123 42 222t120.5 175t196.5 131t268 88l176 40q93 20 161 49t105 71.5t34 103.5q0 56 -32.5 99.5t-96.5 68.5t-160 25t-163.5 -28t-104.5 -80t-44 -125z" />
    <glyph glyph-name="uni01A8" unicode="&#x1a8;" horiz-adv-x="1619" 
d="M123 1067q20 228 199.5 358.5t491.5 130.5q209 0 361.5 -58t235.5 -167.5t83 -263.5q1 -176 -112.5 -289.5t-343.5 -155.5l-269 -51q-184 -36 -187 -133q2 -58 60.5 -93t152.5 -35q104 0 171.5 44t82.5 128l483 -12q-26 -228 -215.5 -363.5t-518.5 -135.5
q-206 0 -366.5 64.5t-253 181.5t-92.5 275q1 168 114 270t342 146l295 56q98 20 135.5 53t35.5 78q2 58 -58 92t-145 34q-97 0 -159.5 -46.5t-73.5 -119.5z" />
    <glyph glyph-name="uni01A9" unicode="&#x1a9;" horiz-adv-x="1933" 
d="M1704 398v-398h-1299v398h1299zM1685 2052v-402h-1203v402h1203zM1342 1038v-19l-717 -1019h-402v211l607 817l-607 812v212h402z" />
    <glyph glyph-name="uni01AA" unicode="&#x1aa;" horiz-adv-x="1942" 
d="M947 1298l468 247v-1555q0 -107 52 -161.5t145 -54.5q32 0 63.5 3t72.5 9v-367q-52 -12 -107 -16.5t-117 -4.5q-268 0 -422.5 153t-154.5 439v1308zM194 1545q0 162 81.5 297.5t220 216.5t307.5 81q167 0 306.5 -81t223 -216.5t82.5 -297.5q-1 -163 -84 -298.5
t-222 -216.5t-306 -81t-305 80t-220.5 215.5t-83.5 300.5zM806 1342q54 0 99.5 22.5t73 69t26.5 115.5q-1 101 -60.5 151t-138.5 50q-60 0 -106 -23t-72 -68t-27 -110q-1 -104 57 -155.5t148 -51.5z" />
    <glyph glyph-name="uni01AB" unicode="&#x1ab;" horiz-adv-x="1128" 
d="M742 331l319 67v-469q0 -241 -131.5 -371.5t-358.5 -130.5q-53 0 -98 5t-95 17v309q26 -3 53.5 -5.5t63.5 -2.5q51 0 108.5 13t98 52t40.5 114v402zM1022 1536v-360h-969v360h969zM256 1904h489v-1421q0 -45 14.5 -72.5t42.5 -39t67 -11.5q28 0 59.5 5.5t47.5 9.5
l74 -353q-35 -10 -98.5 -25t-151.5 -19q-172 -8 -294.5 40.5t-187 151.5t-62.5 259v1475z" />
    <glyph glyph-name="uni01AC" unicode="&#x1ac;" horiz-adv-x="2000" 
d="M1912 2048v-402h-622v-1646h-488v1646h-101q-87 0 -132 -38.5t-61.5 -97t-16.5 -121.5v-134h-403v223q0 266 156.5 418t456.5 152h1211z" />
    <glyph glyph-name="uni01AD" unicode="&#x1ad;" horiz-adv-x="1411" 
d="M860 1401h-465v232q0 161 46 260.5t126.5 153.5t185.5 73.5t223 19.5q85 0 140.5 -5.5t104.5 -17.5v-309q-18 4 -47.5 8t-63.5 4q-53 0 -111 -14.5t-98.5 -55t-40.5 -117.5v-232zM1119 1488v-335h-928v335h928zM395 1546h465v-1054q0 -82 37.5 -111.5t121.5 -29.5
q40 0 67.5 2t52.5 5v-345q-63 -24 -129.5 -32.5t-138.5 -8.5q-150 0 -256.5 47t-163 148t-56.5 264v1115z" />
    <glyph glyph-name="uni01AE" unicode="&#x1ae;" horiz-adv-x="1907" 
d="M1198 0v-71q0 -79 66.5 -105t144.5 -26h89v-374h-220q-104 0 -205.5 18t-183.5 70.5t-130.5 153.5t-48.5 265v69h488zM88 1646v402h1731v-402h-621v-1646h-488v1646h-622z" />
    <glyph glyph-name="uni01AF" unicode="&#x1af;" horiz-adv-x="2455" 
d="M2078 2105h289q0 -207 -53 -356t-187 -228.5t-377 -79.5v234q158 0 226.5 52.5t85 149t16.5 228.5zM1394 2048h494v-1321q0 -229 -109 -398.5t-304 -262t-453 -92.5q-261 0 -456 92.5t-303 262t-108 398.5v1321h495v-1278q0 -106 46.5 -189t130.5 -130t195 -47t194.5 47
t130.5 130t47 189v1278z" />
    <glyph glyph-name="uni01B0" unicode="&#x1b0;" horiz-adv-x="2078" 
d="M1859 1626h259q0 -180 -55 -302.5t-183.5 -184.5t-349.5 -62v199q144 0 214 39t92 117t23 194zM1158 663v873h489v-1536h-466v286h-16q-51 -141 -174 -223.5t-295 -82.5q-158 0 -276.5 72t-184.5 201.5t-67 303.5v979h489v-883q1 -125 65.5 -197t177.5 -72
q73 0 131.5 32.5t93 95t33.5 151.5z" />
    <glyph glyph-name="uni01B1" unicode="&#x1b1;" horiz-adv-x="2208" 
d="M114 926q0 246 99 421t268 283v16h-367v402h840v-504q-100 -40 -176.5 -124t-119 -199t-42.5 -250q0 -163 62.5 -290t172.5 -199.5t253 -72.5q108 0 197 41.5t154 117.5t101 179t36 224q0 135 -42.5 250t-119 199t-176.5 124v504h840v-402h-367v-16q169 -107 268 -282.5
t99 -421.5q0 -209 -72.5 -384t-205.5 -302.5t-314 -197.5t-398 -70t-398 70t-314 197.5t-205.5 302.5t-72.5 384z" />
    <glyph glyph-name="uni01B2" unicode="&#x1b2;" horiz-adv-x="1917" 
d="M962 -28q-241 0 -425.5 84.5t-288.5 247.5t-104 398v1346h486v-1346q0 -163 79 -252.5t253 -89.5q173 0 247.5 89.5t74.5 252.5v782q0 111 -36 152t-140 41q-29 0 -62.5 -3t-71.5 -8v386q58 12 108 18t107 6q280 0 434 -153t154 -439v-782q0 -234 -102 -397t-285.5 -248
t-427.5 -85z" />
    <glyph glyph-name="uni01B3" unicode="&#x1b3;" horiz-adv-x="2302" 
d="M73 2048h533l514 -857h24l354 586q93 154 220 223t269 70.5t278 -48.5l-103 -366q-111 32 -172 3.5t-122 -122.5l-490 -763v-774h-492v774z" />
    <glyph glyph-name="uni01B4" unicode="&#x1b4;" horiz-adv-x="1799" 
d="M454 -576q-88 0 -166 13.5t-134 35.5l108 355q72 -24 130.5 -28t101 18.5t65.5 79.5l19 46l-546 1592h512l283 -1096h16l283 1023q38 136 99.5 235t152.5 153.5t216 54.5q74 0 143 -12t126 -32l-80 -380q-35 10 -63 13t-49 -4q-36 -8 -58.5 -39t-43.5 -90l-487 -1509
q-60 -189 -212 -309t-416 -120z" />
    <glyph glyph-name="uni01B5" unicode="&#x1b5;" horiz-adv-x="1917" 
d="M148 0v282l995 1364h-994v402h1620v-282l-995 -1364h994v-402h-1620zM476 952v273h1037v-273h-1037z" />
    <glyph glyph-name="uni01B6" unicode="&#x1b6;" horiz-adv-x="1639" 
d="M159 0v279l712 867v10h-687v380h1270v-306l-660 -840v-10h684v-380h-1319zM294 641v273h1037v-273h-1037z" />
    <glyph glyph-name="uni01B7" unicode="&#x1b7;" horiz-adv-x="1936" 
d="M88 168h498q6 -108 55.5 -190t131.5 -127.5t185 -45.5q120 0 204.5 62t129.5 170t45 247q0 156 -55 269t-151.5 173.5t-221.5 60.5h-245v349l534 486v16h-997v410h1600v-356l-647 -583v-20q211 -20 368 -126t244 -278t87 -392q0 -196 -66 -360.5t-185 -285.5t-282 -188
t-357 -67q-248 0 -443.5 100t-310.5 275t-121 401z" />
    <glyph glyph-name="uni01B8" unicode="&#x1b8;" horiz-adv-x="1936" 
d="M1848 168q-5 -226 -120.5 -401t-311 -275t-443.5 -100q-194 0 -357 67t-282 188t-185 285.5t-66 360.5q0 220 87 392t244.5 278t367.5 126v20l-647 583v356h1600v-410h-997v-16l534 -486v-349h-245q-124 0 -221 -60.5t-152 -173.5t-55 -269q0 -139 45 -247t130 -170
t204 -62q103 0 185 45.5t132 127.5t55 190h498z" />
    <glyph glyph-name="uni01B9" unicode="&#x1b9;" horiz-adv-x="1874" 
d="M1754 90q-4 -186 -106 -328t-282 -222t-419 -80q-232 0 -417 77t-293 215t-108 322q0 125 59 246.5t194.5 209.5t364.5 114v16l-551 520v356h1455v-399h-859v-13l435 -424v-334h-241q-105 0 -181 -32t-116.5 -89t-40.5 -133q0 -74 37 -130.5t104.5 -88t156.5 -31.5
q86 0 154.5 28.5t110 79.5t45.5 120h498z" />
    <glyph glyph-name="uni01BA" unicode="&#x1ba;" horiz-adv-x="1654" 
d="M229 1536h1257v-266l-752 -635h-272v265l314 262h-547v374zM605 -164q1 -65 60.5 -95t145.5 -30q62 0 119.5 16.5t95.5 56.5t41 112h439q-1 -119 -79 -235t-229.5 -192.5t-371.5 -76.5q-205 0 -356.5 60t-234.5 166t-83 246q0 127 61 219t189 153.5t328 97.5
q90 17 153 37.5t96 52.5t33 83q0 61 -50 94.5t-135 33.5h-216l3 313h213q200 0 340.5 -63t215 -168.5t75.5 -231.5q-1 -142 -82 -236t-213 -152.5t-289 -94.5q-101 -24 -160.5 -49t-84 -54.5t-24.5 -62.5z" />
    <glyph glyph-name="uni01BB" unicode="&#x1bb;" horiz-adv-x="1797" 
d="M151 0v356l747 654q84 76 143 139.5t90 128t31 140.5q0 85 -37 145.5t-102 93.5t-149 33q-85 0 -149 -34.5t-99.5 -99.5t-35.5 -158h-469q0 209 94 361t264.5 234.5t396.5 82.5q233 0 405 -78t266.5 -217.5t94.5 -323.5q0 -117 -47 -232t-168.5 -254t-344.5 -333
l-245 -226v-13h830v-399h-1516zM696 984v273h1037v-273h-1037z" />
    <glyph glyph-name="uni01BC" unicode="&#x1bc;" horiz-adv-x="1827" 
d="M546 2048v-399h-444v399h444zM999 -28q-224 0 -398 81t-274.5 223t-104.5 326h480q6 -113 92 -181.5t205 -68.5q93 0 165 41t113 115.5t40 171.5q1 99 -40.5 173t-114 115.5t-166.5 41.5q-89 1 -168.5 -39t-120.5 -109l-437 82l89 1104h1314v-399h-907l-47 -483h12
q51 85 164.5 140.5t258.5 55.5q184 0 328.5 -85.5t228 -236.5t83.5 -346q0 -211 -99.5 -374t-278 -255.5t-417.5 -92.5z" />
    <glyph glyph-name="uni01BD" unicode="&#x1bd;" horiz-adv-x="1952" 
d="M822 629l-428 17l118 842h1098v-361h-719l-37 -221q47 22 128 41.5t186 19.5q176 1 300 -57t190.5 -168t66.5 -265q0 -145 -71 -258t-222 -178t-394 -65q-140 0 -267.5 27.5t-227.5 85t-157.5 147.5t-57.5 216l466 18q8 -63 72.5 -89.5t171.5 -26.5q111 0 165 42.5
t55 118.5q-1 70 -61.5 112.5t-166.5 42.5q-82 0 -133.5 -11.5t-74.5 -29.5zM672 1488v-361h-445v361h445z" />
    <glyph glyph-name="uni01BE" unicode="&#x1be;" horiz-adv-x="1654" 
d="M1052 422q1 52 -37 88t-98 68.5t-126.5 73.5t-127 102.5t-98.5 156t-39 235.5v717h472v-725q0 -101 37 -161.5t95 -98.5t122 -70.5t122 -75t94.5 -113t35.5 -186.5q1 -132 -81 -236.5t-232.5 -164.5t-356.5 -60q-221 0 -373 78t-230.5 194.5t-79.5 233.5h439
q5 -71 43 -112t94.5 -58t116.5 -17q64 0 111 14.5t72.5 43.5t24.5 73zM1254 1488v-335h-928v335h928z" />
    <glyph glyph-name="uni01BF" unicode="&#x1bf;" horiz-adv-x="1939" 
d="M726 1252v-1824h-471v2108h441zM686 818l-189 -25q22 156 62.5 294t108.5 243.5t169 165.5t244 60q195 0 329 -94t204 -263t70 -393v-75q0 -219 -73.5 -383t-216 -282.5t-350 -203t-476.5 -145.5l-48 367q205 16 361 95t244 217.5t88 334.5v75q0 102 -22.5 188t-77 138
t-151.5 52q-104 0 -165.5 -39.5t-87 -120.5t-23.5 -206z" />
    <glyph glyph-name="uni01C0" unicode="&#x1c0;" horiz-adv-x="876" 
d="M567 2000v-2000h-258v2000h258z" />
    <glyph glyph-name="uni01C1" unicode="&#x1c1;" horiz-adv-x="1142" 
d="M533 2000v-2000h-258v2000h258zM901 2000v-2000h-258v2000h258z" />
    <glyph glyph-name="uni01C2" unicode="&#x1c2;" horiz-adv-x="1423" 
d="M841 2000v-2000h-258v2000h258zM192 1197v273h1037v-273h-1037zM193 551v273h1037v-273h-1037z" />
    <glyph glyph-name="uni01C3" unicode="&#x1c3;" horiz-adv-x="957" 
d="M730 2048l-46 -1421h-411l-46 1421h503zM478 -29q-107 0 -183.5 76t-76.5 184q0 106 76.5 181.5t183.5 75.5q103 0 181.5 -75.5t78.5 -181.5q0 -72 -36.5 -131t-95 -94t-128.5 -35z" />
    <glyph glyph-name="uni01C5" unicode="&#x1c5;" horiz-adv-x="3695" 
d="M912 0h-757v2048h756q313 0 539.5 -122.5t349.5 -352t123 -548.5q0 -320 -122.5 -550t-349.5 -352.5t-539 -122.5zM650 422h243q172 0 291.5 58.5t181 191t61.5 353.5t-62 352.5t-182.5 190t-296.5 58.5h-236v-1204zM2215 0v279l712 867v10h-687v380h1270v-306l-660 -840
v-10h684v-380h-1319zM2675 2181l199 -232l198 232h410v-13l-433 -448h-351l-432 448v13h409z" />
    <glyph glyph-name="uni01C6" unicode="&#x1c6;" horiz-adv-x="3201" 
d="M716 -22q-170 0 -309 88t-222 264t-83 437q0 271 86 446t225.5 259t300.5 84q121 0 207 -41.5t142 -106.5t85 -135h10v775h489v-2048h-484v249h-15q-31 -71 -88 -133t-142.5 -100t-201.5 -38zM886 359q89 0 152 50.5t97 142.5t34 216q0 126 -33.5 217t-97 140t-152.5 49
q-91 0 -154 -50t-95.5 -141t-32.5 -215t33 -216t95.5 -142.5t153.5 -50.5zM1721 0v279l712 867v10h-687v380h1270v-306l-660 -840v-10h684v-380h-1319zM2181 2181l199 -232l198 232h410v-13l-433 -448h-351l-432 448v13h409z" />
    <glyph glyph-name="uni01C7" unicode="&#x1c7;" horiz-adv-x="3234" 
d="M155 0v2048h495v-1646h852v-402h-1347zM2590 2048h488v-1416q-1 -199 -95 -347.5t-259.5 -230.5t-382.5 -82q-192 0 -348.5 67t-249 208t-91.5 361h493q3 -79 30.5 -134.5t76.5 -83.5t117 -28q71 0 120 30.5t74.5 90.5t26.5 149v1416z" />
    <glyph glyph-name="uni01C8" unicode="&#x1c8;" horiz-adv-x="2402" 
d="M155 0v2048h495v-1646h852v-402h-1347zM1758 1536h489v-1600q0 -190 -77.5 -302t-218.5 -161t-333 -49q-26 0 -49 1t-50 2v371q18 -2 32 -3t28 -1q101 0 140 37.5t39 114.5v1590zM2002 1715q-103 0 -177 68.5t-74 165.5q0 96 74 164.5t177 68.5q104 0 177.5 -68.5
t73.5 -164.5q0 -97 -73.5 -165.5t-177.5 -68.5z" />
    <glyph glyph-name="uni01C9" unicode="&#x1c9;" horiz-adv-x="1579" 
d="M644 2048v-2048h-489v2048h489zM877 1536h489v-1600q0 -190 -77.5 -302t-218.5 -161t-333 -49q-26 0 -49 1t-50 2v371q18 -2 32 -3t28 -1q101 0 140 37.5t39 114.5v1590zM1121 1715q-103 0 -177 68.5t-74 165.5q0 96 74 164.5t177 68.5q104 0 177.5 -68.5t73.5 -164.5
q0 -97 -73.5 -165.5t-177.5 -68.5z" />
    <glyph glyph-name="uni01CA" unicode="&#x1ca;" horiz-adv-x="3683" 
d="M1898 2048v-2048h-420l-815 1182h-13v-1182h-495v2048h426l806 -1180h17v1180h494zM3040 2048h488v-1416q-1 -199 -95 -347.5t-259.5 -230.5t-382.5 -82q-192 0 -348.5 67t-249 208t-91.5 361h493q3 -79 30.5 -134.5t76.5 -83.5t117 -28q71 0 120 30.5t74.5 90.5
t26.5 149v1416z" />
    <glyph glyph-name="uni01CB" unicode="&#x1cb;" horiz-adv-x="2767" 
d="M1898 2048v-2048h-420l-815 1182h-13v-1182h-495v2048h426l806 -1180h17v1180h494zM2123 1536h489v-1600q0 -190 -77.5 -302t-218.5 -161t-333 -49q-26 0 -49 1t-50 2v371q18 -2 32 -3t28 -1q101 0 140 37.5t39 114.5v1590zM2367 1715q-103 0 -177 68.5t-74 165.5
q0 96 74 164.5t177 68.5q104 0 177.5 -68.5t73.5 -164.5q0 -97 -73.5 -165.5t-177.5 -68.5z" />
    <glyph glyph-name="uni01CC" unicode="&#x1cc;" horiz-adv-x="2585" 
d="M644 876v-876h-489v1536h465v-282h17q51 141 174 221.5t293 80.5q162 0 281.5 -72.5t186 -202t65.5 -302.5v-979h-489v883q1 128 -64.5 200t-181.5 72q-77 0 -135.5 -33.5t-90 -95.5t-32.5 -150zM1941 1536h489v-1600q0 -190 -77.5 -302t-218.5 -161t-333 -49
q-26 0 -49 1t-50 2v371q18 -2 32 -3t28 -1q101 0 140 37.5t39 114.5v1590zM2185 1715q-103 0 -177 68.5t-74 165.5q0 96 74 164.5t177 68.5q104 0 177.5 -68.5t73.5 -164.5q0 -97 -73.5 -165.5t-177.5 -68.5z" />
    <glyph glyph-name="uni01CD" unicode="&#x1cd;" horiz-adv-x="2173" 
d="M598 0h-532l691 2048h659l691 -2048h-532l-481 1532h-16zM527 806h1112v-376h-1112v376zM888 2693l198 -232l199 232h409v-13l-432 -448h-351l-433 448v13h410z" />
    <glyph glyph-name="uni01CE" unicode="&#x1ce;" horiz-adv-x="1649" 
d="M588 -26q-147 0 -260.5 49.5t-179 150t-65.5 252.5q0 128 45 216t124 143t182 83.5t220 38.5q131 12 211 25.5t116.5 39t36.5 72.5v5q0 77 -53 119t-143 42q-97 0 -156 -42t-75 -116l-451 16q20 140 103.5 250.5t230 174t352.5 63.5q147 0 271 -34.5t216 -100
t142.5 -160.5t50.5 -217v-1044h-460v214h-12q-41 -78 -104.5 -132t-149 -81t-192.5 -27zM739 294q79 0 142.5 32t101.5 88.5t38 131.5v146q-21 -11 -50.5 -20t-64.5 -17t-72 -14t-71 -11q-69 -11 -117.5 -34t-74 -59.5t-25.5 -86.5q0 -76 54.5 -116t138.5 -40zM644 2181
l198 -232l199 232h409v-13l-432 -448h-351l-433 448v13h410z" />
    <glyph glyph-name="uni01CF" unicode="&#x1cf;" horiz-adv-x="805" 
d="M650 2048v-2048h-495v2048h495zM206 2693l198 -232l199 232h409v-13l-432 -448h-351l-433 448v13h410z" />
    <glyph glyph-name="uni01D0" unicode="&#x1d0;" horiz-adv-x="799" 
d="M155 0v1536h489v-1536h-489zM202 2181l198 -232l199 232h409v-13l-432 -448h-351l-433 448v13h410z" />
    <glyph glyph-name="uni01D1" unicode="&#x1d1;" horiz-adv-x="2221" 
d="M2088 1024q0 -338 -130 -573t-351.5 -357t-496.5 -122q-276 0 -497 123t-350.5 357.5t-129.5 571.5q0 338 129.5 573t350.5 357t497 122q275 0 496.5 -122t351.5 -357t130 -573zM1582 1024q0 200 -56.5 338t-162 209t-253.5 71q-147 0 -253 -71t-162.5 -209t-56.5 -338
t56.5 -338t162.5 -209t253 -71q148 0 253.5 71t162 209t56.5 338zM912 2693l198 -232l199 232h409v-13l-432 -448h-351l-433 448v13h410z" />
    <glyph glyph-name="uni01D2" unicode="&#x1d2;" horiz-adv-x="1744" 
d="M872 -29q-242 0 -415.5 99.5t-267 278t-93.5 414.5q0 237 93.5 415.5t267 278t415.5 99.5t415.5 -99.5t267 -278t93.5 -415.5q0 -236 -93.5 -414.5t-267 -278t-415.5 -99.5zM875 340q88 0 149 54t93.5 150t32.5 222q0 128 -32.5 224t-93.5 150t-149 54q-91 0 -153.5 -54
t-95 -150t-32.5 -224q0 -126 32.5 -222t95 -150t153.5 -54zM674 2181l198 -232l199 232h409v-13l-432 -448h-351l-433 448v13h410z" />
    <glyph glyph-name="uni01D3" unicode="&#x1d3;" horiz-adv-x="2043" 
d="M1394 2048h494v-1321q0 -229 -109 -398.5t-304 -262t-453 -92.5q-261 0 -456 92.5t-303 262t-108 398.5v1321h495v-1278q0 -106 46.5 -189t130.5 -130t195 -47t194.5 47t130.5 130t47 189v1278zM823 2693l198 -232l199 232h409v-13l-432 -448h-351l-433 448v13h410z" />
    <glyph glyph-name="uni01D4" unicode="&#x1d4;" horiz-adv-x="1790" 
d="M1146 663v873h488v-1536h-466v286h-16q-51 -141 -173.5 -223.5t-295.5 -82.5q-157 0 -276 72t-185 201.5t-67 303.5v979h489v-883q1 -125 66 -197t177 -72q73 0 131.5 32.5t93 95t34.5 151.5zM698 2181l198 -232l199 232h409v-13l-432 -448h-351l-433 448v13h410z" />
    <glyph glyph-name="uni01D5" unicode="&#x1d5;" horiz-adv-x="2043" 
d="M1394 2048h494v-1321q0 -229 -109 -398.5t-304 -262t-453 -92.5q-261 0 -456 92.5t-303 262t-108 398.5v1321h495v-1278q0 -106 46.5 -189t130.5 -130t195 -47t194.5 47t130.5 130t47 189v1278zM711 2243q-94 0 -160.5 64t-66.5 154t66.5 153.5t160.5 63.5
q93 0 158.5 -63.5t65.5 -153.5t-65.5 -154t-158.5 -64zM1335 2243q-94 0 -160.5 64t-66.5 154t66.5 153.5t160.5 63.5q93 0 158.5 -63.5t65.5 -153.5t-65.5 -154t-158.5 -64zM1515 3072v-242h-987v242h987z" />
    <glyph glyph-name="uni01D6" unicode="&#x1d6;" horiz-adv-x="1790" 
d="M1146 663v873h488v-1536h-466v286h-16q-51 -141 -173.5 -223.5t-295.5 -82.5q-157 0 -276 72t-185 201.5t-67 303.5v979h489v-883q1 -125 66 -197t177 -72q73 0 131.5 32.5t93 95t34.5 151.5zM586 1731q-94 0 -160.5 64t-66.5 154t66.5 153.5t160.5 63.5
q93 0 158.5 -63.5t65.5 -153.5t-65.5 -154t-158.5 -64zM1210 1731q-94 0 -160.5 64t-66.5 154t66.5 153.5t160.5 63.5q93 0 158.5 -63.5t65.5 -153.5t-65.5 -154t-158.5 -64zM1390 2560v-242h-987v242h987z" />
    <glyph glyph-name="uni01D7" unicode="&#x1d7;" horiz-adv-x="2043" 
d="M1394 2048h494v-1321q0 -229 -109 -398.5t-304 -262t-453 -92.5q-261 0 -456 92.5t-303 262t-108 398.5v1321h495v-1278q0 -106 46.5 -189t130.5 -130t195 -47t194.5 47t130.5 130t47 189v1278zM838 2704l271 370h417l-349 -370h-339zM728 2182q-88 0 -151 58.5
t-63 141.5t63 141.5t151 58.5t150 -58.5t62 -141.5t-62 -141.5t-150 -58.5zM1319 2182q-89 0 -152 58.5t-63 141.5t63 141.5t152 58.5q88 0 150 -58.5t62 -141.5t-62 -141.5t-150 -58.5z" />
    <glyph glyph-name="uni01D8" unicode="&#x1d8;" horiz-adv-x="1790" 
d="M1146 663v873h488v-1536h-466v286h-16q-51 -141 -173.5 -223.5t-295.5 -82.5q-157 0 -276 72t-185 201.5t-67 303.5v979h489v-883q1 -125 66 -197t177 -72q73 0 131.5 32.5t93 95t34.5 151.5zM587 1731q-95 0 -161.5 64t-66.5 154t66.5 153.5t161.5 63.5
q93 0 158.5 -63.5t65.5 -153.5t-65.5 -154t-158.5 -64zM1211 1731q-95 0 -161.5 64t-66.5 154t66.5 153.5t161.5 63.5q93 0 158.5 -63.5t65.5 -153.5t-65.5 -154t-158.5 -64zM728 2243l203 451h432l-302 -451h-333z" />
    <glyph glyph-name="uni01D9" unicode="&#x1d9;" horiz-adv-x="2043" 
d="M1394 2048h494v-1321q0 -229 -109 -398.5t-304 -262t-453 -92.5q-261 0 -456 92.5t-303 262t-108 398.5v1321h495v-1278q0 -106 46.5 -189t130.5 -130t195 -47t194.5 47t130.5 130t47 189v1278zM519 2435q0 69 56 117.5t145 48.5q93 0 149 -48.5t56 -117.5
q0 -72 -57.5 -119.5t-146.5 -47.5q-88 0 -145 47.5t-57 119.5zM1119 2435q0 68 56 116.5t148 48.5q87 0 145.5 -47.5t58.5 -117.5q0 -72 -58 -120t-146 -48q-92 0 -148 49t-56 119zM843 2956l181 -146l181 146h399v-21l-413 -322h-331l-418 328v15h401z" />
    <glyph glyph-name="uni01DA" unicode="&#x1da;" horiz-adv-x="1790" 
d="M1146 663v873h488v-1536h-466v286h-16q-51 -141 -173.5 -223.5t-295.5 -82.5q-157 0 -276 72t-185 201.5t-67 303.5v979h489v-883q1 -125 66 -197t177 -72q73 0 131.5 32.5t93 95t34.5 151.5zM318 1893q0 77 61 132t149 55q90 0 152 -55t62 -132q0 -80 -63 -133.5
t-151 -53.5q-87 0 -148.5 54.5t-61.5 132.5zM1050 1892q0 77 61.5 132.5t149.5 55.5q90 0 152 -55.5t62 -132.5t-62 -131.5t-152 -54.5q-88 0 -149.5 54.5t-61.5 131.5zM687 2574l210 -178l213 178h396v-16l-458 -390h-302l-460 393v13h401z" />
    <glyph glyph-name="uni01DB" unicode="&#x1db;" horiz-adv-x="2043" 
d="M1394 2048h494v-1321q0 -229 -109 -398.5t-304 -262t-453 -92.5q-261 0 -456 92.5t-303 262t-108 398.5v1321h495v-1278q0 -106 46.5 -189t130.5 -130t195 -47t194.5 47t130.5 130t47 189v1278zM975 2850l183 -248h-240l-256 248h313zM516 2435q-1 69 56 117.5t145 48.5
q91 0 149 -48.5t59 -117.5q-1 -72 -60 -119.5t-148 -47.5q-88 0 -145 47.5t-56 119.5zM1115 2435q-1 70 58 117.5t147 47.5q91 0 147 -48.5t57 -116.5q-1 -69 -56.5 -118.5t-147.5 -49.5q-88 0 -147 48t-58 120z" />
    <glyph glyph-name="uni01DC" unicode="&#x1dc;" horiz-adv-x="1790" 
d="M1146 663v873h488v-1536h-466v286h-16q-51 -141 -173.5 -223.5t-295.5 -82.5q-157 0 -276 72t-185 201.5t-67 303.5v979h489v-883q1 -125 66 -197t177 -72q73 0 131.5 32.5t93 95t34.5 151.5zM315 1893q0 77 61.5 132t148.5 55q90 0 152.5 -55t62.5 -132
q0 -78 -62.5 -132.5t-152.5 -54.5q-87 0 -148.5 54.5t-61.5 132.5zM1047 1892q0 80 63.5 134t150.5 54q88 0 149.5 -55.5t61.5 -132.5t-61.5 -131.5t-149.5 -54.5q-90 0 -152 54.5t-62 131.5zM836 2573l284 -434h-380l-402 434h498z" />
    <glyph glyph-name="uni01DD" unicode="&#x1dd;" horiz-adv-x="1698" 
d="M825 1565q241 0 415 -95.5t268 -272.5t94 -423q0 -238 -94.5 -416.5t-265.5 -278t-403 -99.5q-163 0 -299 51t-235.5 151t-154 246.5t-54.5 335.5v122h1334v-284h-880q2 -78 38 -139t99 -95.5t143 -34.5q82 0 147 36.5t103 99.5t39 141v289q0 94 -37 164.5t-105 109.5
t-162 39q-63 0 -116.5 -18t-92 -53t-56.5 -86l-449 13q28 151 122.5 262.5t247 173t354.5 61.5z" />
    <glyph glyph-name="uni01DE" unicode="&#x1de;" horiz-adv-x="2173" 
d="M598 0h-532l691 2048h659l691 -2048h-532l-481 1532h-16zM527 806h1112v-376h-1112v376zM776 2243q-94 0 -160.5 64t-66.5 154t66.5 153.5t160.5 63.5q93 0 158.5 -63.5t65.5 -153.5t-65.5 -154t-158.5 -64zM1400 2243q-94 0 -160.5 64t-66.5 154t66.5 153.5t160.5 63.5
q93 0 158.5 -63.5t65.5 -153.5t-65.5 -154t-158.5 -64zM1580 3072v-242h-987v242h987z" />
    <glyph glyph-name="uni01DF" unicode="&#x1df;" horiz-adv-x="1649" 
d="M588 -26q-147 0 -260.5 49.5t-179 150t-65.5 252.5q0 128 45 216t124 143t182 83.5t220 38.5q131 12 211 25.5t116.5 39t36.5 72.5v5q0 77 -53 119t-143 42q-97 0 -156 -42t-75 -116l-451 16q20 140 103.5 250.5t230 174t352.5 63.5q147 0 271 -34.5t216 -100
t142.5 -160.5t50.5 -217v-1044h-460v214h-12q-41 -78 -104.5 -132t-149 -81t-192.5 -27zM739 294q79 0 142.5 32t101.5 88.5t38 131.5v146q-21 -11 -50.5 -20t-64.5 -17t-72 -14t-71 -11q-69 -11 -117.5 -34t-74 -59.5t-25.5 -86.5q0 -76 54.5 -116t138.5 -40zM532 1731
q-94 0 -160.5 64t-66.5 154t66.5 153.5t160.5 63.5q93 0 158.5 -63.5t65.5 -153.5t-65.5 -154t-158.5 -64zM1156 1731q-94 0 -160.5 64t-66.5 154t66.5 153.5t160.5 63.5q93 0 158.5 -63.5t65.5 -153.5t-65.5 -154t-158.5 -64zM1336 2560v-242h-987v242h987z" />
    <glyph glyph-name="uni01E0" unicode="&#x1e0;" horiz-adv-x="2173" 
d="M598 0h-532l691 2048h659l691 -2048h-532l-481 1532h-16zM527 806h1112v-376h-1112v376zM1087 2242q-94 0 -161 64.5t-67 153.5q0 91 67 154.5t161 63.5q95 0 162 -63.5t67 -154.5q0 -89 -67 -153.5t-162 -64.5zM1580 3072v-242h-987v242h987z" />
    <glyph glyph-name="uni01E1" unicode="&#x1e1;" horiz-adv-x="1649" 
d="M588 -26q-147 0 -260.5 49.5t-179 150t-65.5 252.5q0 128 45 216t124 143t182 83.5t220 38.5q131 12 211 25.5t116.5 39t36.5 72.5v5q0 77 -53 119t-143 42q-97 0 -156 -42t-75 -116l-451 16q20 140 103.5 250.5t230 174t352.5 63.5q147 0 271 -34.5t216 -100
t142.5 -160.5t50.5 -217v-1044h-460v214h-12q-41 -78 -104.5 -132t-149 -81t-192.5 -27zM739 294q79 0 142.5 32t101.5 88.5t38 131.5v146q-21 -11 -50.5 -20t-64.5 -17t-72 -14t-71 -11q-69 -11 -117.5 -34t-74 -59.5t-25.5 -86.5q0 -76 54.5 -116t138.5 -40zM1337 2549
v-241h-987v241h987zM844 1720q-95 0 -162 64t-67 153q0 91 67 154.5t162 63.5t162 -63.5t67 -154.5q0 -89 -67 -153t-162 -64z" />
    <glyph glyph-name="uni01E2" unicode="&#x1e2;" horiz-adv-x="2938" 
d="M66 0l838 2048h1879v-402h-933v-420h860v-403h-860v-421h933v-402h-1428v1553h-141l-604 -1553h-544zM546 430v376h1096v-376h-1096zM2345 2560v-242h-987v242h987z" />
    <glyph glyph-name="uni01E3" unicode="&#x1e3;" horiz-adv-x="2562" 
d="M1773 -29q-201 0 -358.5 82.5t-222.5 244.5l-33 950q102 164 242.5 236t321.5 72q163 0 299.5 -51t235.5 -151t153.5 -246.5t54.5 -335.5v-122h-1292v284h838q-2 78 -38 139t-98.5 95.5t-142.5 34.5q-83 0 -148 -36.5t-102.5 -99.5t-39.5 -141v-289q0 -94 37 -164.5
t105 -109.5t162 -39q64 0 117.5 18t91.5 53t57 86l449 -13q-28 -151 -123 -262.5t-240 -173t-326 -61.5zM739 294q79 0 142.5 32t101.5 88.5t38 131.5v146q-21 -11 -50.5 -20t-64.5 -17t-72 -14t-71 -11q-69 -11 -117.5 -34t-74 -59.5t-25.5 -86.5q0 -76 54.5 -116
t138.5 -40zM620 -26q-163 0 -284 49.5t-187 150.5t-66 252q0 128 45 215.5t124.5 142.5t182.5 84t219 39q132 12 211.5 26t116 39.5t36.5 71.5v5q0 78 -53 119.5t-143 41.5q-96 0 -156 -42t-75 -116l-451 16q20 140 103.5 250.5t231 174t361.5 63.5q74 0 141 -13.5
t125.5 -41t103 -71.5t71.5 -104l-38 -1084h-29q-45 -86 -134.5 -146t-207.5 -91t-248 -31zM1742 2048v-242h-987v242h987z" />
    <glyph glyph-name="uni01E4" unicode="&#x1e4;" horiz-adv-x="2159" 
d="M2101 675v-139h-962v139h962zM1499 1379q-17 63 -50 111.5t-81 82.5t-110 51.5t-136 17.5q-149 0 -257.5 -72t-167.5 -209.5t-59 -333.5q0 -197 57 -336t165 -212t262 -73q136 0 230.5 44.5t143.5 126.5t49 193l92 -11h-498v361h883v-271q0 -275 -116.5 -471t-320 -301
t-467.5 -105q-293 0 -515 127t-346 362.5t-124 559.5q0 252 75 447.5t209.5 331.5t312 206t382.5 70q178 0 331.5 -51t272 -144t192.5 -221t92 -281h-501z" />
    <glyph glyph-name="uni01E5" unicode="&#x1e5;" horiz-adv-x="1806" 
d="M871 -608q-219 0 -375 61t-245 167t-107 240l463 26q13 -47 48.5 -82t93 -54t135.5 -19q123 0 203.5 59.5t80.5 207.5v270h-17q-29 -71 -88 -127t-146.5 -88t-200.5 -32q-168 0 -307.5 78.5t-223 244t-83.5 426.5q0 269 86 443.5t225.5 258.5t300.5 84q121 0 207.5 -41.5
t142.5 -106.5t85 -135h14v263h487v-1542q0 -195 -98 -329t-274 -203.5t-407 -69.5zM886 377q89 0 152 47t97 135t34 211q0 125 -33.5 215.5t-97 139.5t-152.5 49q-91 0 -154 -50t-95.5 -140.5t-32.5 -213.5t33 -211t95.5 -135t153.5 -47zM884 652v273h1037v-273h-1037z" />
    <glyph glyph-name="uni01E6" unicode="&#x1e6;" horiz-adv-x="2159" 
d="M1499 1379q-17 63 -50 111.5t-81 82.5t-110 51.5t-136 17.5q-149 0 -257.5 -72t-167.5 -209.5t-59 -333.5q0 -197 57 -336t165 -212t262 -73q136 0 230.5 44.5t143.5 126.5t49 193l92 -11h-498v361h883v-271q0 -275 -116.5 -471t-320 -301t-467.5 -105q-293 0 -515 127
t-346 362.5t-124 559.5q0 252 75 447.5t209.5 331.5t312 206t382.5 70q178 0 331.5 -51t272 -144t192.5 -221t92 -281h-501zM901 2693l198 -232l199 232h409v-13l-432 -448h-351l-433 448v13h410z" />
    <glyph glyph-name="uni01E7" unicode="&#x1e7;" horiz-adv-x="1806" 
d="M871 -608q-219 0 -375 61t-245 167t-107 240l463 26q13 -47 48.5 -82t93 -54t135.5 -19q123 0 203.5 59.5t80.5 207.5v270h-17q-29 -71 -88 -127t-146.5 -88t-200.5 -32q-168 0 -307.5 78.5t-223 244t-83.5 426.5q0 269 86 443.5t225.5 258.5t300.5 84q121 0 207.5 -41.5
t142.5 -106.5t85 -135h14v263h487v-1542q0 -195 -98 -329t-274 -203.5t-407 -69.5zM886 377q89 0 152 47t97 135t34 211q0 125 -33.5 215.5t-97 139.5t-152.5 49q-91 0 -154 -50t-95.5 -140.5t-32.5 -213.5t33 -211t95.5 -135t153.5 -47zM678 2181l198 -232l199 232h409v-13
l-432 -448h-351l-433 448v13h410z" />
    <glyph glyph-name="uni01E8" unicode="&#x1e8;" horiz-adv-x="1977" 
d="M155 0v2048h495v-866h27l677 866h583l-726 -914l739 -1134h-592l-510 805l-198 -250v-555h-495zM784 2693l198 -232l199 232h409v-13l-432 -448h-351l-433 448v13h410z" />
    <glyph glyph-name="uni01E9" unicode="&#x1e9;" horiz-adv-x="1673" 
d="M596 403l2 583h68l432 550h554l-642 -788h-129zM155 0v2048h489v-2048h-489zM1109 0l-402 638l322 347l645 -985h-565zM202 2693l198 -232l199 232h409v-13l-432 -448h-351l-433 448v13h410z" />
    <glyph glyph-name="uni01EA" unicode="&#x1ea;" horiz-adv-x="2221" 
d="M2088 1024q0 -338 -130 -573t-351.5 -357t-496.5 -122q-276 0 -497 123t-350.5 357.5t-129.5 571.5q0 338 129.5 573t350.5 357t497 122q275 0 496.5 -122t351.5 -357t130 -573zM1582 1024q0 200 -56.5 338t-162 209t-253.5 71q-147 0 -253 -71t-162.5 -209t-56.5 -338
t56.5 -338t162.5 -209t253 -71q148 0 253.5 71t162 209t56.5 338zM1179 -560q-136 0 -228.5 68.5t-122.5 195.5q-21 84 -9.5 170t55.5 155t116 101l387 -125q-96 -37 -151.5 -80t-55.5 -109q0 -50 25.5 -76t69.5 -26q30 0 52.5 7.5t41.5 12.5l55 -234q-39 -21 -97.5 -40.5
t-137.5 -19.5z" />
    <glyph glyph-name="uni01EB" unicode="&#x1eb;" horiz-adv-x="1744" 
d="M872 -29q-242 0 -415.5 99.5t-267 278t-93.5 414.5q0 237 93.5 415.5t267 278t415.5 99.5t415.5 -99.5t267 -278t93.5 -415.5q0 -236 -93.5 -414.5t-267 -278t-415.5 -99.5zM875 340q88 0 149 54t93.5 150t32.5 222q0 128 -32.5 224t-93.5 150t-149 54q-91 0 -153.5 -54
t-95 -150t-32.5 -224q0 -126 32.5 -222t95 -150t153.5 -54zM892 -565q-136 0 -228.5 69t-122.5 195q-21 84 -9.5 170t55 155t116.5 102l387 -126q-96 -37 -152 -80t-55 -109q-1 -50 25 -76t70 -26q29 0 52 7.5t42 12.5l54 -234q-38 -21 -97 -40.5t-137 -19.5z" />
    <glyph glyph-name="uni01EC" unicode="&#x1ec;" horiz-adv-x="2221" 
d="M2088 1024q0 -338 -130 -573t-351.5 -357t-496.5 -122q-276 0 -497 123t-350.5 357.5t-129.5 571.5q0 338 129.5 573t350.5 357t497 122q275 0 496.5 -122t351.5 -357t130 -573zM1582 1024q0 200 -56.5 338t-162 209t-253.5 71q-147 0 -253 -71t-162.5 -209t-56.5 -338
t56.5 -338t162.5 -209t253 -71q148 0 253.5 71t162 209t56.5 338zM1179 -560q-136 0 -228.5 68.5t-122.5 195.5q-21 84 -9.5 170t55.5 155t116 101l387 -125q-96 -37 -151.5 -80t-55.5 -109q0 -50 25.5 -76t69.5 -26q30 0 52.5 7.5t41.5 12.5l55 -234q-39 -21 -97.5 -40.5
t-137.5 -19.5zM1604 2560v-242h-987v242h987z" />
    <glyph glyph-name="uni01ED" unicode="&#x1ed;" horiz-adv-x="1744" 
d="M872 -29q-242 0 -415.5 99.5t-267 278t-93.5 414.5q0 237 93.5 415.5t267 278t415.5 99.5t415.5 -99.5t267 -278t93.5 -415.5q0 -236 -93.5 -414.5t-267 -278t-415.5 -99.5zM875 340q88 0 149 54t93.5 150t32.5 222q0 128 -32.5 224t-93.5 150t-149 54q-91 0 -153.5 -54
t-95 -150t-32.5 -224q0 -126 32.5 -222t95 -150t153.5 -54zM892 -565q-136 0 -228.5 69t-122.5 195q-21 84 -9.5 170t55 155t116.5 102l387 -126q-96 -37 -152 -80t-55 -109q-1 -50 25 -76t70 -26q29 0 52 7.5t42 12.5l54 -234q-38 -21 -97 -40.5t-137 -19.5zM1365 2048
v-242h-987v242h987z" />
    <glyph glyph-name="uni01EE" unicode="&#x1ee;" horiz-adv-x="1936" 
d="M88 168h498q6 -108 55.5 -190t131.5 -127.5t185 -45.5q120 0 204.5 62t129.5 170t45 247q0 156 -55 269t-151.5 173.5t-221.5 60.5h-245v349l534 486v16h-997v410h1600v-356l-647 -583v-20q211 -20 368 -126t244 -278t87 -392q0 -196 -66 -360.5t-185 -285.5t-282 -188
t-357 -67q-248 0 -443.5 100t-310.5 275t-121 401zM771 2693l198 -232l199 232h409v-13l-432 -448h-351l-433 448v13h410z" />
    <glyph glyph-name="uni01EF" unicode="&#x1ef;" horiz-adv-x="1874" 
d="M119 90h499q3 -69 45 -120t111 -79.5t153 -28.5q90 0 157 31.5t104.5 88t37.5 130.5q0 76 -40.5 133t-116.5 89t-182 32h-241v334l436 424v13h-860v399h1456v-356l-552 -520v-16q172 -19 290.5 -75t190.5 -136t105 -173t33 -186q0 -184 -108 -322t-293 -215t-418 -77
q-238 0 -418.5 80t-282.5 222t-106 328zM737 2181l198 -232l199 232h409v-13l-432 -448h-351l-433 448v13h410z" />
    <glyph glyph-name="uni01F0" unicode="&#x1f0;" horiz-adv-x="799" 
d="M155 1536h489v-1600q0 -190 -77.5 -302t-218.5 -161t-333 -49q-26 0 -49 1t-50 2v371q18 -2 32 -3t28 -1q101 0 140 37.5t39 114.5v1590zM201 2181l198 -232l199 232h409v-13l-432 -448h-351l-433 448v13h410z" />
    <glyph glyph-name="uni01F1" unicode="&#x1f1;" horiz-adv-x="3973" 
d="M912 0h-757v2048h756q313 0 539.5 -122.5t349.5 -352t123 -548.5q0 -320 -122.5 -550t-349.5 -352.5t-539 -122.5zM650 422h243q172 0 291.5 58.5t181 191t61.5 353.5t-62 352.5t-182.5 190t-296.5 58.5h-236v-1204zM2204 0v282l995 1364h-994v402h1620v-282l-995 -1364
h994v-402h-1620z" />
    <glyph glyph-name="uni01F2" unicode="&#x1f2;" horiz-adv-x="3695" 
d="M912 0h-757v2048h756q313 0 539.5 -122.5t349.5 -352t123 -548.5q0 -320 -122.5 -550t-349.5 -352.5t-539 -122.5zM650 422h243q172 0 291.5 58.5t181 191t61.5 353.5t-62 352.5t-182.5 190t-296.5 58.5h-236v-1204zM2215 0v279l712 867v10h-687v380h1270v-306l-660 -840
v-10h684v-380h-1319z" />
    <glyph glyph-name="uni01F3" unicode="&#x1f3;" horiz-adv-x="3201" 
d="M716 -22q-170 0 -309 88t-222 264t-83 437q0 271 86 446t225.5 259t300.5 84q121 0 207 -41.5t142 -106.5t85 -135h10v775h489v-2048h-484v249h-15q-31 -71 -88 -133t-142.5 -100t-201.5 -38zM886 359q89 0 152 50.5t97 142.5t34 216q0 126 -33.5 217t-97 140t-152.5 49
q-91 0 -154 -50t-95.5 -141t-32.5 -215t33 -216t95.5 -142.5t153.5 -50.5zM1721 0v279l712 867v10h-687v380h1270v-306l-660 -840v-10h684v-380h-1319z" />
    <glyph glyph-name="uni01F4" unicode="&#x1f4;" horiz-adv-x="2159" 
d="M1499 1379q-17 63 -50 111.5t-81 82.5t-110 51.5t-136 17.5q-149 0 -257.5 -72t-167.5 -209.5t-59 -333.5q0 -197 57 -336t165 -212t262 -73q136 0 230.5 44.5t143.5 126.5t49 193l92 -11h-498v361h883v-271q0 -275 -116.5 -471t-320 -301t-467.5 -105q-293 0 -515 127
t-346 362.5t-124 559.5q0 252 75 447.5t209.5 331.5t312 206t382.5 70q178 0 331.5 -51t272 -144t192.5 -221t92 -281h-501zM931 2243l202 451h433l-302 -451h-333z" />
    <glyph glyph-name="uni01F5" unicode="&#x1f5;" horiz-adv-x="1806" 
d="M871 -608q-219 0 -375 61t-245 167t-107 240l463 26q13 -47 48.5 -82t93 -54t135.5 -19q123 0 203.5 59.5t80.5 207.5v270h-17q-29 -71 -88 -127t-146.5 -88t-200.5 -32q-168 0 -307.5 78.5t-223 244t-83.5 426.5q0 269 86 443.5t225.5 258.5t300.5 84q121 0 207.5 -41.5
t142.5 -106.5t85 -135h14v263h487v-1542q0 -195 -98 -329t-274 -203.5t-407 -69.5zM886 377q89 0 152 47t97 135t34 211q0 125 -33.5 215.5t-97 139.5t-152.5 49q-91 0 -154 -50t-95.5 -140.5t-32.5 -213.5t33 -211t95.5 -135t153.5 -47zM707 1731l202 451h433l-302 -451
h-333z" />
    <glyph glyph-name="uni01F6" unicode="&#x1f6;" horiz-adv-x="3171" 
d="M2238 -28q-240 0 -415.5 87.5t-270.5 251t-95 391.5v121h-807v-823h-495v2048h495v-822h807v822h494v-1346q0 -154 76.5 -237t210.5 -83q133 0 208.5 83t75.5 237v780h494v-780q0 -229 -94.5 -392.5t-269 -250.5t-414.5 -87z" />
    <glyph glyph-name="uni01F7" unicode="&#x1f7;" horiz-adv-x="2218" 
d="M745 2048v-2624h-483v2624h483zM535 -261v395q231 73 405 169t290 214.5t174.5 259.5t59.5 303v76q0 95 -13 189.5t-50 171.5t-109 123.5t-190 46.5q-119 0 -221 -46.5t-174 -125.5t-103 -177v563q65 75 191 125t304 50q251 0 446.5 -106.5t306 -313t110.5 -504.5v-72
q0 -225 -92 -426t-272.5 -372.5t-446.5 -308t-616 -234.5z" />
    <glyph glyph-name="uni01F8" unicode="&#x1f8;" horiz-adv-x="2053" 
d="M1898 2048v-2048h-420l-815 1182h-13v-1182h-495v2048h426l806 -1180h17v1180h494zM864 2243l-303 451h433l203 -451h-333z" />
    <glyph glyph-name="uni01F9" unicode="&#x1f9;" horiz-adv-x="1786" 
d="M644 876v-876h-489v1536h465v-282h17q51 141 174 221.5t293 80.5q162 0 281.5 -72.5t186 -202t65.5 -302.5v-979h-489v883q1 128 -64.5 200t-181.5 72q-77 0 -135.5 -33.5t-90 -95.5t-32.5 -150zM731 1731l-303 451h433l203 -451h-333z" />
    <glyph glyph-name="uni01FA" unicode="&#x1fa;" horiz-adv-x="2173" 
d="M598 0h-532l691 2048h659l691 -2048h-532l-481 1532h-16zM527 806h1112v-376h-1112v376zM938 2855l200 303h390l-292 -303h-298zM1086 2177q-130 0 -222 84.5t-92 204.5q0 80 42.5 146t114 105t157.5 39q131 0 222.5 -85t91.5 -205q0 -80 -42 -145.5t-113.5 -104.5
t-158.5 -39zM1086 2347q54 1 92.5 35.5t38.5 83.5q0 50 -38 85t-93 34q-54 0 -92.5 -34.5t-38.5 -84.5q0 -49 38 -84t93 -35z" />
    <glyph glyph-name="uni01FB" unicode="&#x1fb;" horiz-adv-x="1649" 
d="M588 -26q-147 0 -260.5 49.5t-179 150t-65.5 252.5q0 128 45 216t124 143t182 83.5t220 38.5q131 12 211 25.5t116.5 39t36.5 72.5v5q0 77 -53 119t-143 42q-97 0 -156 -42t-75 -116l-451 16q20 140 103.5 250.5t230 174t352.5 63.5q147 0 271 -34.5t216 -100
t142.5 -160.5t50.5 -217v-1044h-460v214h-12q-41 -78 -104.5 -132t-149 -81t-192.5 -27zM739 294q79 0 142.5 32t101.5 88.5t38 131.5v146q-21 -11 -50.5 -20t-64.5 -17t-72 -14t-71 -11q-69 -11 -117.5 -34t-74 -59.5t-25.5 -86.5q0 -76 54.5 -116t138.5 -40zM694 2343
l200 303h390l-292 -303h-298zM842 1665q-130 0 -222 84.5t-92 204.5q0 80 42.5 146t114 105t157.5 39q131 0 222.5 -85t91.5 -205q0 -80 -42 -145.5t-113.5 -104.5t-158.5 -39zM842 1835q54 1 92.5 35.5t38.5 83.5q0 50 -38 85t-93 34q-54 0 -92.5 -34.5t-38.5 -84.5
q0 -49 38 -84t93 -35z" />
    <glyph glyph-name="uni01FC" unicode="&#x1fc;" horiz-adv-x="2938" 
d="M66 0l838 2048h1879v-402h-933v-420h860v-403h-860v-421h933v-402h-1428v1553h-141l-604 -1553h-544zM546 430v376h1096v-376h-1096zM1683 2243l202 451h433l-302 -451h-333z" />
    <glyph glyph-name="uni01FD" unicode="&#x1fd;" horiz-adv-x="2562" 
d="M1773 -29q-201 0 -358.5 82.5t-222.5 244.5l-33 950q102 164 242.5 236t321.5 72q163 0 299.5 -51t235.5 -151t153.5 -246.5t54.5 -335.5v-122h-1292v284h838q-2 78 -38 139t-98.5 95.5t-142.5 34.5q-83 0 -148 -36.5t-102.5 -99.5t-39.5 -141v-289q0 -94 37 -164.5
t105 -109.5t162 -39q64 0 117.5 18t91.5 53t57 86l449 -13q-28 -151 -123 -262.5t-240 -173t-326 -61.5zM739 294q79 0 142.5 32t101.5 88.5t38 131.5v146q-21 -11 -50.5 -20t-64.5 -17t-72 -14t-71 -11q-69 -11 -117.5 -34t-74 -59.5t-25.5 -86.5q0 -76 54.5 -116
t138.5 -40zM620 -26q-163 0 -284 49.5t-187 150.5t-66 252q0 128 45 215.5t124.5 142.5t182.5 84t219 39q132 12 211.5 26t116 39.5t36.5 71.5v5q0 78 -53 119.5t-143 41.5q-96 0 -156 -42t-75 -116l-451 16q20 140 103.5 250.5t231 174t361.5 63.5q74 0 141 -13.5
t125.5 -41t103 -71.5t71.5 -104l-38 -1084h-29q-45 -86 -134.5 -146t-207.5 -91t-248 -31zM1080 1731l202 451h433l-302 -451h-333z" />
    <glyph glyph-name="uni01FE" unicode="&#x1fe;" horiz-adv-x="2221" 
d="M474 -103l-210 142l1482 2108l209 -142zM2088 1024q0 -338 -130 -573t-351.5 -357t-496.5 -122q-276 0 -497 123t-350.5 357.5t-129.5 571.5q0 338 129.5 573t350.5 357t497 122q275 0 496.5 -122t351.5 -357t130 -573zM1582 1024q0 200 -56.5 338t-162 209t-253.5 71
q-147 0 -253 -71t-162.5 -209t-56.5 -338t56.5 -338t162.5 -209t253 -71q148 0 253.5 71t162 209t56.5 338zM942 2243l202 451h433l-302 -451h-333z" />
    <glyph glyph-name="uni01FF" unicode="&#x1ff;" horiz-adv-x="1744" 
d="M418 -103l-209 142l1113 1588l213 -142zM872 -32q-242 0 -415.5 99.5t-267 278t-93.5 414.5q0 237 93.5 415.5t267 278t415.5 99.5t415.5 -99.5t267 -278t93.5 -415.5q0 -236 -93.5 -414.5t-267 -278t-415.5 -99.5zM875 337q88 0 149 53.5t93.5 149.5t32.5 223
q0 128 -32.5 223.5t-93.5 149.5t-149 54q-91 0 -153.5 -54t-95 -149.5t-32.5 -223.5q0 -127 32.5 -223t95 -149.5t153.5 -53.5zM703 1728l202 451h433l-302 -451h-333z" />
    <glyph glyph-name="uni0200" unicode="&#x200;" horiz-adv-x="2173" 
d="M598 0h-532l691 2048h659l691 -2048h-532l-481 1532h-16zM527 806h1112v-376h-1112v376zM677 2243l-306 451h436l203 -451h-333zM1195 2243l-204 451h417l112 -451h-325z" />
    <glyph glyph-name="uni0201" unicode="&#x201;" horiz-adv-x="1649" 
d="M588 -26q-147 0 -260.5 49.5t-179 150t-65.5 252.5q0 128 45 216t124 143t182 83.5t220 38.5q131 12 211 25.5t116.5 39t36.5 72.5v5q0 77 -53 119t-143 42q-97 0 -156 -42t-75 -116l-451 16q20 140 103.5 250.5t230 174t352.5 63.5q147 0 271 -34.5t216 -100
t142.5 -160.5t50.5 -217v-1044h-460v214h-12q-41 -78 -104.5 -132t-149 -81t-192.5 -27zM739 294q79 0 142.5 32t101.5 88.5t38 131.5v146q-21 -11 -50.5 -20t-64.5 -17t-72 -14t-71 -11q-69 -11 -117.5 -34t-74 -59.5t-25.5 -86.5q0 -76 54.5 -116t138.5 -40zM433 1731
l-306 451h436l203 -451h-333zM951 1731l-204 451h417l112 -451h-325z" />
    <glyph glyph-name="uni0202" unicode="&#x202;" horiz-adv-x="2173" 
d="M598 0h-532l691 2048h659l691 -2048h-532l-481 1532h-16zM527 806h1112v-376h-1112v376zM562 2291q-1 189 140 309.5t382 120.5q239 0 381 -120.5t143 -309.5h-323q-1 67 -47 119.5t-154 52.5q-109 0 -154.5 -53t-45.5 -119h-322z" />
    <glyph glyph-name="uni0203" unicode="&#x203;" horiz-adv-x="1649" 
d="M588 -26q-147 0 -260.5 49.5t-179 150t-65.5 252.5q0 128 45 216t124 143t182 83.5t220 38.5q131 12 211 25.5t116.5 39t36.5 72.5v5q0 77 -53 119t-143 42q-97 0 -156 -42t-75 -116l-451 16q20 140 103.5 250.5t230 174t352.5 63.5q147 0 271 -34.5t216 -100
t142.5 -160.5t50.5 -217v-1044h-460v214h-12q-41 -78 -104.5 -132t-149 -81t-192.5 -27zM739 294q79 0 142.5 32t101.5 88.5t38 131.5v146q-21 -11 -50.5 -20t-64.5 -17t-72 -14t-71 -11q-69 -11 -117.5 -34t-74 -59.5t-25.5 -86.5q0 -76 54.5 -116t138.5 -40zM318 1779
q-1 189 140 309.5t382 120.5q239 0 381 -120.5t143 -309.5h-323q-1 67 -47 119.5t-154 52.5q-109 0 -154.5 -53t-45.5 -119h-322z" />
    <glyph glyph-name="uni0204" unicode="&#x204;" horiz-adv-x="1738" 
d="M155 0v2048h1428v-402h-933v-420h860v-403h-860v-421h933v-402h-1428zM465 2243l-306 451h436l203 -451h-333zM983 2243l-204 451h417l112 -451h-325z" />
    <glyph glyph-name="uni0205" unicode="&#x205;" horiz-adv-x="1698" 
d="M873 -29q-241 0 -415.5 95.5t-268 273t-93.5 422.5q0 238 94 416.5t265 278t403 99.5q164 0 300 -51t235 -151t154 -246.5t55 -335.5v-122h-1335v284h880q-1 78 -37 139t-98.5 95.5t-143.5 34.5q-82 0 -147 -36.5t-103 -99t-40 -141.5v-289q0 -94 37 -164.5t105 -109.5
t162 -39q65 0 118 18t91 53t57 86l449 -13q-28 -151 -122.5 -262.5t-247.5 -173t-354 -61.5zM441 1731l-306 451h436l203 -451h-333zM959 1731l-204 451h417l112 -451h-325z" />
    <glyph glyph-name="uni0206" unicode="&#x206;" horiz-adv-x="1738" 
d="M155 0v2048h1428v-402h-933v-420h860v-403h-860v-421h933v-402h-1428zM349 2291q-1 189 140 309.5t382 120.5q239 0 381 -120.5t143 -309.5h-323q-1 67 -47 119.5t-154 52.5q-109 0 -154.5 -53t-45.5 -119h-322z" />
    <glyph glyph-name="uni0207" unicode="&#x207;" horiz-adv-x="1698" 
d="M873 -29q-241 0 -415.5 95.5t-268 273t-93.5 422.5q0 238 94 416.5t265 278t403 99.5q164 0 300 -51t235 -151t154 -246.5t55 -335.5v-122h-1335v284h880q-1 78 -37 139t-98.5 95.5t-143.5 34.5q-82 0 -147 -36.5t-103 -99t-40 -141.5v-289q0 -94 37 -164.5t105 -109.5
t162 -39q65 0 118 18t91 53t57 86l449 -13q-28 -151 -122.5 -262.5t-247.5 -173t-354 -61.5zM325 1779q-1 189 140 309.5t382 120.5q239 0 381 -120.5t143 -309.5h-323q-1 67 -47 119.5t-154 52.5q-109 0 -154.5 -53t-45.5 -119h-322z" />
    <glyph glyph-name="uni0208" unicode="&#x208;" horiz-adv-x="805" 
d="M650 2048v-2048h-495v2048h495zM-5 2243l-306 451h436l203 -451h-333zM513 2243l-204 451h417l112 -451h-325z" />
    <glyph glyph-name="uni0209" unicode="&#x209;" horiz-adv-x="799" 
d="M155 0v1536h489v-1536h-489zM-9 1731l-306 451h436l203 -451h-333zM509 1731l-204 451h417l112 -451h-325z" />
    <glyph glyph-name="uni020A" unicode="&#x20a;" horiz-adv-x="805" 
d="M650 2048v-2048h-495v2048h495zM-121 2291q-1 189 140 309.5t382 120.5q239 0 381 -120.5t143 -309.5h-323q-1 67 -47 119.5t-154 52.5q-109 0 -154.5 -53t-45.5 -119h-322z" />
    <glyph glyph-name="uni020B" unicode="&#x20b;" horiz-adv-x="799" 
d="M155 0v1536h489v-1536h-489zM-125 1779q-1 189 140 309.5t382 120.5q239 0 381 -120.5t143 -309.5h-323q-1 67 -47 119.5t-154 52.5q-109 0 -154.5 -53t-45.5 -119h-322z" />
    <glyph glyph-name="uni020C" unicode="&#x20c;" horiz-adv-x="2221" 
d="M2088 1024q0 -338 -130 -573t-351.5 -357t-496.5 -122q-276 0 -497 123t-350.5 357.5t-129.5 571.5q0 338 129.5 573t350.5 357t497 122q275 0 496.5 -122t351.5 -357t130 -573zM1582 1024q0 200 -56.5 338t-162 209t-253.5 71q-147 0 -253 -71t-162.5 -209t-56.5 -338
t56.5 -338t162.5 -209t253 -71q148 0 253.5 71t162 209t56.5 338zM701 2243l-306 451h436l203 -451h-333zM1219 2243l-204 451h417l112 -451h-325z" />
    <glyph glyph-name="uni020D" unicode="&#x20d;" horiz-adv-x="1744" 
d="M872 -29q-242 0 -415.5 99.5t-267 278t-93.5 414.5q0 237 93.5 415.5t267 278t415.5 99.5t415.5 -99.5t267 -278t93.5 -415.5q0 -236 -93.5 -414.5t-267 -278t-415.5 -99.5zM875 340q88 0 149 54t93.5 150t32.5 222q0 128 -32.5 224t-93.5 150t-149 54q-91 0 -153.5 -54
t-95 -150t-32.5 -224q0 -126 32.5 -222t95 -150t153.5 -54zM463 1731l-306 451h436l203 -451h-333zM981 1731l-204 451h417l112 -451h-325z" />
    <glyph glyph-name="uni020E" unicode="&#x20e;" horiz-adv-x="2221" 
d="M2088 1024q0 -338 -130 -573t-351.5 -357t-496.5 -122q-276 0 -497 123t-350.5 357.5t-129.5 571.5q0 338 129.5 573t350.5 357t497 122q275 0 496.5 -122t351.5 -357t130 -573zM1582 1024q0 200 -56.5 338t-162 209t-253.5 71q-147 0 -253 -71t-162.5 -209t-56.5 -338
t56.5 -338t162.5 -209t253 -71q148 0 253.5 71t162 209t56.5 338zM586 2291q-1 189 140 309.5t382 120.5q239 0 381 -120.5t143 -309.5h-323q-1 67 -47 119.5t-154 52.5q-109 0 -154.5 -53t-45.5 -119h-322z" />
    <glyph glyph-name="uni020F" unicode="&#x20f;" horiz-adv-x="1744" 
d="M872 -29q-242 0 -415.5 99.5t-267 278t-93.5 414.5q0 237 93.5 415.5t267 278t415.5 99.5t415.5 -99.5t267 -278t93.5 -415.5q0 -236 -93.5 -414.5t-267 -278t-415.5 -99.5zM875 340q88 0 149 54t93.5 150t32.5 222q0 128 -32.5 224t-93.5 150t-149 54q-91 0 -153.5 -54
t-95 -150t-32.5 -224q0 -126 32.5 -222t95 -150t153.5 -54zM347 1779q-1 189 140 309.5t382 120.5q239 0 381 -120.5t143 -309.5h-323q-1 67 -47 119.5t-154 52.5q-109 0 -154.5 -53t-45.5 -119h-322z" />
    <glyph glyph-name="uni0210" unicode="&#x210;" horiz-adv-x="1864" 
d="M155 0v2048h846q230 0 397.5 -82.5t258.5 -236t91 -363.5q0 -213 -93 -361.5t-264 -226t-405 -77.5h-535v390h443q112 0 187.5 29.5t114.5 90t39 155.5t-39 157.5t-115 94t-187 31.5h-244v-1649h-495zM1308 936l510 -936h-540l-500 936h530zM511 2243l-306 451h436
l203 -451h-333zM1029 2243l-204 451h417l112 -451h-325z" />
    <glyph glyph-name="uni0211" unicode="&#x211;" horiz-adv-x="1186" 
d="M155 0v1536h475v-280h16q42 152 137 226.5t221 74.5q34 0 70 -4.5t67 -13.5v-425q-35 12 -91.5 19t-100.5 7q-87 0 -156.5 -38.5t-109 -107t-39.5 -160.5v-834h-489zM238 1731l-306 451h436l203 -451h-333zM756 1731l-204 451h417l112 -451h-325z" />
    <glyph glyph-name="uni0212" unicode="&#x212;" horiz-adv-x="1864" 
d="M155 0v2048h846q230 0 397.5 -82.5t258.5 -236t91 -363.5q0 -213 -93 -361.5t-264 -226t-405 -77.5h-535v390h443q112 0 187.5 29.5t114.5 90t39 155.5t-39 157.5t-115 94t-187 31.5h-244v-1649h-495zM1308 936l510 -936h-540l-500 936h530zM395 2291q-1 189 140 309.5
t382 120.5q239 0 381 -120.5t143 -309.5h-323q-1 67 -47 119.5t-154 52.5q-109 0 -154.5 -53t-45.5 -119h-322z" />
    <glyph glyph-name="uni0213" unicode="&#x213;" horiz-adv-x="1186" 
d="M155 0v1536h475v-280h16q42 152 137 226.5t221 74.5q34 0 70 -4.5t67 -13.5v-425q-35 12 -91.5 19t-100.5 7q-87 0 -156.5 -38.5t-109 -107t-39.5 -160.5v-834h-489zM122 1779q-1 189 140 309.5t382 120.5q239 0 381 -120.5t143 -309.5h-323q-1 67 -47 119.5t-154 52.5
q-109 0 -154.5 -53t-45.5 -119h-322z" />
    <glyph glyph-name="uni0214" unicode="&#x214;" horiz-adv-x="2043" 
d="M1394 2048h494v-1321q0 -229 -109 -398.5t-304 -262t-453 -92.5q-261 0 -456 92.5t-303 262t-108 398.5v1321h495v-1278q0 -106 46.5 -189t130.5 -130t195 -47t194.5 47t130.5 130t47 189v1278zM613 2243l-306 451h436l203 -451h-333zM1131 2243l-204 451h417l112 -451
h-325z" />
    <glyph glyph-name="uni0215" unicode="&#x215;" horiz-adv-x="1790" 
d="M1146 663v873h488v-1536h-466v286h-16q-51 -141 -173.5 -223.5t-295.5 -82.5q-157 0 -276 72t-185 201.5t-67 303.5v979h489v-883q1 -125 66 -197t177 -72q73 0 131.5 32.5t93 95t34.5 151.5zM488 1731l-306 451h436l203 -451h-333zM1006 1731l-204 451h417l112 -451
h-325z" />
    <glyph glyph-name="uni0216" unicode="&#x216;" horiz-adv-x="2043" 
d="M1394 2048h494v-1321q0 -229 -109 -398.5t-304 -262t-453 -92.5q-261 0 -456 92.5t-303 262t-108 398.5v1321h495v-1278q0 -106 46.5 -189t130.5 -130t195 -47t194.5 47t130.5 130t47 189v1278zM497 2291q-1 189 140 309.5t382 120.5q239 0 381 -120.5t143 -309.5h-323
q-1 67 -47 119.5t-154 52.5q-109 0 -154.5 -53t-45.5 -119h-322z" />
    <glyph glyph-name="uni0217" unicode="&#x217;" horiz-adv-x="1790" 
d="M1146 663v873h488v-1536h-466v286h-16q-51 -141 -173.5 -223.5t-295.5 -82.5q-157 0 -276 72t-185 201.5t-67 303.5v979h489v-883q1 -125 66 -197t177 -72q73 0 131.5 32.5t93 95t34.5 151.5zM372 1779q-1 189 140 309.5t382 120.5q239 0 381 -120.5t143 -309.5h-323
q-1 67 -47 119.5t-154 52.5q-109 0 -154.5 -53t-45.5 -119h-322z" />
    <glyph glyph-name="uni0218" unicode="&#x218;" horiz-adv-x="1860" 
d="M1262 1434q-10 110 -88.5 171.5t-223.5 61.5q-96 0 -160 -25t-96 -68.5t-33 -99.5q-2 -46 18.5 -81t60 -61.5t95.5 -46.5t126 -35l176 -40q152 -33 268.5 -88t196 -131t120.5 -175t42 -222q-1 -194 -98 -333t-278.5 -213t-437.5 -74q-257 0 -448 77t-297 234t-109 397
h474q6 -99 53 -165t129.5 -100t191.5 -34q100 0 170.5 27t108.5 75t39 110q-1 58 -36 99.5t-107.5 72t-184.5 56.5l-214 50q-266 61 -419 197.5t-152 369.5q-1 190 102 333t285 223t415 80q238 0 413.5 -80.5t272.5 -225.5t99 -336h-474zM592 -655l128 486h445l-235 -486
h-338z" />
    <glyph glyph-name="uni0219" unicode="&#x219;" horiz-adv-x="1619" 
d="M1496 1067l-449 -12q-7 48 -38 85.5t-80.5 59t-114.5 21.5q-85 0 -144.5 -34t-58.5 -92q-1 -45 36.5 -78t134.5 -53l296 -56q230 -44 342.5 -146t113.5 -270q-1 -158 -93.5 -275t-252.5 -181.5t-366 -64.5q-329 0 -518.5 135.5t-216.5 363.5l483 12q16 -84 83 -128
t171 -44q94 0 153 35t60 93q-1 52 -46 83.5t-141 49.5l-268 51q-231 42 -344 155.5t-112 289.5q-1 154 82 263.5t236 167.5t361 58q312 0 492 -130.5t199 -358.5zM470 -648l128 486h445l-235 -486h-338z" />
    <glyph glyph-name="uni021A" unicode="&#x21a;" horiz-adv-x="1907" 
d="M88 1646v402h1731v-402h-621v-1646h-488v1646h-622zM606 -648l128 486h445l-235 -486h-338z" />
    <glyph glyph-name="uni021B" unicode="&#x21b;" horiz-adv-x="1117" 
d="M1022 1536v-360h-969v360h969zM256 1904h489v-1421q0 -45 14.5 -72.5t42.5 -39t67 -11.5q28 0 59.5 5.5t47.5 9.5l74 -353q-35 -10 -98.5 -25t-151.5 -19q-172 -8 -294.5 40.5t-187 151.5t-62.5 259v1475zM279 -648l128 486h445l-235 -486h-338z" />
    <glyph glyph-name="uni021C" unicode="&#x21c;" horiz-adv-x="1923" 
d="M333 429v365q266 78 441.5 144.5t277.5 133.5t144.5 146t42.5 182q0 151 -73 219t-225 68q-87 0 -150.5 -22.5t-97.5 -64.5t-34 -99h-485q0 170 98.5 299.5t271.5 202.5t397 73q241 0 416 -66t270 -201.5t95 -342.5q0 -184 -78.5 -336t-245 -277t-430.5 -229.5
t-635 -194.5zM1014 732l69 284q200 6 350 -55.5t233.5 -183t83.5 -294.5q0 -219 -101.5 -401.5t-289.5 -322t-448 -230.5t-578 -129v385q219 41 391.5 106.5t293 155t183.5 202.5t63 248q0 141 -54 192.5t-196 42.5z" />
    <glyph glyph-name="uni021D" unicode="&#x21d;" horiz-adv-x="1658" 
d="M351 189v335q236 79 378 153.5t204.5 159t62.5 190.5q0 94 -43 139t-133 45q-59 0 -100.5 -19t-63.5 -54t-21 -85h-470q-1 157 78 269.5t228 173t357 60.5q313 0 474.5 -124t161.5 -362q0 -194 -120 -354.5t-366.5 -290.5t-626.5 -236zM824 522l66 184
q291 8 446.5 -105.5t155.5 -335.5q0 -306 -287 -523.5t-854 -341.5v341q253 94 399 178t208.5 173t62.5 198q0 115 -56 177t-141 55z" />
    <glyph glyph-name="uni021E" unicode="&#x21e;" horiz-adv-x="2106" 
d="M155 0v2048h495v-822h807v822h494v-2048h-494v823h-807v-823h-495zM857 2694l198 -232l199 232h409v-13l-432 -448h-351l-433 448v13h410z" />
    <glyph glyph-name="uni021F" unicode="&#x21f;" horiz-adv-x="1789" 
d="M644 876v-876h-489v2048h473v-794h17q52 142 170.5 222t290.5 80q162 0 282 -71.5t186.5 -201.5t65.5 -304v-979h-489v883q1 128 -64 200t-183 72q-77 0 -135.5 -33.5t-91 -95.5t-33.5 -150zM195 2693l198 -232l199 232h409v-13l-432 -448h-351l-433 448v13h410z" />
    <glyph glyph-name="uni0220" unicode="&#x220;" horiz-adv-x="1930" 
d="M1734 -572h-474v2049q0 78 -32 128.5t-92.5 74.5t-146.5 24q-177 0 -341 -106.5t-312 -309.5v438q94 110 207.5 188.5t243 120t271.5 41.5q191 0 344.5 -73.5t242.5 -208t89 -317.5v-2049zM670 2048v-2048h-471v2048h471z" />
    <glyph glyph-name="uni0221" unicode="&#x221;" horiz-adv-x="2021" 
d="M1155 346h492v-513q1 -73 39.5 -105.5t91.5 -32.5q51 0 85 27t33 69q1 46 -35 80t-117 31q-59 0 -144 -43.5t-194 -120.5l-424 -316l-196 287l414 313q123 73 252.5 112.5t287.5 39.5q274 0 419 -110.5t144 -285.5q1 -109 -58.5 -188.5t-179 -122.5t-300.5 -43
q-229 0 -362 69t-190 190t-58 275v388zM722 -22q-169 0 -308.5 88t-222 264t-82.5 437q0 271 85.5 446t225.5 259t300 84q121 0 207.5 -41.5t142 -106.5t84.5 -135h11v775h489v-2048h-484v249h-16q-30 -71 -87.5 -133t-143 -100t-201.5 -38zM892 359q89 0 152.5 50.5
t97 142.5t33.5 216q0 126 -33.5 217t-96.5 140t-153 49q-91 0 -153.5 -50t-95.5 -141t-33 -215t33 -216t96 -142.5t153 -50.5z" />
    <glyph glyph-name="uni0222" unicode="&#x222;" horiz-adv-x="1926" 
d="M952 1292h29q244 0 420.5 -74.5t272.5 -217t96 -346.5q0 -211 -99 -364t-276.5 -235.5t-413.5 -82.5h-29q-238 0 -417 82t-278.5 234.5t-99.5 361.5q0 206 95.5 349t274 218t425.5 75zM981 951h-29q-138 0 -219.5 -79.5t-80.5 -221.5q-1 -138 81.5 -216.5t218.5 -78.5h29
q135 0 214 77.5t79 221.5q0 141 -79.5 219t-213.5 78zM946 1344h34q98 0 165 15t102 56.5t34 120.5q-1 71 -33 110t-102 54v376q196 2 337 -62t217 -185.5t76 -292.5q1 -181 -96.5 -298t-276 -174.5t-423.5 -57.5h-34q-184 0 -329.5 31.5t-248 96.5t-157 165t-54.5 237
q0 173 74.5 294t215.5 184.5t337 61.5v-376q-71 -15 -102 -53t-30 -111q1 -81 34 -122t98.5 -55.5t161.5 -14.5z" />
    <glyph glyph-name="uni0223" unicode="&#x223;" horiz-adv-x="1923" 
d="M949 1262h29q225 0 400.5 -63.5t276.5 -200.5t101 -356q0 -217 -100 -366.5t-276 -226.5t-402 -77h-29q-229 0 -405 77t-276.5 226t-100.5 366q0 220 100.5 357t276.5 200.5t405 63.5zM978 933h-29q-149 0 -230 -81.5t-81 -210.5q0 -130 81 -211t230 -81h29q153 0 230 81
t77 212q0 129 -77 210t-230 81zM977 1306q105 0 174.5 26.5t104.5 83t35 146.5q0 98 -44.5 149t-104.5 68v361q182 0 320.5 -62.5t216 -188.5t77.5 -317q0 -217 -100.5 -346.5t-276 -187t-402.5 -57.5h-31q-225 0 -401 57.5t-277 187t-101 346.5q0 188 77 314.5t215 190
t322 63.5v-361q-60 -17 -101.5 -68t-41.5 -149q0 -92 34 -148.5t102.5 -82t171.5 -25.5h31z" />
    <glyph glyph-name="uni0224" unicode="&#x224;" horiz-adv-x="1917" 
d="M149 1646v402h1620v-282l-1008 -1364h429q299 0 457 -150t156 -417v-203h-400v114q1 68 -15 125.5t-62 93t-136 35.5h-1042v282l1008 1364h-1007z" />
    <glyph glyph-name="uni0225" unicode="&#x225;" horiz-adv-x="1626" 
d="M1138 -390v111q0 62 -15.5 127t-60.5 108.5t-136 43.5h-766v267l691 892h-659v377h1261v-268l-691 -891h164q295 0 453.5 -150.5t158.5 -420.5v-196h-400z" />
    <glyph glyph-name="uni0226" unicode="&#x226;" horiz-adv-x="2173" 
d="M598 0h-532l691 2048h659l691 -2048h-532l-481 1532h-16zM527 806h1112v-376h-1112v376zM1087 2227q-104 0 -178 68.5t-74 165.5q0 96 74 164.5t177 68.5q104 0 177.5 -68.5t73.5 -164.5q0 -97 -73.5 -165.5t-176.5 -68.5z" />
    <glyph glyph-name="uni0227" unicode="&#x227;" horiz-adv-x="1649" 
d="M588 -26q-147 0 -260.5 49.5t-179 150t-65.5 252.5q0 128 45 216t124 143t182 83.5t220 38.5q131 12 211 25.5t116.5 39t36.5 72.5v5q0 77 -53 119t-143 42q-97 0 -156 -42t-75 -116l-451 16q20 140 103.5 250.5t230 174t352.5 63.5q147 0 271 -34.5t216 -100
t142.5 -160.5t50.5 -217v-1044h-460v214h-12q-41 -78 -104.5 -132t-149 -81t-192.5 -27zM739 294q79 0 142.5 32t101.5 88.5t38 131.5v146q-21 -11 -50.5 -20t-64.5 -17t-72 -14t-71 -11q-69 -11 -117.5 -34t-74 -59.5t-25.5 -86.5q0 -76 54.5 -116t138.5 -40zM843 1715
q-104 0 -178 68.5t-74 165.5q0 96 74 164.5t177 68.5q104 0 177.5 -68.5t73.5 -164.5q0 -97 -73.5 -165.5t-176.5 -68.5z" />
    <glyph glyph-name="uni0228" unicode="&#x228;" horiz-adv-x="1738" 
d="M155 0v2048h1428v-402h-933v-420h860v-403h-860v-421h933v-402h-1428zM776 8h196l-16 -90q110 -16 176 -79.5t67 -165.5q1 -156 -148.5 -246.5t-415.5 -90.5l-2 201q137 0 212 31t78 94q3 58 -45 92.5t-149 47.5z" />
    <glyph glyph-name="uni0229" unicode="&#x229;" horiz-adv-x="1698" 
d="M873 -29q-241 0 -415.5 95.5t-268 273t-93.5 422.5q0 238 94 416.5t265 278t403 99.5q164 0 300 -51t235 -151t154 -246.5t55 -335.5v-122h-1335v284h880q-1 78 -37 139t-98.5 95.5t-143.5 34.5q-82 0 -147 -36.5t-103 -99t-40 -141.5v-289q0 -94 37 -164.5t105 -109.5
t162 -39q65 0 118 18t91 53t57 86l449 -13q-28 -151 -122.5 -262.5t-247.5 -173t-354 -61.5zM760 8h196l-16 -90q110 -16 176 -79.5t67 -165.5q1 -156 -148.5 -246.5t-415.5 -90.5l-2 201q137 0 212 31t78 94q3 58 -45 92.5t-149 47.5z" />
    <glyph glyph-name="uni022A" unicode="&#x22a;" horiz-adv-x="2221" 
d="M2088 1024q0 -338 -130 -573t-351.5 -357t-496.5 -122q-276 0 -497 123t-350.5 357.5t-129.5 571.5q0 338 129.5 573t350.5 357t497 122q275 0 496.5 -122t351.5 -357t130 -573zM1582 1024q0 200 -56.5 338t-162 209t-253.5 71q-147 0 -253 -71t-162.5 -209t-56.5 -338
t56.5 -338t162.5 -209t253 -71q148 0 253.5 71t162 209t56.5 338zM800 2243q-94 0 -160.5 64t-66.5 154t66.5 153.5t160.5 63.5q93 0 158.5 -63.5t65.5 -153.5t-65.5 -154t-158.5 -64zM1424 2243q-94 0 -160.5 64t-66.5 154t66.5 153.5t160.5 63.5q93 0 158.5 -63.5
t65.5 -153.5t-65.5 -154t-158.5 -64zM1604 3072v-242h-987v242h987z" />
    <glyph glyph-name="uni022B" unicode="&#x22b;" horiz-adv-x="1744" 
d="M872 -29q-242 0 -415.5 99.5t-267 278t-93.5 414.5q0 237 93.5 415.5t267 278t415.5 99.5t415.5 -99.5t267 -278t93.5 -415.5q0 -236 -93.5 -414.5t-267 -278t-415.5 -99.5zM875 340q88 0 149 54t93.5 150t32.5 222q0 128 -32.5 224t-93.5 150t-149 54q-91 0 -153.5 -54
t-95 -150t-32.5 -224q0 -126 32.5 -222t95 -150t153.5 -54zM561 1731q-94 0 -160.5 64t-66.5 154t66.5 153.5t160.5 63.5q93 0 158.5 -63.5t65.5 -153.5t-65.5 -154t-158.5 -64zM1185 1731q-94 0 -160.5 64t-66.5 154t66.5 153.5t160.5 63.5q93 0 158.5 -63.5t65.5 -153.5
t-65.5 -154t-158.5 -64zM1365 2560v-242h-987v242h987z" />
    <glyph glyph-name="uni022C" unicode="&#x22c;" horiz-adv-x="2221" 
d="M2088 1024q0 -338 -130 -573t-351.5 -357t-496.5 -122q-276 0 -497 123t-350.5 357.5t-129.5 571.5q0 338 129.5 573t350.5 357t497 122q275 0 496.5 -122t351.5 -357t130 -573zM1582 1024q0 200 -56.5 338t-162 209t-253.5 71q-147 0 -253 -71t-162.5 -209t-56.5 -338
t56.5 -338t162.5 -209t253 -71q148 0 253.5 71t162 209t56.5 338zM1346 2582l193 -55q0 -97 -67 -173t-168 -76q-75 0 -129 22t-103 44t-110 22q-36 0 -61.5 -34.5t-24.5 -82.5l-190 54q-1 97 62.5 173.5t165.5 76.5q62 0 118 -22t111 -43.5t113 -21.5q35 0 62 33.5t28 82.5
zM1605 2955v-243h-991v243h991z" />
    <glyph glyph-name="uni022D" unicode="&#x22d;" horiz-adv-x="1744" 
d="M872 -29q-242 0 -415.5 99.5t-267 278t-93.5 414.5q0 237 93.5 415.5t267 278t415.5 99.5t415.5 -99.5t267 -278t93.5 -415.5q0 -236 -93.5 -414.5t-267 -278t-415.5 -99.5zM875 340q88 0 149 54t93.5 150t32.5 222q0 128 -32.5 224t-93.5 150t-149 54q-91 0 -153.5 -54
t-95 -150t-32.5 -224q0 -126 32.5 -222t95 -150t153.5 -54zM1159 2136l264 -13q1 -101 -42 -188t-118 -140.5t-173 -53.5q-67 0 -116.5 17.5t-92 40t-87.5 40t-101 17.5q-43 0 -76 -28.5t-33 -91.5l-264 15q1 94 43 180.5t116 141.5t170 55q56 0 105.5 -17.5t96 -39
t94.5 -38.5t100 -17q46 0 80.5 28.5t33.5 91.5zM1368 2548v-243h-991v243h991z" />
    <glyph glyph-name="uni022E" unicode="&#x22e;" horiz-adv-x="2221" 
d="M2088 1024q0 -338 -130 -573t-351.5 -357t-496.5 -122q-276 0 -497 123t-350.5 357.5t-129.5 571.5q0 338 129.5 573t350.5 357t497 122q275 0 496.5 -122t351.5 -357t130 -573zM1582 1024q0 200 -56.5 338t-162 209t-253.5 71q-147 0 -253 -71t-162.5 -209t-56.5 -338
t56.5 -338t162.5 -209t253 -71q148 0 253.5 71t162 209t56.5 338zM1111 2227q-104 0 -178 68.5t-74 165.5q0 96 74 164.5t177 68.5q104 0 177.5 -68.5t73.5 -164.5q0 -97 -73.5 -165.5t-176.5 -68.5z" />
    <glyph glyph-name="uni022F" unicode="&#x22f;" horiz-adv-x="1744" 
d="M872 -29q-242 0 -415.5 99.5t-267 278t-93.5 414.5q0 237 93.5 415.5t267 278t415.5 99.5t415.5 -99.5t267 -278t93.5 -415.5q0 -236 -93.5 -414.5t-267 -278t-415.5 -99.5zM875 340q88 0 149 54t93.5 150t32.5 222q0 128 -32.5 224t-93.5 150t-149 54q-91 0 -153.5 -54
t-95 -150t-32.5 -224q0 -126 32.5 -222t95 -150t153.5 -54zM873 1715q-104 0 -178 68.5t-74 165.5q0 96 74 164.5t177 68.5q104 0 177.5 -68.5t73.5 -164.5q0 -97 -73.5 -165.5t-176.5 -68.5z" />
    <glyph glyph-name="uni0230" unicode="&#x230;" horiz-adv-x="2221" 
d="M2088 1024q0 -338 -130 -573t-351.5 -357t-496.5 -122q-276 0 -497 123t-350.5 357.5t-129.5 571.5q0 338 129.5 573t350.5 357t497 122q275 0 496.5 -122t351.5 -357t130 -573zM1582 1024q0 200 -56.5 338t-162 209t-253.5 71q-147 0 -253 -71t-162.5 -209t-56.5 -338
t56.5 -338t162.5 -209t253 -71q148 0 253.5 71t162 209t56.5 338zM1111 2242q-94 0 -161 64.5t-67 153.5q0 91 67 154.5t161 63.5q95 0 162 -63.5t67 -154.5q0 -89 -67 -153.5t-162 -64.5zM1604 3072v-242h-987v242h987z" />
    <glyph glyph-name="uni0231" unicode="&#x231;" horiz-adv-x="1744" 
d="M872 -29q-242 0 -415.5 99.5t-267 278t-93.5 414.5q0 237 93.5 415.5t267 278t415.5 99.5t415.5 -99.5t267 -278t93.5 -415.5q0 -236 -93.5 -414.5t-267 -278t-415.5 -99.5zM875 340q88 0 149 54t93.5 150t32.5 222q0 128 -32.5 224t-93.5 150t-149 54q-91 0 -153.5 -54
t-95 -150t-32.5 -224q0 -126 32.5 -222t95 -150t153.5 -54zM1367 2549v-241h-987v241h987zM874 1720q-95 0 -162 64t-67 153q0 91 67 154.5t162 63.5t162 -63.5t67 -154.5q0 -89 -67 -153t-162 -64z" />
    <glyph glyph-name="uni0232" unicode="&#x232;" horiz-adv-x="2096" 
d="M53 2048h553l433 -857h18l433 857h553l-749 -1364v-684h-492v684zM1541 2560v-242h-987v242h987z" />
    <glyph glyph-name="uni0233" unicode="&#x233;" horiz-adv-x="1677" 
d="M454 -576q-88 0 -166 13.5t-134 35.5l108 355q72 -24 130.5 -28t101 18.5t65.5 79.5l19 46l-546 1592h512l283 -1096h16l287 1096h515l-579 -1683q-42 -126 -118.5 -222.5t-197 -151.5t-296.5 -55zM1329 2048v-242h-987v242h987z" />
    <glyph glyph-name="uni0234" unicode="&#x234;" horiz-adv-x="1262" 
d="M123 406h489v-508q-1 -71 27 -113t97 -42q35 0 60.5 31t25.5 68q0 24 -26 56t-72 32q-121 0 -232 -57t-262 -169l-280 -218l-228 268l193 144q95 62 204.5 125t223.5 114.5t223 82.5t203 31q128 0 224.5 -55.5t150 -146t54.5 -194.5q-1 -105 -58 -204t-161.5 -163
t-248.5 -64q-97 0 -203 34t-198 106t-149.5 185.5t-56.5 272.5v384zM612 2048v-2048h-489v2048h489z" />
    <glyph glyph-name="uni0235" unicode="&#x235;" horiz-adv-x="2293" 
d="M1148 132h489v-126q0 -53 31 -85t80 -32q46 0 72.5 31t26.5 84q0 54 -34.5 83.5t-82.5 30.5q-32 0 -90 -8.5t-128.5 -32.5t-140 -65.5t-125.5 -107.5l-220 -254l-232 201l194 221q105 124 201 191.5t188.5 96.5t186 34.5t194.5 5.5q131 0 236 -54.5t166.5 -150
t61.5 -220.5q1 -125 -64.5 -222.5t-186 -152.5t-287.5 -56q-105 0 -201 26t-171.5 82.5t-119.5 147t-44 218.5v114zM644 876v-876h-489v1536h465v-282h17q51 141 174 221.5t293 80.5q162 0 281.5 -72.5t186 -202t65.5 -302.5v-979h-489v883q1 128 -64.5 200t-181.5 72
q-77 0 -135.5 -33.5t-90 -95.5t-32.5 -150z" />
    <glyph glyph-name="uni0236" unicode="&#x236;" horiz-adv-x="1534" 
d="M387 1904h489v-1500q0 -51 33 -84t85 -33q40 0 67 27t27 72q0 38 -25.5 63t-74.5 25q-52 0 -130 -27t-175 -84.5t-206 -145.5t-224 -210l-200 262q173 181 350 297.5t339 172.5t291 56q195 0 312.5 -112t117.5 -281q0 -71 -24.5 -147t-82 -141t-156 -105.5t-245.5 -40.5
q-97 0 -197 24.5t-184 83.5t-135.5 163t-51.5 263v1402zM1153 1536v-360h-969v360h969z" />
    <glyph glyph-name="uni0237" unicode="&#x237;" horiz-adv-x="799" 
d="M155 1536h489v-1600q0 -190 -77.5 -302t-218.5 -161t-333 -49q-26 0 -49 1t-50 2v371q18 -2 32 -3t28 -1q101 0 140 37.5t39 114.5v1590z" />
    <glyph glyph-name="uni0238" unicode="&#x238;" horiz-adv-x="2729" 
d="M2557 776v-28q0 -228 -71.5 -403t-202.5 -274t-311 -99q-145 0 -249.5 60.5t-175.5 166.5t-114 245t-65 295v24q30 225 97.5 404.5t189.5 284t315 104.5q181 0 312.5 -97.5t203 -273t71.5 -409.5zM2086 748v28q0 124 -24 215.5t-79 142t-150 50.5q-134 0 -205 -101.5
t-77 -287.5v-85q6 -114 39 -195t93.5 -124.5t150.5 -43.5q104 0 158.5 54.5t74 145t19.5 201.5zM1129 346v1702h471v-2048h-425zM172 748v28q0 234 71 409.5t203 273t313 97.5q193 0 315 -104.5t189.5 -284t97.5 -404.5v-24q-22 -156 -65 -295t-114 -245t-175 -166.5
t-250 -60.5q-180 0 -311 99t-202.5 274t-71.5 403zM643 776v-28q0 -111 19.5 -201.5t73.5 -145t159 -54.5q89 0 150 43.5t94 124.5t39 195v85q-4 124 -37 210.5t-94.5 132.5t-150.5 46q-95 0 -150.5 -50.5t-79 -142t-23.5 -215.5z" />
    <glyph glyph-name="uni0239" unicode="&#x239;" horiz-adv-x="2729" 
d="M1129 -572v1792l59 316h378l34 -284v-1824h-471zM172 748v28q0 234 71 409.5t203 273t313 97.5q193 0 315 -104.5t189.5 -284t97.5 -404.5v-24q-22 -156 -65 -295t-114 -245t-175 -166.5t-250 -60.5q-180 0 -311 99t-202.5 274t-71.5 403zM643 776v-28
q0 -111 19.5 -201.5t73.5 -145t159 -54.5q89 0 150 43.5t94 124.5t39 195v85q-4 124 -37 210.5t-94.5 132.5t-150.5 46q-95 0 -150.5 -50.5t-79 -142t-23.5 -215.5zM2557 776v-28q0 -228 -71.5 -403t-202.5 -274t-311 -99q-145 0 -249.5 60.5t-175.5 166.5t-114 245t-65 295
v24q30 225 97.5 404.5t189.5 284t315 104.5q181 0 312.5 -97.5t203 -273t71.5 -409.5zM2086 748v28q0 124 -24 215.5t-79 142t-150 50.5q-134 0 -205 -101.5t-77 -287.5v-85q6 -114 39 -195t93.5 -124.5t150.5 -43.5q104 0 158.5 54.5t74 145t19.5 201.5z" />
    <glyph glyph-name="uni023A" unicode="&#x23a;" horiz-adv-x="2173" 
d="M1767 2308l-803 -2568h-273l803 2568h273zM598 0h-532l691 2048h659l691 -2048h-532l-481 1532h-16zM527 806h1112v-376h-1112v376z" />
    <glyph glyph-name="uni023B" unicode="&#x23b;" horiz-adv-x="2141" 
d="M538 -260l803 2568h273l-804 -2568h-272zM2014 1306h-500q-10 77 -41 139t-82 106t-120.5 67.5t-153.5 23.5q-149 0 -256.5 -73t-165 -211t-57.5 -334q0 -204 58.5 -341.5t165 -207t252.5 -69.5q82 0 149.5 21t119 61.5t85 99t46.5 132.5l500 -3q-13 -136 -78.5 -268
t-179.5 -240.5t-277.5 -172.5t-374.5 -64q-278 0 -497.5 122.5t-346.5 357.5t-127 572q0 338 129 573t349 357t493 122q186 0 344 -51.5t278 -150t195 -241.5t93 -327z" />
    <glyph glyph-name="uni023C" unicode="&#x23c;" horiz-adv-x="1687" 
d="M1411 2048l-853 -2624h-262l850 2624h265zM872 -29q-243 0 -416.5 100t-266.5 278.5t-93 413.5q0 236 93.5 414.5t267 278.5t414.5 100q213 0 371.5 -77t248 -217.5t94.5 -329.5h-457q-14 118 -79.5 185t-170.5 67q-85 0 -149 -47.5t-99.5 -140t-35.5 -228.5t35.5 -229.5
t99.5 -141t149 -47.5q68 0 120.5 29t86.5 85.5t43 137.5h457q-7 -190 -94.5 -332t-245 -220.5t-373.5 -78.5z" />
    <glyph glyph-name="uni023D" unicode="&#x23d;" horiz-adv-x="1603" 
d="M155 0v2048h495v-1646h852v-402h-1347zM-119 952v273h1037v-273h-1037z" />
    <glyph glyph-name="uni023E" unicode="&#x23e;" horiz-adv-x="1907" 
d="M453 -260l803 2568h273l-803 -2568h-273zM88 1646v402h1731v-402h-621v-1646h-488v1646h-622z" />
    <glyph glyph-name="uni023F" unicode="&#x23f;" horiz-adv-x="1626" 
d="M478 415q112 -222 185 -356t123.5 -201.5t91.5 -89.5t89 -22q95 0 162.5 37t118.5 78l140 -243q-77 -65 -185 -129.5t-255 -64.5q-137 0 -235 61.5t-169.5 155t-127.5 189.5l-238 406zM1496 1067l-449 -12q-7 48 -38 85.5t-80.5 59t-114.5 21.5q-85 0 -144.5 -34
t-58.5 -92q-1 -45 36.5 -78t134.5 -53l296 -56q230 -44 342.5 -146t113.5 -270q-1 -158 -93.5 -275t-252.5 -181.5t-366 -64.5q-329 0 -518.5 135.5t-216.5 363.5l483 12q16 -84 83 -128t171 -44q94 0 153 35t60 93q-1 52 -46 83.5t-141 49.5l-268 51q-231 42 -344 155.5
t-112 289.5q-1 154 82 263.5t236 167.5t361 58q312 0 492 -130.5t199 -358.5z" />
    <glyph glyph-name="uni0240" unicode="&#x240;" horiz-adv-x="1874" 
d="M592 377h189q123 0 210 -40.5t149.5 -103.5t110.5 -134.5t92 -134.5t94 -103.5t116 -40.5q45 0 90.5 21t83.5 48t61 45l156 -316q-77 -72 -184.5 -133t-251.5 -61q-116 0 -199.5 41.5t-145.5 107t-115 139.5t-107.5 139.5t-123 107t-163.5 41.5h-62v377zM762 377v-377
h-602v267l691 892h-659v377h1261v-268z" />
    <glyph glyph-name="uni0241" unicode="&#x241;" horiz-adv-x="1654" 
d="M626 733h178q99 0 151.5 45.5t71.5 126.5t19 188v220q0 54 -7 117.5t-30.5 120.5t-72 92.5t-132.5 35.5q-115 0 -170 -66.5t-54 -160.5h-466q-2 192 88.5 332t245.5 216t346 76q237 0 404 -99.5t255 -272t88 -391.5v-220q0 -216 -87.5 -386t-255 -269t-407.5 -99h-165
v394zM1069 733v-733h-490v733h490z" />
    <glyph glyph-name="uni0242" unicode="&#x242;" horiz-adv-x="1658" 
d="M173 942q0 186 82 324t229.5 214t342.5 76q201 0 349 -71t228.5 -203t80.5 -316q0 -161 -65 -278t-190 -180.5t-308 -63.5h-262v249h102q129 0 190.5 65.5t61.5 198.5q0 109 -42.5 167t-139.5 58q-99 0 -144 -59t-44 -181h-471zM595 693h471v-693h-471v693z" />
    <glyph glyph-name="uni0243" unicode="&#x243;" horiz-adv-x="2055" 
d="M340 0v2048h854q230 0 385.5 -65t234 -182t78.5 -271q0 -117 -49 -208.5t-135 -151.5t-199 -84v-20q124 -6 229.5 -67t169.5 -169.5t64 -256.5q0 -165 -84 -294.5t-243 -204t-386 -74.5h-919zM835 399h306q161 0 237.5 61t76.5 170q0 79 -37 136.5t-105 89t-163 31.5
h-315v-488zM835 1206h274q81 0 144 27t98.5 78t35.5 123q0 103 -73 162t-197 59h-282v-449zM53 507v273h1037v-273h-1037z" />
    <glyph glyph-name="uni0244" unicode="&#x244;" horiz-adv-x="2158" 
d="M2173 1156v-276h-2187v276h2187zM1461 2048h494v-1321q0 -229 -109 -398.5t-304 -262t-453 -92.5q-260 0 -455 92.5t-303.5 262t-108.5 398.5v1321h495v-1278q0 -106 46.5 -189t131 -130t194.5 -47q111 0 194.5 47t130.5 130t47 189v1278z" />
    <glyph glyph-name="uni0245" unicode="&#x245;" horiz-adv-x="2186" 
d="M1518 0l-446 1556l-72 492h354l706 -2048h-542zM1113 1556l-447 -1556h-543l705 2048h354z" />
    <glyph glyph-name="uni0246" unicode="&#x246;" horiz-adv-x="1738" 
d="M1412 2308l-740 -2568h-228l740 2568h228zM155 0v2048h1428v-402h-933v-420h860v-403h-860v-421h933v-402h-1428z" />
    <glyph glyph-name="uni0247" unicode="&#x247;" horiz-adv-x="1710" 
d="M1411 2048l-853 -2624h-262l850 2624h265zM873 -29q-241 0 -415.5 95.5t-268 273t-93.5 422.5q0 238 94 416.5t265 278t403 99.5q164 0 300 -51t235 -151t154 -246.5t55 -335.5v-122h-1335v284h880q-1 78 -37 139t-98.5 95.5t-143.5 34.5q-82 0 -147 -36.5t-103 -99
t-40 -141.5v-289q0 -94 37 -164.5t105 -109.5t162 -39q65 0 118 18t91 53t57 86l449 -13q-28 -151 -122.5 -262.5t-247.5 -173t-354 -61.5z" />
    <glyph glyph-name="uni0248" unicode="&#x248;" horiz-adv-x="1630" 
d="M987 2048h488v-1416q-1 -199 -95 -347.5t-259.5 -230.5t-382.5 -82q-192 0 -348.5 67t-249 208t-91.5 361h493q3 -79 30.5 -134.5t76.5 -83.5t117 -28q71 0 120 30.5t74.5 90.5t26.5 149v1416zM706 1089v273h1037v-273h-1037z" />
    <glyph glyph-name="uni0249" unicode="&#x249;" horiz-adv-x="799" 
d="M155 1536h489v-1600q0 -190 -77.5 -302t-218.5 -161t-333 -49q-26 0 -49 1t-50 2v371q18 -2 32 -3t28 -1q101 0 140 37.5t39 114.5v1590zM-121 806v274h1037v-274h-1037zM400 1715q-104 0 -178 68.5t-74 165.5q0 96 74 164.5t177 68.5q104 0 177.5 -68.5t73.5 -164.5
q0 -97 -73.5 -165.5t-176.5 -68.5z" />
    <glyph glyph-name="uni024A" unicode="&#x24a;" horiz-adv-x="2382" 
d="M2056 2048v-2119q0 -79 66 -105t145 -26q28 0 56.5 2.5t58.5 5.5v-367q-42 -4 -103 -9.5t-145 -5.5q-118 0 -220.5 21t-180.5 76t-122 154t-44 254v366h-16q-74 -135 -215.5 -229.5t-347.5 -94.5q-186 0 -342 81t-271 225t-178.5 336t-63.5 413q0 220 64.5 411
t180.5 334.5t272 224t338 80.5q208 0 348.5 -94.5t214.5 -227.5h18v294h487zM1103 406q156 0 259 74t154.5 212.5t51.5 332.5q0 192 -52 330.5t-155.5 213.5t-256.5 75q-148 0 -252 -74t-158.5 -212t-54.5 -333q0 -198 55 -336.5t158.5 -210.5t250.5 -72z" />
    <glyph glyph-name="uni024B" unicode="&#x24b;" horiz-adv-x="1973" 
d="M1725 -576q-118 0 -220.5 21t-180.5 76t-122 154t-44 254v109h489v-109q0 -53 31.5 -81.5t80 -39t99.5 -10.5q29 0 57 2.5t58 5.5v-367q-39 -4 -103 -9.5t-145 -5.5zM716 -22q-170 0 -309 88t-222 264t-83 437q0 271 86 446t225.5 259t300.5 84q91 0 162 -24t124 -64.5
t90 -91t58 -103.5h206v-1024h-206q-31 -71 -88 -133t-142.5 -100t-201.5 -38zM1647 38h-489v310l116 417l-111 432v339h484v-1498zM886 359q89 0 152 50.5t97 142.5t34 216q0 126 -33.5 217t-97 140t-152.5 49q-91 0 -154 -50t-95.5 -141t-32.5 -215t33 -216t95.5 -142.5
t153.5 -50.5z" />
    <glyph glyph-name="uni024C" unicode="&#x24c;" horiz-adv-x="1930" 
d="M502 739h-483v359h483v-359zM208 0v2048h846q230 0 397.5 -82.5t258.5 -236t91 -363.5q0 -213 -93 -361.5t-264 -226t-406 -77.5h-534v390h443q111 0 187 29.5t115 90t39 155.5t-39 157.5t-115 94t-188 31.5h-244v-1649h-494zM1361 936l510 -936h-541l-499 936h530z" />
    <glyph glyph-name="uni024D" unicode="&#x24d;" horiz-adv-x="1186" 
d="M155 0v1536h475v-280h16q42 152 137 226.5t221 74.5q34 0 70 -4.5t67 -13.5v-425q-35 12 -91.5 19t-100.5 7q-87 0 -156.5 -38.5t-109 -107t-39.5 -160.5v-834h-489zM-120 609v273h1037v-273h-1037z" />
    <glyph glyph-name="uni024E" unicode="&#x24e;" horiz-adv-x="2098" 
d="M2067 1618v-240h-2037v240h2037zM53 2048h553l433 -857h18l433 857h553l-749 -1364v-684h-492v684z" />
    <glyph glyph-name="uni024F" unicode="&#x24f;" horiz-adv-x="1699" 
d="M1663 1016v-226h-1629v226h1629zM474 -576q-88 0 -166.5 13.5t-133.5 35.5l108 355q71 -24 129.5 -28t101 18.5t65.5 79.5l19 46l-546 1592h512l283 -1096h16l287 1096h515l-578 -1683q-43 -126 -119.5 -222.5t-197 -151.5t-295.5 -55z" />
    <glyph glyph-name="uni0250" unicode="&#x250;" horiz-adv-x="1649" 
d="M1061 1562q147 0 261 -49.5t179 -150t65 -252.5q0 -128 -45 -216t-124 -143t-182 -83.5t-220 -38.5q-131 -11 -211.5 -25t-116.5 -39.5t-36 -72.5v-5q0 -77 53 -119t143 -42q97 0 156 42t75 116l451 -16q-19 -140 -103.5 -250.5t-230 -174t-353.5 -63.5
q-146 0 -270.5 34.5t-216 100t-142.5 161t-51 216.5v1044h460v-214h12q43 78 106 132t148.5 81t192.5 27zM910 1242q-78 0 -142 -32t-102 -88.5t-38 -131.5v-146q21 11 50.5 20t64.5 17t72 14.5t71 10.5q69 11 117.5 34t73.5 60t25 86q0 77 -53.5 116.5t-138.5 39.5z" />
    <glyph glyph-name="uni0251" unicode="&#x251;" horiz-adv-x="1846" 
d="M774 -32q-194 1 -346 103t-239 282t-87 415t91 412t244 276.5t340 99.5q119 0 220.5 -41t176.5 -117.5t116 -181.5h140l129 -444l184 -772h-364l-172 772q-15 77 -41 149t-66.5 129.5t-97.5 90.5t-132 33q-95 0 -160.5 -51.5t-100 -141.5t-34.5 -207q0 -121 35.5 -214.5
t99.5 -147t147 -53.5q70 0 128 36t102.5 95.5t75 131t44.5 142.5l159 772h357l-164 -772l-129 -427h-137q-38 -104 -107 -187.5t-171.5 -132.5t-240.5 -49z" />
    <glyph glyph-name="uni0252" unicode="&#x252;" horiz-adv-x="1926" 
d="M1742 779v-39q0 -223 -67.5 -397t-196 -274t-310.5 -100q-134 0 -229.5 60.5t-159.5 167.5t-103.5 250t-61.5 307v41q29 219 90.5 391t173.5 271t294 99q180 0 308 -96t195.5 -271t66.5 -410zM1271 740v39q0 109 -19 200.5t-73 147t-159 55.5q-99 0 -156.5 -40.5
t-83.5 -118t-32 -188.5v-124q4 -109 31 -191t85 -128t158 -46q91 0 146 52t79.5 141.5t23.5 200.5zM756 0h-411v1004q0 89 -22.5 133t-78.5 44q-6 0 -10 -2t-14 -2l-32 350q44 16 88 22.5t91 6.5q210 0 329.5 -138t119.5 -411v-693z" />
    <glyph glyph-name="uni0253" unicode="&#x253;" horiz-adv-x="1802" 
d="M1086 -22q-116 0 -201 38t-142.5 100t-88.5 133h-15v-249h-484v1571q0 169 52 270t138 151.5t189.5 67t206.5 16.5q86 0 143.5 -5.5t101.5 -9.5v-367q-30 3 -56.5 5.5t-55.5 2.5q-52 0 -105.5 -10.5t-89 -39t-35.5 -81.5v-298h10q30 70 85.5 135t142 106.5t207.5 41.5
q160 0 299.5 -84t225.5 -259t86 -446q0 -261 -82.5 -437t-222 -264t-309.5 -88zM917 359q90 0 153 50.5t95.5 142.5t32.5 216t-32.5 215t-95 141t-153.5 50q-90 0 -153 -49t-96.5 -140t-33.5 -217q0 -124 33.5 -216t97 -142.5t152.5 -50.5z" />
    <glyph glyph-name="uni0254" unicode="&#x254;" horiz-adv-x="1651" 
d="M138 539h439q1 -62 28 -104t77.5 -64t120.5 -22q109 0 160 54.5t66 144.5t14 197v34q0 93 -14 186t-64.5 155t-162.5 62q-116 0 -170 -72.5t-55 -197.5h-439q0 213 83.5 356.5t231.5 215.5t339 72q239 0 399 -100t241.5 -275.5t81.5 -401.5v-34q0 -225 -81.5 -399.5
t-242.5 -274t-399 -99.5q-186 0 -334 70t-233.5 197t-85.5 300z" />
    <glyph glyph-name="uni0255" unicode="&#x255;" horiz-adv-x="1694" 
d="M885 -29q-241 0 -417 97.5t-271 276t-95 420.5q0 235 93.5 413t267 278t415.5 100q213 0 371.5 -77t247.5 -217.5t94 -329.5h-457q-15 117 -79.5 184.5t-169.5 67.5q-85 0 -149 -47.5t-99.5 -140t-35.5 -228.5t35 -232.5t99 -147.5t150 -51v-366zM502 -164l-308 198
q100 148 189 270t174.5 217.5t175 161.5t189.5 100.5t218 34.5q132 0 233.5 -42t159 -122t57.5 -196q1 -130 -75.5 -240.5t-233 -178.5t-396.5 -68v366q139 0 209.5 29.5t73.5 76.5q2 32 -18.5 49.5t-48.5 17.5q-37 0 -77.5 -21t-90 -68t-111 -125t-140.5 -191.5
t-180 -268.5z" />
    <glyph glyph-name="uni0256" unicode="&#x256;" horiz-adv-x="1802" 
d="M1725 -576q-118 0 -220 21t-179.5 76t-120.5 154t-43 254v401h485v-401q0 -53 31.5 -81.5t80.5 -39t99 -10.5q29 0 57.5 2.5t57.5 5.5v-367q-38 -4 -102 -9.5t-146 -5.5zM716 -22q-170 0 -309 88t-222 264t-83 437q0 271 86 446t225.5 259t300.5 84q121 0 207 -41.5
t142 -106.5t85 -135h10v775h489v-2048h-484v249h-15q-31 -71 -88 -133t-142.5 -100t-201.5 -38zM886 359q89 0 152 50.5t97 142.5t34 216q0 126 -33.5 217t-97 140t-152.5 49q-91 0 -154 -50t-95.5 -141t-32.5 -215t33 -216t95.5 -142.5t153.5 -50.5z" />
    <glyph glyph-name="uni0257" unicode="&#x257;" horiz-adv-x="1886" 
d="M716 -22q-170 0 -309 88t-222 264t-83 437q0 271 86 446t225.5 259t300.5 84q121 0 207 -41.5t142 -106.5t85 -135h206v-1024h-206q-31 -71 -87.5 -133t-141.5 -100t-203 -38zM1158 1557q0 171 58 274.5t150 156.5t196.5 71t198.5 18q74 0 141 -8t104 -15v-364
q-35 6 -61 9t-51 3q-41 0 -99.5 -4.5t-103 -34t-44.5 -106.5v-1557h-484v371l175 368l-180 449v369zM886 359q89 0 152 50.5t97 142.5t34 216q0 126 -33.5 217t-97 140t-152.5 49q-91 0 -154 -50t-95.5 -141t-32.5 -215t33 -216t95.5 -142.5t153.5 -50.5z" />
    <glyph glyph-name="uni0258" unicode="&#x258;" horiz-adv-x="1648" 
d="M759 -28q-147 0 -266.5 36t-207.5 95.5t-142 128.5l219 262q72 -82 166.5 -113.5t182.5 -31.5q116 0 197.5 42.5t124.5 124t42 199.5v53q0 65 -9 137t-37 135t-83 102.5t-146 39.5q-70 0 -123.5 -27.5t-84 -83.5t-32.5 -141v-20h800v-297h-1255v197q0 236 84.5 403
t240 255t368.5 88q249 0 415 -106t249.5 -284.5t83.5 -397.5v-53q0 -152 -53 -287t-155 -237t-248 -160.5t-331 -58.5z" />
    <glyph glyph-name="uni0259" unicode="&#x259;" horiz-adv-x="1698" 
d="M825 1565q241 0 415 -95.5t268 -272.5t94 -423q0 -238 -94.5 -416.5t-265.5 -278t-403 -99.5q-163 0 -299 51t-235.5 151t-154 246.5t-54.5 335.5v122h1334v-284h-880q2 -78 38 -139t99 -95.5t143 -34.5q82 0 147 36.5t103 99.5t39 141v289q0 94 -37 164.5t-105 109.5
t-162 39q-63 0 -116.5 -18t-92 -53t-56.5 -86l-449 13q28 151 122.5 262.5t247 173t354.5 61.5z" />
    <glyph glyph-name="uni025A" unicode="&#x25a;" horiz-adv-x="2477" 
d="M830 1516q249 0 425 -101t268.5 -266t93.5 -359v-50q-1 -212 -84.5 -386.5t-248 -278t-406.5 -103.5q-220 0 -376.5 89t-238.5 252t-81 386v79l1260 299v-308l-805 -183v-24q-1 -66 24 -114t79 -73.5t142 -25.5q87 0 140 38t81 98t38 128t11 127v50q-1 108 -45 186.5
t-123 122t-186 43.5q-109 0 -204.5 -34.5t-160.5 -113.5l-213 265q44 61 129.5 120t206.5 98t274 39zM1450 770v304l496 113q25 -151 41.5 -254t52 -156t116.5 -53q21 0 41.5 1.5t42.5 2.5l58 -290q-54 -30 -115 -46.5t-125 -16.5q-140 0 -216 60t-114 161.5t-64 225.5z" />
    </font>
</defs>
</svg>
