<?xml version="1.0" standalone="no"?>
<!DOCTYPE svg PUBLIC "-//W3C//DTD SVG 1.1//EN" "http://www.w3.org/Graphics/SVG/1.1/DTD/svg11.dtd" >
<svg xmlns="http://www.w3.org/2000/svg">
<metadata>Generated by IcoMoon</metadata>
<defs>
<font id="themify" horiz-adv-x="1024">
<font-face units-per-em="1024" ascent="860.16" descent="-163.84" />
<missing-glyph horiz-adv-x="1024" />
<glyph unicode="&#x20;" horiz-adv-x="512" d="" />
<glyph unicode="&#xe600;" glyph-name="wand" d="M1024 562.824h-198.355l140.228-140.228-42.586-42.586-140.228 140.228v-198.355h-60.235v197.933l-641.265-642.409-42.586 42.586 641.687 642.831h-198.776v60.235h198.355l-140.228 140.228 42.586 42.586 140.228-140.228v198.355h60.235v-198.596l137.758 137.999 42.586-42.586-137.517-137.758h198.114v-60.235z" />
<glyph unicode="&#xe601;" glyph-name="volume" d="M216.064 506.624c-57.585 0-93.365-30.118-93.365-78.667v-130.168c0-24.998 9.698-48.429 27.287-66.138 17.589-17.649 41.080-27.407 66.078-27.407h104.99l342.498-342.618v989.606l-339.125-344.606h-108.363zM603.317 704.136v-697.043l-257.325 257.385h-129.988c-18.251 0-33.069 14.938-33.069 33.31v130.168c0 5.481 0 18.432 33.129 18.432h133.542l253.711 257.747zM723.125 202.195v60.235c33.491 0 60.717 27.226 60.717 60.717s-27.226 60.717-60.717 60.717v60.235c66.68 0 120.952-54.272 120.952-120.952s-54.272-120.952-120.952-120.952zM965.512 322.665c0-132.879-108.062-240.941-240.941-240.941v60.235c99.629 0 180.706 81.077 180.706 180.706s-81.077 180.706-180.706 180.706v60.235c132.819 0 240.941-108.122 240.941-240.941z" />
<glyph unicode="&#xe602;" glyph-name="user" d="M1024-129.16c-3.795 161.852-167.334 301.116-392.794 337.86v82.763c29.636 28.491 50.718 72.704 64.512 110.411 19.998 9.999 37.587 32.286 47.827 62.223 14.336 41.442 8.794 79.691-12.408 98.123 1.687 14.336 2.771 28.973 0.904 43.55-4.759 39.936 3.915 62.524 11.686 82.402 6.385 16.685 13.794 35.599 6.385 56.922-26.624 76.68-104.026 118.904-217.931 118.904l-15.902-0.301c-79.089-2.831-102.822-36.141-118.724-67.162-1.988-3.735-4.638-8.794-4.638-9.096-103.123-9.216-102.219-94.509-101.436-163.057l0.181-22.227c0-12.348 0.542-25.239 1.566-38.49-25.6-18.071-30.359-60.536-10.782-104.629 11.144-24.998 27.226-43.912 45.116-53.73 14.637-40.599 37.647-88.546 71.017-118.362v-77.282c-228.774-35.479-394.782-175.104-398.577-338.824l-0.723-30.84h1025.385l-0.663 30.84zM63.488-99.765c23.612 126.133 172.213 230.159 368.76 253.229l26.564 3.132v160.587l-13.011 9.035c-23.672 16.384-47.646 57.043-65.656 111.496l-5 16.926-17.709 3.072c-3.192 1.144-12.529 9.216-19.878 25.781-4.518 10.12-6.264 18.793-6.746 24.998l30.72-8.614-5.783 45.116c-2.53 19.878-3.855 39.213-3.855 57.224l-0.181 22.889c-0.904 80.776 3.072 98.424 46.562 102.34 32.828 2.891 45.297 27.046 52.766 41.502 9.035 17.589 16.866 32.708 67.464 34.575l13.673 0.241c49.935 0 137.276-10.18 160.768-77.222 0-2.59-3.132-10.662-5.421-16.565-8.734-22.528-21.926-56.561-15.3-111.616 1.446-11.324-0.422-25.54-2.409-40.659l-5.361-48.489 26.564 2.891c0.482-6.264-0.241-16.203-4.518-28.431-5.843-17.408-14.577-26.383-14.276-27.347h-21.685l-6.867-20.6c-17.047-51.381-39.153-90.172-60.777-106.496l-11.927-9.035v-164.201l26.383-3.313c193.416-24.154 339.787-127.88 363.219-252.506h-897.084z" />
<glyph unicode="&#xe603;" glyph-name="unlock" d="M572.235 203.098c0-22.046-12.469-40.478-30.118-50.959v-129.747h-60.235v129.687c-17.709 10.481-30.118 28.913-30.118 51.019 0 33.25 26.925 60.235 60.235 60.235 33.19 0 60.235-26.925 60.235-60.235zM903.168 354.409v-426.466c0-49.815-40.538-90.353-90.353-90.353h-601.63c-49.815 0-90.353 40.538-90.353 90.353v426.466c0 49.815 40.538 90.353 90.353 90.353h541.756v119.748c0 132.879-108.062 240.941-240.941 240.941s-240.941-108.062-240.941-240.941h-60.235c0 166.069 135.108 301.176 301.176 301.176s301.176-135.108 301.176-301.176v-119.748c49.634-0.241 89.992-40.659 89.992-90.353zM842.933 354.409c0 16.625-13.553 30.118-30.118 30.118h-601.63c-16.565 0-30.118-13.493-30.118-30.118v-426.466c0-16.625 13.553-30.118 30.118-30.118h601.63c16.565 0 30.118 13.493 30.118 30.118v426.466z" />
<glyph unicode="&#xe604;" glyph-name="unlink" d="M128.542 554.451l84.45 155.829c65.416 99.268 196.488 126.193 293.406 61.982l-33.19-50.176c-69.21 45.719-162.816 26.504-208.655-42.707l-84.45-155.829c-47.044-71.56-27.949-165.165 41.382-210.884 68.849-45.297 145.167-32.949 199.56 32.407l46.261-38.611c-44.695-53.73-102.039-81.438-161.31-81.438-39.454 0-79.691 12.288-117.7 37.346-96.979 64.090-123.844 195.102-59.753 292.081zM243.411 380.070l-7.831-7.77 42.466-42.707 7.891 7.831c58.729 58.729 154.263 58.729 212.932 0s58.729-154.263 0-212.932l-182.091-182.152c-58.729-58.729-154.263-58.729-212.932 0s-58.729 154.263 0 212.932l63.729 63.789-42.586 42.586-63.729-63.849c-82.161-82.161-82.161-215.944 0-298.104 41.141-41.141 95.051-61.621 149.082-61.621s107.942 20.54 149.082 61.621l182.091 182.152c82.161 82.161 82.161 215.944 0 298.104-82.342 82.342-216.064 82.161-298.104 0.12zM660.36 442.353h245.399v60.235h-245.399v-60.235zM632.169 361.216l117.519-67.885 30.118 52.104-117.519 67.885-30.118-52.104zM647.529 794.368l-95.172-164.864 52.104-30.118 95.172 164.804-52.104 30.178zM955.753 699.859l-30.118 52.104-300.695-173.598 30.118-52.104 300.695 173.598z" />
<glyph unicode="&#xe605;" glyph-name="trash" d="M658.673 742.566c-13.131 52.344-60.175 91.317-116.555 91.317-56.139 0-103.002-38.731-116.314-91.317h-214.98v-60.235h662.588v60.235h-214.739zM542.118 773.647c23.010 0 42.466-13.312 52.706-31.081h-104.388c10.36 18.251 29.214 31.081 51.682 31.081zM783.059 623.059h60.235v-633.434c0-49.815-40.538-90.353-90.353-90.353h-421.647c-49.815 0-90.353 40.538-90.353 90.353v633.434h60.235v-633.434c0-16.565 13.493-30.118 30.118-30.118h421.647c16.625 0 30.118 13.553 30.118 30.118v633.434zM481.882 562.824v-481.882h-60.235v481.882h60.235zM662.588 562.824v-481.882h-60.235v481.882h60.235z" />
<glyph unicode="&#xe606;" glyph-name="thought" d="M692.706 254.66c182.694 0 331.294 136.674 331.294 304.67s-148.6 304.67-331.294 304.67c-115.17 0-222.449-56.501-282.142-146.432-42.466 24.034-90.112 36.623-139.505 36.623-149.444 0-271.059-112.038-271.059-249.796 0-137.698 121.615-249.736 271.059-249.736 11.204 0 22.588 0.783 34.515 2.229 39.273-35.418 91.678-55.477 146.191-55.477 60.356 0 116.194 23.311 156.13 64.452 29.395-7.529 57.284-11.204 84.811-11.204zM586.993 334.833l-12.77-16.143c-28.371-35.72-74.15-57.043-122.458-57.043-43.61 0-85.173 17.468-114.146 48.008l-11.083 11.625-15.902-2.771c-12.89-2.229-25.961-3.614-39.575-3.614-116.254 0-210.824 84.992-210.824 189.44 0 104.508 94.569 189.56 210.824 189.56 47.706 0 93.304-14.818 131.855-42.948l28.431-20.661 16.083 31.322c44.454 86.317 140.71 142.155 245.278 142.155 149.444 0 271.059-109.628 271.059-244.495 0-134.746-121.615-244.435-271.059-244.435-27.287 0-55.477 4.518-86.076 13.914l-19.637 6.084zM692.706 231.529c-66.44 0-120.471-54.031-120.471-120.471s54.031-120.471 120.471-120.471 120.471 54.031 120.471 120.471-54.031 120.471-120.471 120.471zM692.706 50.824c-33.19 0-60.235 26.985-60.235 60.235s27.046 60.235 60.235 60.235 60.235-26.985 60.235-60.235-27.046-60.235-60.235-60.235zM918.588 20.706c-41.502 0-75.294-33.792-75.294-75.294s33.792-75.294 75.294-75.294 75.294 33.792 75.294 75.294-33.792 75.294-75.294 75.294zM903.529-54.588c0 8.312 6.746 15.059 15.059 15.059s15.059-6.746 15.059-15.059c0-16.565-30.118-16.565-30.118 0z" />
<glyph unicode="&#xe607;" glyph-name="target" d="M1025.205 382.118h-123.181c-14.758 192.392-169.020 346.052-361.653 360.026v124.205h-60.235v-124.386c-191.066-15.541-343.462-168.599-358.159-359.846h-123.181v-60.235h123.181c14.697-191.247 167.093-344.305 358.099-359.846v-122.037h60.235v121.856c192.632 13.914 346.895 167.575 361.653 360.026h123.181v60.235zM540.371 22.091v119.085h-60.235v-118.904c-157.877 15.179-283.588 141.553-297.924 299.61h117.76v60.235h-117.76c14.336 158.057 140.047 284.431 297.924 299.61v-116.555h60.235v116.736c159.443-13.673 286.961-140.529 301.417-299.791h-117.76v-60.235h117.76c-14.456-159.262-141.975-286.118-301.417-299.791z" />
<glyph unicode="&#xe608;" glyph-name="tag" d="M539.287 803.283l-238.953-173.598v-731.256l240.098 168.297 243.411-167.755v730.955l-244.555 173.357zM723.667 13.658l-183.416 126.494-179.622-125.952v584.824l179.2 130.168 183.898-130.409v-585.126zM436.947 502.528c0-58.127 47.285-105.412 105.412-105.412s105.412 47.285 105.412 105.412-47.285 105.412-105.412 105.412-105.412-47.285-105.412-105.412zM542.359 547.704c24.877 0 45.176-20.299 45.176-45.176s-20.299-45.176-45.176-45.176-45.176 20.299-45.176 45.176 20.299 45.176 45.176 45.176z" />
<glyph unicode="&#xe609;" glyph-name="tablet" d="M557.176-9.412c0-24.998-20.179-45.176-45.176-45.176s-45.176 20.179-45.176 45.176 20.179 45.176 45.176 45.176 45.176-20.179 45.176-45.176zM963.765 773.647v-843.294c0-49.815-37.647-90.353-83.848-90.353h-735.834c-46.2 0-83.848 40.538-83.848 90.353v843.294c0 49.815 37.647 90.353 83.848 90.353h735.895c46.14 0 83.787-40.538 83.787-90.353zM903.529 773.647c0 16.324-10.782 30.118-23.612 30.118h-735.834c-12.83 0-23.612-13.794-23.612-30.118v-843.294c0-16.324 10.782-30.118 23.612-30.118h735.895c12.77 0 23.552 13.794 23.552 30.118v843.294zM180.706 743.529h662.588v-662.588h-662.588v662.588zM240.941 141.176h542.118v542.118h-542.118v-542.118z" />
<glyph unicode="&#xe60a;" glyph-name="star" d="M1002.737 441.329h-374.965l-115.772 356.593-115.832-356.593h-374.904l303.285-220.341-115.772-356.593 303.224 220.401 303.285-220.401-115.772 356.593 303.224 220.341zM700.717 22.091l-188.717 137.216-188.717-137.156 72.102 221.967-188.717 136.975h233.291l72.041 221.907 72.041-221.907h233.291l-188.717-137.035 72.102-221.967z" />
<glyph unicode="&#xe60b;" glyph-name="spray" d="M391.529 683.294c-85.896 0-165.165-46.863-207.992-120.471h-63.066v-632.471c0-49.815 40.538-90.353 90.353-90.353h361.412c49.815 0 90.353 40.538 90.353 90.353v632.471h-63.066c-42.827 73.547-122.217 120.471-207.992 120.471zM391.529 623.059c51.742 0 100.713-22.648 134.566-60.235h-269.071c33.792 37.587 82.703 60.235 134.505 60.235zM602.353-69.647c0-16.565-13.493-30.118-30.118-30.118h-361.412c-16.625 0-30.118 13.553-30.118 30.118v572.235h421.647v-572.235zM481.882 864h-180.706v-180.706h180.706v180.706zM421.647 743.529h-60.235v60.235h60.235v-60.235zM719.511 772.984l188.898-31.202-9.818-59.392-361.412 59.633 5.12 30.961-5.12 30.961 361.412 59.633 9.818-59.392-188.898-31.202z" />
<glyph unicode="&#xe60c;" glyph-name="signal" d="M692.706 623.059c0 99.629-81.077 180.706-180.706 180.706s-180.706-81.077-180.706-180.706c0-89.329 65.295-163.238 150.588-177.634v-484.954h-120.471v-60.235h301.176v60.235h-120.471v484.954c85.293 14.396 150.588 88.305 150.588 177.634zM391.529 623.059c0 66.44 54.031 120.471 120.471 120.471s120.471-54.031 120.471-120.471-54.031-120.471-120.471-120.471-120.471 54.031-120.471 120.471zM271.3 731.964c-22.769-27.708-34.756-60.476-34.756-94.81s11.987-67.102 34.756-94.81l-46.622-38.31c-31.624 38.611-48.369 84.631-48.369 133.060s16.745 94.509 48.369 133.060l46.622-38.189zM120.471 637.094c0-64.994 23.311-126.253 67.403-176.971l-45.417-39.514c-53.067 60.958-82.221 137.939-82.221 216.486s29.154 155.528 82.221 216.546l45.417-39.514c-44.092-50.778-67.403-112.038-67.403-177.032zM847.691 637.094c0-48.489-16.745-94.449-48.429-133.060l-46.562 38.249c22.769 27.708 34.756 60.476 34.756 94.81s-11.987 67.102-34.756 94.81l46.562 38.249c31.684-38.551 48.429-84.57 48.429-133.060zM963.765 637.094c0-78.607-29.154-155.528-82.221-216.546l-45.417 39.514c44.092 50.839 67.403 112.038 67.403 177.032s-23.311 126.253-67.403 176.971l45.417 39.514c53.067-60.958 82.221-137.879 82.221-216.486z" />
<glyph unicode="&#xe60d;" glyph-name="shopping-cart" d="M165.647 111.059c-58.127 0-105.412-47.285-105.412-105.412s47.285-105.412 105.412-105.412 105.412 47.285 105.412 105.412-47.285 105.412-105.412 105.412zM165.647-39.529c-24.937 0-45.176 20.299-45.176 45.176s20.239 45.176 45.176 45.176 45.176-20.299 45.176-45.176-20.239-45.176-45.176-45.176zM677.647 111.059c-58.127 0-105.412-47.285-105.412-105.412s47.285-105.412 105.412-105.412 105.412 47.285 105.412 105.412-47.285 105.412-105.412 105.412zM677.647-39.529c-24.937 0-45.176 20.299-45.176 45.176s20.239 45.176 45.176 45.176 45.176-20.299 45.176-45.176-20.239-45.176-45.176-45.176zM805.406 743.529l-18.191-120.471h-791.672l67.343-484.051h717.583l62.524 449.536 14.216 94.75h166.792v60.235h-218.594zM778.601 562.824l-8.373-60.235h-697.163l-8.373 60.235h713.909zM115.29 199.243l-33.792 243.11h680.358l-33.792-243.11h-612.774z" />
<glyph unicode="&#xe60e;" glyph-name="shopping-cart-full" d="M165.647 111.059c-58.127 0-105.412-47.285-105.412-105.412s47.285-105.412 105.412-105.412 105.412 47.285 105.412 105.412-47.285 105.412-105.412 105.412zM165.647-39.529c-24.877 0-45.176 20.299-45.176 45.176s20.299 45.176 45.176 45.176 45.176-20.299 45.176-45.176-20.299-45.176-45.176-45.176zM677.647 111.059c-58.127 0-105.412-47.285-105.412-105.412s47.285-105.412 105.412-105.412 105.412 47.285 105.412 105.412-47.285 105.412-105.412 105.412zM677.647-39.529c-24.877 0-45.176 20.299-45.176 45.176s20.299 45.176 45.176 45.176 45.176-20.299 45.176-45.176-20.299-45.176-45.176-45.176zM805.346 743.529l-18.131-120.471h-791.672l67.283-484.051h717.643l62.825 451.765 13.914 92.521h166.792v60.235h-218.654zM728.004 199.243h-612.713l-50.598 363.58h713.909l-50.598-363.58zM662.588 261.647h-481.882v239.074h60.235v-178.839h361.412v178.899h60.235v-239.134zM240.941 685.161h-60.235v118.603h481.882v-114.808h-60.235v54.573h-361.412v-58.368z" />
<glyph unicode="&#xe60f;" glyph-name="settings" d="M512 504.275c-83.004 0-150.588-67.584-150.588-150.588s67.584-150.588 150.588-150.588 150.588 67.584 150.588 150.588-67.584 150.588-150.588 150.588zM512 263.334c-49.815 0-90.353 40.538-90.353 90.353s40.538 90.353 90.353 90.353 90.353-40.538 90.353-90.353-40.538-90.353-90.353-90.353zM1020.386 295.017c2.229 19.336 3.614 38.852 3.614 58.669s-1.385 39.334-3.614 58.669l-155.889 46.863c-7.168 24.215-16.745 47.405-28.552 69.21l77.041 143.179c-24.456 30.72-52.344 58.609-83.125 83.125l-143.179-77.101c-21.865 11.806-45.056 21.323-69.271 28.552l-46.743 155.889c-19.275 2.229-38.792 3.614-58.669 3.614s-39.394-1.385-58.669-3.614l-46.743-155.889c-24.275-7.168-47.526-16.745-69.271-28.612l-143.179 77.101c-30.78-24.456-58.669-52.344-83.064-83.125l77.041-143.059c-11.806-21.805-21.323-45.056-28.552-69.271l-155.949-46.863c-2.229-19.275-3.614-38.792-3.614-58.669s1.385-39.394 3.614-58.669l155.889-46.743c7.228-24.275 16.745-47.526 28.552-69.331l-77.041-143.119c24.456-30.78 52.344-58.669 83.125-83.125l143.179 77.041c21.805-11.806 45.056-21.323 69.271-28.552l46.743-155.889c19.336-2.229 38.852-3.614 58.669-3.614s39.394 1.385 58.669 3.614l46.743 155.889c24.215 7.228 47.465 16.745 69.271 28.552l143.119-77.041c30.78 24.516 58.669 52.405 83.125 83.185l-76.981 143.119c11.806 21.805 21.323 45.056 28.552 69.271l155.889 46.743zM816.068 296.644l-9.276-31.202c-6.024-20.299-14.035-39.755-23.853-57.766l-15.42-28.612 15.36-28.612 57.344-106.616c-5.963-6.325-12.107-12.469-18.432-18.432l-135.108 72.824-28.612-15.42c-18.131-9.818-37.587-17.769-57.826-23.853l-31.202-9.276-9.336-31.202-34.876-116.375c-4.337-0.12-8.614-0.181-12.83-0.181s-8.493 0.060-12.83 0.181l-34.876 116.375-9.336 31.202-31.202 9.276c-20.239 6.024-39.695 14.035-57.766 23.853l-28.612 15.42-135.228-72.704c-6.264 5.963-12.469 12.107-18.432 18.432l72.764 135.168-15.42 28.612c-9.758 18.071-17.769 37.527-23.853 57.826l-9.216 31.142-147.516 44.213c-0.181 4.337-0.241 8.614-0.241 12.77 0 4.216 0.060 8.493 0.241 12.83l147.456 44.213 9.276 31.202c6.024 20.299 14.035 39.755 23.853 57.766l15.42 28.612-72.764 135.228c5.963 6.264 12.107 12.469 18.372 18.432l135.349-72.885 28.672 15.601c17.89 9.758 37.286 17.769 57.585 23.793l31.202 9.276 9.336 31.202 34.876 116.375c4.397 0.060 8.674 0.12 12.89 0.12s8.493-0.060 12.83-0.181l34.876-116.375 9.336-31.202 31.202-9.276c20.179-6.024 39.695-14.035 57.826-23.853l28.612-15.36 135.168 72.764c6.264-5.963 12.469-12.107 18.432-18.432l-57.404-106.616-15.36-28.612 15.48-28.612c9.818-18.071 17.769-37.466 23.793-57.645l9.276-31.202 31.202-9.336 116.375-34.997c0.060-4.337 0.12-8.614 0.12-12.83s-0.060-8.493-0.241-12.83l-147.456-44.213z" />
<glyph unicode="&#xe610;" glyph-name="search" d="M1000.147-91.814l-311.597 311.597c58.729 68.488 94.509 157.274 94.509 254.374 0 215.883-175.646 391.529-391.529 391.529-104.568 0-202.933-40.719-276.962-114.628-73.909-73.969-114.628-172.333-114.568-276.902 0-215.883 175.646-391.529 391.529-391.529 97.099 0 185.946 35.78 254.434 94.509l311.597-311.597 42.586 42.647zM391.529 142.863c-182.633 0-331.294 148.6-331.294 331.294-0.060 88.546 34.394 171.731 96.979 234.255 62.524 62.584 145.769 97.039 234.315 97.039 182.633 0 331.294-148.6 331.294-331.294 0-182.633-148.661-331.294-331.294-331.294z" />
<glyph unicode="&#xe611;" glyph-name="zoom-in" d="M1000.147-93.5l-311.597 311.597c58.729 68.488 94.509 157.214 94.509 254.374 0 215.883-175.646 391.529-391.529 391.529-104.629 0-202.933-40.719-276.902-114.688-73.969-73.909-114.628-172.273-114.628-276.841 0-215.883 175.646-391.529 391.529-391.529 97.099 0 185.886 35.78 254.434 94.509l311.597-311.597 42.586 42.647zM391.529 141.176c-182.694 0-331.294 148.6-331.294 331.294 0 88.546 34.394 171.731 96.979 234.315 62.584 62.524 145.769 96.979 234.315 96.979 182.694 0 331.294-148.6 331.294-331.294s-148.6-331.294-331.294-331.294zM421.647 502.588h120.471v-60.235h-120.471v-120.471h-60.235v120.471h-120.471v60.235h120.471v120.471h60.235v-120.471z" />
<glyph unicode="&#xe612;" glyph-name="zoom-out" d="M1000.147-91.814l-311.597 311.597c58.729 68.488 94.509 157.274 94.509 254.374 0 215.883-175.646 391.529-391.529 391.529-104.568 0-202.933-40.719-276.962-114.628-73.909-73.969-114.628-172.333-114.568-276.902 0-215.883 175.646-391.529 391.529-391.529 97.099 0 185.946 35.78 254.434 94.509l311.597-311.597 42.586 42.647zM391.529 142.863c-182.633 0-331.294 148.6-331.294 331.294-0.060 88.546 34.394 171.731 96.979 234.255 62.524 62.584 145.769 97.039 234.315 97.039 182.633 0 331.294-148.6 331.294-331.294 0-182.633-148.661-331.294-331.294-331.294zM240.941 504.275h301.176v-60.235h-301.176v60.235z" />
<glyph unicode="&#xe613;" glyph-name="cut" d="M783.059 201.412c-32.828 0-63.187-9.457-89.751-24.817l-139.866 147.817 377.073 398.396-43.791 41.442-374.724-395.987-374.844 395.987-43.731-41.442 377.073-398.396-139.866-147.757c-26.504 15.3-56.922 24.757-89.69 24.757-99.629 0-180.706-81.077-180.706-180.706s81.077-180.706 180.706-180.706 180.706 81.077 180.706 180.706c0 44.996-17.167 85.775-44.454 117.399l134.807 142.456 134.807-142.456c-27.347-31.684-44.454-72.403-44.454-117.399 0-99.629 81.077-180.706 180.706-180.706s180.706 81.077 180.706 180.706-81.077 180.706-180.706 180.706zM240.941-99.765c-66.44 0-120.471 54.031-120.471 120.471s54.031 120.471 120.471 120.471 120.471-54.031 120.471-120.471-54.031-120.471-120.471-120.471zM783.059-99.765c-66.44 0-120.471 54.031-120.471 120.471s54.031 120.471 120.471 120.471 120.471-54.031 120.471-120.471-54.031-120.471-120.471-120.471z" />
<glyph unicode="&#xe614;" glyph-name="ruler" d="M301.176 864v-1024h421.647v1024h-421.647zM662.588-99.765h-301.176v59.272h120.471v60.235h-120.471v61.199h60.235v60.235h-60.235v60.235h120.471v60.235h-120.471v59.272h60.235v60.235h-60.235v60.235h120.471v60.235h-120.471v61.199h60.235v60.235h-60.235v60.235h120.471v60.235h-120.471v60.235h301.176v-903.529z" />
<glyph unicode="&#xe615;" glyph-name="ruler-pencil" d="M270.577 864h-119.507c-49.815 0-90.353-40.538-90.353-90.353v-641.928l151.853-298.526 148.42 298.707v641.747c-0.060 49.815-40.599 90.353-90.413 90.353zM151.070 803.765h119.507c16.565 0 30.118-13.553 30.118-30.118v-61.38h-179.742v61.38c0 16.565 13.493 30.118 30.118 30.118zM120.952 589.929v62.103h179.742v-62.103h-179.742zM237.809 19.441h-52.405l-64.452 126.735v383.518h60.235v-390.385h60.235v390.385h59.272v-383.699l-62.886-126.554zM481.882 864v-1024h421.647v1024h-421.647zM843.294-99.765h-301.176v59.272h120.471v60.235h-120.471v61.199h60.235v60.235h-60.235v60.235h120.471v60.235h-120.471v59.272h60.235v60.235h-60.235v60.235h120.471v60.235h-120.471v61.199h60.235v60.235h-60.235v60.235h120.471v60.235h-120.471v60.235h301.176v-903.529z" />
<glyph unicode="&#xe616;" glyph-name="ruler-alt" d="M724.992 863.096l-724.088-724.088 298.165-298.104 724.028 724.028-298.104 298.165zM86.076 139.008l41.924 41.924 85.173-85.173 42.586 42.586-85.173 85.173 43.309 43.309 42.586-42.586 42.586 42.586-42.586 42.586 42.586 42.586 85.173-85.173 42.586 42.586-85.173 85.173 41.924 41.924 42.586-42.586 42.586 42.586-42.586 42.586 42.586 42.586 85.173-85.173 42.586 42.586-85.173 85.173 43.249 43.249 42.586-42.586 42.586 42.586-42.586 42.586 42.586 42.586 85.233-85.173 42.586 42.586-85.233 85.173 42.647 42.647 212.932-212.992-638.856-638.856-212.992 212.932z" />
<glyph unicode="&#xe617;" glyph-name="bookmark" d="M214.558 803.765v-931.177l282.263 196.969 286.238-196.367v930.575h-568.501zM722.824-12.484l-226.244 155.287-221.726-154.684v755.411h447.97v-756.013z" />
<glyph unicode="&#xe618;" glyph-name="bookmark-alt" d="M603.979 257.19v606.81h-364.664v-606.991l181.971 123.663 182.694-123.482zM299.55 370.793v432.971h244.254v-433.152l-122.699 82.884-121.555-82.703zM963.765 803.343v-903.108h-903.529v903.108h118.904v-60.235h-58.669v-782.637h783.059v782.637h-241.242v60.235h301.478z" />
<glyph unicode="&#xe619;" glyph-name="reload" d="M361.412 382.118h-361.412v361.412h60.235v-247.507c61.018 192.331 243.11 330.33 451.765 330.33 211.185 0 398.818-142.155 456.222-345.69l-58.007-16.324c-50.116 177.694-213.896 301.839-398.216 301.839-194.319-0.060-362.376-137.096-404.058-323.825h253.47v-60.235zM662.588 321.882v-60.235h253.47c-41.743-186.79-209.559-323.765-404.058-323.765-184.44 0-348.16 124.145-398.216 301.839l-58.007-16.324c57.344-203.535 244.977-345.69 456.222-345.69 208.354 0 390.024 137.336 451.765 330.21v-247.447h60.235v361.412h-361.412z" />
<glyph unicode="&#xe61a;" glyph-name="plus" d="M963.765 321.882h-421.647v-421.647h-60.235v421.647h-421.647v60.235h421.647v421.647h60.235v-421.647h421.647v-60.235z" />
<glyph unicode="&#xe61b;" glyph-name="pin" d="M722.824 592.941c0 116.254-94.569 210.824-210.824 210.824s-210.824-94.569-210.824-210.824c0-105.111 77.583-191.849 178.417-207.511v-485.195h60.235v484.713c103.002 13.734 182.995 101.316 182.995 207.992zM512 442.353c-83.064 0-150.588 67.524-150.588 150.588s67.524 150.588 150.588 150.588 150.588-67.524 150.588-150.588-67.524-150.588-150.588-150.588zM602.353 562.824h-60.235c0 33.25-26.985 60.235-60.235 60.235v60.235c66.44 0 120.471-54.031 120.471-120.471z" />
<glyph unicode="&#xe61c;" glyph-name="pencil" d="M935.394 691.908l-84.51 84.57c-34.033 34.093-93.666 34.093-127.819 0l-545.551-545.611-103.725-318.524 316.115 106.315 545.431 545.491c35.298 35.177 35.298 92.521 0.060 127.759zM186.368 63.232l38.852 119.206 116.495-116.555-118.242-39.755-37.105 37.105zM262.325 230.445l330.872 330.872 127.157-127.096-330.933-330.933-127.096 127.157zM635.784 603.964l43.912 43.912 127.157-127.096-43.912-43.912-127.157 127.096zM892.808 606.735l-43.369-43.369-127.157 127.096 43.369 43.43c11.384 11.384 31.202 11.384 42.586 0l84.51-84.57c11.806-11.806 11.806-30.84 0.060-42.586z" />
<glyph unicode="&#xe61d;" glyph-name="pencil-alt" d="M993.822 752.986l-84.51 84.51c-34.093 34.093-93.666 34.093-127.819 0l-453.933-453.933-103.725-318.464 316.175 106.315 453.813 453.813c17.047 17.047 26.443 39.755 26.443 63.91s-9.397 46.803-26.443 63.849zM336.354 215.989l38.43 117.88 115.652-115.592-116.977-39.334-37.105 37.045zM411.528 382.359l240.098 240.098 127.096-127.096-240.098-240.098-127.096 127.096zM694.212 665.043l43.912 43.912 127.096-127.096-43.912-43.912-127.096 127.096zM951.236 667.814l-43.369-43.43-127.096 127.096 43.369 43.43c11.445 11.384 31.262 11.384 42.586 0l84.51-84.51c5.662-5.722 8.794-13.252 8.794-21.323s-3.132-15.541-8.794-21.263zM903.529 412.235h60.235v-572.235h-963.765v903.529h451.765v-60.235h-391.529v-783.059h843.294v512z" />
<glyph unicode="&#xe61e;" glyph-name="paint-roller" d="M903.529 743.529v120.471h-783.059v-120.471h-31.081c-49.272 0-89.389-40.659-89.389-90.654v-180.104c0-49.995 40.117-90.654 89.389-90.654h362.857c16.565 0 30.118-13.553 30.118-30.118v-90.353h-60.717v-421.647h180.706v421.647h-59.753v90.353c0 49.815-40.538 90.353-90.353 90.353h-362.857c-16.023 0-29.154 13.673-29.154 30.419v180.104c0 16.745 13.131 30.419 29.154 30.419h31.081v-180.706h783.059v180.706h60.235v60.235h-60.235zM542.118-99.765h-60.235v301.176h60.235v-301.176zM843.294 562.824h-662.588v240.941h662.588v-240.941z" />
<glyph unicode="&#xe61f;" glyph-name="paint-bucket" d="M1005.99 272.61l-534.167 537.54-8.072-8.011c-40.237 39.816-93.485 61.801-150.167 61.862 0 0 0 0-0.060 0-57.103 0-110.893-22.287-151.311-62.705-40.478-40.418-62.765-94.148-62.765-151.432 0-56.681 22.046-109.929 61.862-150.167l-133-133.060c-18.251-18.312-28.311-42.526-28.311-68.247 0-25.841 9.999-49.995 28.13-68.066l289.792-292.683c18.191-18.191 42.406-28.25 68.126-28.25 25.841 0 50.056 10.12 68.247 28.371l334.788 334.788 216.907 0.060zM159.684 649.924c0 41.080 16.023 79.691 45.116 108.785 29.094 29.033 67.644 45.056 108.725 45.056 0.060 0 0.060 0 0.060 0 40.599 0 78.667-15.782 107.58-44.213l-217.208-217.269c-28.491 28.973-44.273 67.042-44.273 107.64zM411.588-19.712c-6.807-6.807-15.962-10.662-25.6-10.662s-18.733 3.735-25.419 10.481l-219.016 221.304h491.159l-221.124-221.124zM692.947 261.647h-611.087l-11.023 11.204c-6.867 6.807-10.601 15.842-10.601 25.48 0 9.698 3.795 18.793 10.662 25.72l400.806 400.806 389.602-392.072-97.22-0.060-71.138-71.078zM944.971 143.646l-24.516 36.382-25.178-36.021c-19.215-27.528-82.101-121.133-82.101-168.538 0-58.127 47.285-105.412 105.412-105.412s105.412 47.345 105.412 105.472c0 47.104-60.476 140.589-79.029 168.117zM918.588-69.647c-24.877 0-45.176 20.299-45.176 45.176 0 14.456 21.022 55.416 46.14 95.834 24.094-40.358 44.213-81.257 44.213-95.834 0-24.877-20.299-45.176-45.176-45.176z" />
<glyph unicode="&#xe620;" glyph-name="na" d="M512 833.882c-265.698 0-481.882-216.184-481.882-481.882s216.184-481.882 481.882-481.882 481.882 216.184 481.882 481.882-216.184 481.882-481.882 481.882zM512 773.647c105.412 0 201.668-39.153 275.697-103.364l-593.92-593.98c-64.271 73.969-103.424 170.285-103.424 275.697 0 232.448 189.139 421.647 421.647 421.647zM512-69.647c-105.412 0-201.668 39.153-275.697 103.364l593.92 593.98c64.271-73.969 103.424-170.285 103.424-275.697 0-232.448-189.139-421.647-421.647-421.647z" />
<glyph unicode="&#xe621;" glyph-name="mobile" d="M752.941 864h-481.882c-49.815 0-90.353-40.538-90.353-90.353v-843.294c0-49.815 40.538-90.353 90.353-90.353h481.882c49.815 0 90.353 40.538 90.353 90.353v843.294c0 49.815-40.538 90.353-90.353 90.353zM271.059 803.765h481.882c16.625 0 30.118-13.493 30.118-30.118v-90.353h-542.118v90.353c0 16.625 13.493 30.118 30.118 30.118zM783.059 623.059v-481.882h-542.118v481.882h542.118zM752.941-99.765h-481.882c-16.625 0-30.118 13.493-30.118 30.118v150.588h542.118v-150.588c0-16.625-13.493-30.118-30.118-30.118zM542.118-9.412c0-16.625-13.493-30.118-30.118-30.118s-30.118 13.493-30.118 30.118 13.493 30.118 30.118 30.118 30.118-13.493 30.118-30.118z" />
<glyph unicode="&#xe622;" glyph-name="minus" d="M903.529 382.118v-60.235h-783.059v60.235h783.059z" />
<glyph unicode="&#xe623;" glyph-name="medall" d="M512 864c-166.069 0-301.176-135.108-301.176-301.176 0-82.824 33.431-160.166 94.088-217.811 5.12-4.939 10.842-9.276 16.625-13.613l6.204-4.698c10.782-8.493 22.227-15.48 33.672-22.347v-434.236l149.323 114.507 151.853-114.507v434.236c11.445 6.867 22.95 13.914 33.732 22.408l6.204 4.638c5.783 4.337 11.445 8.674 16.625 13.613 60.597 57.645 94.027 134.987 94.027 217.811 0 166.069-135.108 301.176-301.176 301.176zM602.353-8.99l-91.919 69.331-88.787-68.126v254.494c29.033-10.059 59.392-15.179 90.353-15.179s61.32 5.12 90.353 15.179v-255.699zM677.587 388.623c-3.433-3.313-7.288-6.084-11.144-8.855l-7.409-5.662c-87.040-68.367-207.089-68.307-294.008-0.060l-7.469 5.722c-3.855 2.831-7.71 5.602-11.144 8.855-48.61 46.2-75.354 108.002-75.354 174.2 0 132.879 108.062 240.941 240.941 240.941s240.941-108.062 240.941-240.941c0-66.199-26.744-128-75.354-174.2zM659.576 652.333l11.083-59.151-109.809-20.54 69.030-116.676-51.863-30.72-65.476 110.592-65.656-110.532-51.742 30.72 69.391 116.856-106.978 20.299 11.204 59.151 113.122-21.384v112.58h60.235v-113.122l117.459 21.926z" />
<glyph unicode="&#xe624;" glyph-name="medall-alt" d="M512 864c-166.069 0-301.176-135.108-301.176-301.176 0-82.824 33.431-160.166 94.088-217.811 5.12-4.939 10.842-9.276 16.625-13.613l6.204-4.698c10.782-8.493 22.227-15.48 33.672-22.347v-434.236l149.323 114.507 151.853-114.507v434.236c11.445 6.867 22.95 13.914 33.732 22.408l6.204 4.638c5.783 4.337 11.445 8.674 16.625 13.613 60.597 57.645 94.027 134.987 94.027 217.811 0 166.069-135.108 301.176-301.176 301.176zM602.353-8.99l-91.919 69.331-88.787-68.126v254.494c29.033-10.059 59.392-15.179 90.353-15.179s61.32 5.12 90.353 15.179v-255.699zM677.587 388.623c-3.433-3.313-7.288-6.084-11.144-8.855l-7.409-5.662c-87.040-68.367-207.089-68.307-294.008-0.060l-7.469 5.722c-3.855 2.831-7.71 5.602-11.144 8.855-48.61 46.2-75.354 108.002-75.354 174.2 0 132.879 108.062 240.941 240.941 240.941s240.941-108.062 240.941-240.941c0-66.199-26.744-128-75.354-174.2zM617.412 562.824c0-58.187-47.224-105.412-105.412-105.412s-105.412 47.224-105.412 105.412 47.224 105.412 105.412 105.412 105.412-47.224 105.412-105.412z" />
<glyph unicode="&#xe625;" glyph-name="marker" d="M641.265 803.765h-46.261c-13.975 35.418-46.321 60.235-83.908 60.235h-148.6c-17.589 0-31.925-5.421-42.526-16.143-19.034-19.095-18.914-46.441-18.793-75.475v-709.512l111.496-140.047h8.975v-82.824l60.235 41.442v41.442h8.855l111.616 140.047v680.599h38.912c20.299 0 21.323-32.527 21.323-39.032v-256.964h60.235v256.964c0.060 58.428-33.491 99.268-81.559 99.268zM362.496 803.765h148.6c17.167 0 31.081-17.528 31.081-39.032v-201.909h-180.766v209.86c0 11.686-0.12 29.335 1.084 31.081zM461.824-16.941h-20.058l-80.294 100.894-0.060 418.635h180.706v-418.635l-80.294-100.894z" />
<glyph unicode="&#xe626;" glyph-name="marker-alt" d="M943.526 521.623l-32.768 32.768c4.698 10.782 7.65 22.167 8.373 33.852 1.566 26.202-7.288 50.296-25.058 68.066l-105.111 105.111c-12.408 12.408-26.323 18.673-41.382 18.673-27.046 0-46.321-19.456-66.741-40.117l-544.286-544.286-20.179-177.995 6.325-6.264-58.549-58.549 71.861-13.372 29.335 29.274 6.264-6.264 177.935 20.058 523.866 523.927 27.467-27.467c4.337-4.337 5.662-8.674 4.578-14.758-1.566-8.493-7.77-18.673-17.047-27.949l-181.67-181.73 42.586-42.586 181.67 181.73c18.251 18.191 29.937 38.852 33.732 59.633 4.698 25.66-2.831 49.935-21.203 68.247zM321.837 40.162l-128.181-14.517-14.155 14.155 14.577 128.060 338.643 338.643 127.759-127.759-338.643-338.583zM703.066 421.331l-127.759 127.759 148.42 148.42c8.192 8.373 20.6 20.902 22.648 21.323l105.111-105.111c7.228-7.228 7.77-16.745 7.529-21.745-0.602-10.12-5.301-19.938-13.131-27.829l-142.818-142.818z" />
<glyph unicode="&#xe627;" glyph-name="arrow-up" d="M912.324 330.677l-370.206 370.266v-800.708h-60.235v800.708l-370.206-370.266-42.647 42.647 442.97 442.91 442.97-442.97-42.647-42.586z" />
<glyph unicode="&#xe628;" glyph-name="arrow-right" d="M946.116 353.687l-442.97-442.97-42.586 42.586 370.206 370.206h-770.53v60.235h770.59l-370.266 370.327 42.586 42.586 442.97-442.97z" />
<glyph unicode="&#xe629;" glyph-name="arrow-left" d="M963.765 323.569h-770.59l370.206-370.206-42.586-42.586-442.91 442.91 442.97 442.97 42.586-42.586-370.266-370.266h770.59v-60.235z" />
<glyph unicode="&#xe62a;" glyph-name="arrow-down" d="M954.97 330.677l-442.97-442.91-442.97 442.91 42.586 42.586 370.266-370.206v800.708h60.235v-800.708l370.206 370.206 42.647-42.586z" />
<glyph unicode="&#xe62b;" glyph-name="lock" d="M572.235 203.098c0-22.046-12.469-40.478-30.118-50.959v-129.747h-60.235v129.687c-17.709 10.481-30.118 28.913-30.118 51.019 0 33.25 26.925 60.235 60.235 60.235 33.19 0 60.235-26.925 60.235-60.235zM901.421 354.409v-426.466c0-49.815-40.538-90.353-90.353-90.353h-601.69c-49.815 0-90.353 40.538-90.353 90.353v426.466c0 49.815 40.538 90.353 90.353 90.353h1.446v119.748c0 166.069 135.108 301.176 301.176 301.176s301.176-135.108 301.176-301.176v-119.989c48.851-1.084 88.245-41.020 88.245-90.112zM271.059 444.762h481.882v119.748c0 132.879-108.062 240.941-240.941 240.941s-240.941-108.062-240.941-240.941v-119.748zM841.186 354.409c0 15.902-12.469 28.552-28.009 29.696v-0.241h-602.353v0.663h-1.446c-16.565 0-30.118-13.493-30.118-30.118v-426.466c0-16.625 13.553-30.118 30.118-30.118h601.69c16.565 0 30.118 13.493 30.118 30.118v426.466z" />
<glyph unicode="&#xe62c;" glyph-name="location-arrow" d="M118.724 745.577l318.524-849.378 73.005 457.848 457.848 73.005-849.378 318.524zM457.668 406.694l-44.032-275.998-191.97 511.94 511.94-191.97-275.938-43.972z" />
<glyph unicode="&#xe62d;" glyph-name="link" d="M782.035 445.967l-56.501-56.501-42.586 42.586 56.501 56.501c58.729 58.729 58.729 154.263 0 212.932s-154.263 58.729-212.932 0l-179.923-179.983c-58.729-58.729-58.729-154.263 0-212.932s154.263-58.729 212.932 0l42.586-42.586c-41.141-41.141-95.051-61.621-149.082-61.621s-107.942 20.54-149.022 61.621c-82.161 82.161-82.161 215.944 0 298.104l179.923 179.923c82.221 82.221 215.883 82.221 298.104 0 82.221-82.101 82.221-215.883 0-298.044zM363.942 380.070l-7.831-7.77 42.466-42.707 7.891 7.831c58.729 58.729 154.263 58.729 212.932 0s58.729-154.263 0-212.932l-182.091-182.212c-58.729-58.729-154.263-58.729-212.932 0s-58.729 154.263 0 212.932l63.729 63.789-42.586 42.586-63.729-63.789c-82.161-82.161-82.161-215.944 0-298.104 41.141-41.141 95.051-61.621 149.082-61.621s107.942 20.54 149.082 61.621l182.091 182.152c82.161 82.161 82.161 215.944 0 298.104-82.281 82.342-216.004 82.161-298.104 0.12z" />
<glyph unicode="&#xe62e;" glyph-name="layout" d="M0 864v-1024h1024v1024h-1024zM60.235 502.588h542.118v-602.353h-542.118v602.353zM963.765-99.765h-301.176v602.353h301.176v-602.353zM60.235 562.824v240.941h903.529v-240.941h-903.529z" />
<glyph unicode="&#xe62f;" glyph-name="layers" d="M783.059 803.765h-783.059v-662.588h783.059v662.588zM722.824 201.412h-662.588v542.118h662.588v-542.118zM1024 562.824v-662.588h-783.059v182.573h60.235v-122.338h662.588v542.118h-121.434v60.235h181.67z" />
<glyph unicode="&#xe630;" glyph-name="layers-alt" d="M662.588 803.765h-662.588v-542.118h662.588v542.118zM602.353 321.882h-542.118v421.647h542.118v-421.647zM843.294 80.941h-662.588v119.326h60.235v-59.091h542.118v421.647h-59.874v60.235h120.109v-542.118zM1024 442.353v-542.118h-662.588v119.326h60.235v-59.091h542.118v421.647h-59.874v60.235h120.109z" />
<glyph unicode="&#xe631;" glyph-name="key" d="M892.145 484.578l42.586 42.586-104.388 104.388 45.598 45.357-42.466 42.707-490.677-488.328c-29.154 20.239-64.452 32.226-102.581 32.226-99.629 0-180.706-81.077-180.706-180.706s81.077-180.706 180.706-180.706 180.706 81.077 180.706 180.706c0 39.816-13.372 76.378-35.238 106.255l317.079 315.512 104.689-104.689 42.586 42.586-104.629 104.568 42.225 42.044 104.508-104.508zM240.158-37.662c-66.44 0-120.471 54.031-120.471 120.471s54.031 120.471 120.471 120.471 120.471-54.031 120.471-120.471-54.031-120.471-120.471-120.471z" />
<glyph unicode="&#xe632;" glyph-name="import" d="M512 40.162l-292.322 290.936 42.466 42.707 219.738-218.714v650.36h60.235v-650.36l219.678 218.654 42.466-42.707-292.262-290.876zM963.765 320.075v-389.722c0-16.625-13.493-30.118-30.118-30.118h-843.294c-16.625 0-30.118 13.493-30.118 30.118v390.024h-60.235v-390.024c0-49.815 40.538-90.353 90.353-90.353h843.294c49.815 0 90.353 40.538 90.353 90.353v389.722h-60.235z" />
<glyph unicode="&#xe633;" glyph-name="image" d="M60.235 803.765v-903.529h903.529v903.529h-903.529zM903.529-39.529h-783.059v120.471h783.059v-120.471zM120.471 141.176v602.353h783.059v-602.353h-783.059zM855.522 251.708l-41.984-43.189-145.589 141.493-93.606-100.954-149.745 265.939-204.86-299.671-49.754 33.973 259.614 379.663 156.853-278.408 79.33 85.655 189.741-184.501z" />
<glyph unicode="&#xe634;" glyph-name="heart" d="M752.941 824.365c-104.749 0-195.825-59.753-240.941-146.914-45.116 87.16-136.192 146.914-240.941 146.914-149.444 0-271.059-121.615-271.059-271.059 0-20.661 2.891-42.104 9.276-67.343l6.566-21.143c86.257-262.264 461.342-565.79 477.304-578.5l18.854-15.179 18.854 15.179c16.986 13.673 417.19 337.197 477.485 579.102l6.746 22.167c6.084 24.215 8.915 45.116 8.915 65.717 0 149.444-121.615 271.059-271.059 271.059zM957.079 503.793l-6.807-22.287c-48.73-195.524-358.159-465.438-438.272-532.661-77.222 65.235-368.76 321.476-438.814 534.408l-6.024 19.034c-4.638 18.733-6.927 35.418-6.927 51.019 0 116.254 94.569 210.824 210.824 210.824s210.824-94.63 210.824-210.824v-15.179h60.235v15.179c0 116.254 94.569 210.824 210.824 210.824s210.824-94.569 210.824-210.824c0-15.541-2.289-31.744-6.686-49.513z" />
<glyph unicode="&#xe635;" glyph-name="heart-broken" d="M9.216 485.963c-6.325 25.239-9.216 46.682-9.216 67.343 0 149.444 121.615 271.059 271.059 271.059 104.749 0 195.825-59.753 240.941-146.914 45.116 87.16 136.192 146.914 240.941 146.914 149.444 0 271.059-121.615 271.059-271.059 0-20.6-2.831-41.442-8.855-65.717l-6.807-22.167c-4.879-19.938-13.734-43.43-27.287-72.222l-54.453 25.66c11.806 25.178 19.396 45.116 23.793 62.705l6.746 22.227c4.397 17.769 6.626 33.973 6.626 49.513 0 116.254-94.569 210.824-210.824 210.824s-210.824-94.63-210.824-210.824h-60.235c0 116.254-94.569 210.824-210.824 210.824s-210.824-94.63-210.824-210.824c0-15.601 2.289-32.286 6.987-51.019l6.024-19.034c5.662-17.288 14.155-37.225 26.564-62.223l-53.971-26.865c-13.734 27.708-23.251 50.176-29.997 70.656l-6.626 21.143zM511.94-52.239c-48.55 38.129-186.85 152.576-299.731 301.96l-48.008-36.382c144.203-190.765 322.5-322.379 329.969-327.861l17.95-13.131 17.83 13.252c7.77 5.722 191.97 142.999 333.463 327.56l-47.767 36.683c-111.315-145.107-254.133-262.987-303.706-302.080zM853.655 417.355l-170.586-120.471-170.586 120.471-170.647-120.471-170.888 120.41-188.296-132.638 34.696-49.272 153.6 108.303 170.888-120.531 170.647 120.471 170.586-120.471 170.586 120.471 152.937-108.183 34.816 49.152-187.753 132.759z" />
<glyph unicode="&#xe636;" glyph-name="hand-stop" d="M843.294 598.784v-437.188c0-51.561-20.299-112.459-38.249-166.129-10.782-32.407-21.986-65.837-21.986-80.173v-45.176c0-16.625-13.493-30.118-30.118-30.118s-30.118 13.493-30.118 30.118v45.176c0 24.094 11.083 57.224 25.118 99.208 15.601 46.984 35.117 105.352 35.117 147.095v437.188c0 16.565-12.408 29.094-28.792 29.094-16.745 0-30.84-12.649-31.383-28.19 0-0.181-0.12-0.361-0.12-0.542l0.060-232.508c0-16.625-13.493-30.118-30.118-30.118s-30.118 13.493-30.118 30.118l-0.060 246.121c0 0.301 0.181 0.542 0.181 0.904v84.691c0 13.975-8.433 29.094-26.865 29.094-16.504 0-31.804-12.649-32.768-27.106-0.060-0.783-0.602-1.506-0.723-2.349v-269.854c0-16.625-13.493-30.118-30.118-30.118s-30.118 13.432-30.118 30.118v294.912c0 1.325 0.602 2.53 0.783 3.795v47.887c0 15.721-14.517 29.033-31.624 29.033-16.806 0-29.937-12.71-29.937-29.033v-52.164c0.12-0.904 0.542-1.687 0.542-2.65v0-294.912c0-16.625-13.493-30.118-30.118-30.118s-30.118 13.493-30.118 30.118v0 276.6c0 0.241-0.181 0.422-0.241 0.663-1.988 14.336-14.938 25.178-30.118 25.178-16.806 0-30.419-13.071-30.419-29.094v-343.642c0-12.529-7.71-23.733-19.396-28.13-11.505-4.397-24.877-1.205-33.19 8.132l-67.283 75.535c-23.672 27.648-39.514 18.733-45.357 15.36-6.987-3.915-11.987-10.3-13.975-17.89-1.928-7.288-0.843-14.938 3.012-21.504l198.295-422.189c2.771-4.397 9.517-9.336 17.709-11.324 13.553-3.253 23.010-15.36 23.010-29.274v-53.308c0-16.625-13.493-30.118-30.118-30.118s-30.118 13.493-30.118 30.118v32.888c-13.914 7.71-25.48 18.914-33.732 32.828l-198.234 422.249c-10.842 18.010-14.155 42.044-8.072 65.114 6.204 23.311 21.323 42.767 42.526 54.814 40.719 22.95 85.655 12.408 120.471-28.19l14.276-16.023v264.553c0 49.272 40.659 89.329 90.654 89.329 10.481 0 20.661-1.807 30.118-5.12 4.036 45.598 42.767 81.438 89.811 81.438 48.248 0 87.883-36.382 91.618-82.342 10.3 3.855 21.444 6.024 33.009 6.024 48.851 0 87.1-39.213 87.1-89.329v-15.782c9.818 3.554 20.36 5.481 31.322 5.481 49.875 0.060 88.968-39.153 88.968-89.269z" />
<glyph unicode="&#xe637;" glyph-name="hand-open" d="M918.106 537.525l-71.56-485.737c-7.108-36.864-23.432-53.007-35.298-64.813-11.505-11.445-19.155-19.034-19.155-56.2v-60.657c0-16.625-13.493-30.118-30.118-30.118s-30.118 13.493-30.118 30.118v60.657c0 57.525 16.745 78.848 36.984 98.906 9.336 9.276 14.938 14.878 18.312 32.166l71.379 484.232c1.084 7.409 3.072 32.527-16.444 35.238-6.746 0.964-12.228-0.12-16.565-3.433-5.783-4.277-9.879-12.589-11.324-22.769l-29.937-199.74c-1.506-10.3-8.312-19.034-17.83-23.191s-20.54-3.012-29.154 2.952c-3.012-0.482-8.072 1.385-13.131 4.698-9.156 5.843-14.396 16.143-13.794 26.985l17.167 318.404c1.385 16.745-10.24 30.66-26.022 32.045-7.65 0.723-14.999-1.687-20.841-6.566-5.903-4.939-9.397-11.806-10.059-19.336l-27.889-288.045c-1.566-16.203-14.396-27.949-31.985-27.166-4.879 0.301-9.818 0.602-14.818 0.663-16.203 0.361-29.214 13.432-29.515 29.576l-6.927 368.58c0 16.143-12.649 28.792-28.19 28.792s-28.19-12.649-28.19-28.19l-7.108-396.71c-0.241-11.445-6.867-21.805-17.227-26.684-3.735-1.807-7.349-3.614-10.782-5.542-8.855-5.060-19.637-5.24-28.672-0.482-9.035 4.698-15.119 13.673-16.143 23.793l-31.021 320.994c-0.663 7.891-4.216 14.758-9.999 19.637-5.843 4.879-13.734 7.108-20.781 6.566-7.59-0.663-14.396-4.216-19.275-10.059-4.819-5.783-7.168-13.131-6.505-20.661l30.298-427.49c0.964-13.131-6.807-25.419-19.095-30.178-12.408-4.819-26.383-1.024-34.515 9.336l-93.425 117.64c-12.228 20.48-33.852 26.202-50.598 16.504-8.192-4.759-14.035-12.348-16.444-21.444-2.409-9.035-1.205-18.552 3.614-26.684l212.57-366.652c4.819-8.373 12.71-14.216 22.106-16.504 13.493-3.253 23.010-15.36 23.010-29.274v-41.562c0-16.625-13.493-30.118-30.118-30.118s-30.118 13.493-30.118 30.118v21.082c-15.3 8.252-28.009 20.54-36.984 36.021l-212.631 366.652c-12.83 22.046-16.264 47.767-9.638 72.403 6.505 24.696 22.347 45.297 44.514 58.127 45.658 26.323 104.087 10.662 130.349-34.876l30.479-38.189-23.432 330.27c-2.048 23.010 5.18 46.020 20.36 64.211 15.179 18.071 36.623 29.214 60.175 31.322 23.913 2.168 46.682-5.24 64.873-20.48 8.794-7.409 15.842-16.203 21.082-25.961l0.843 45.357c0 48.309 39.695 87.944 88.425 87.944s88.425-39.695 88.425-88.486l0.843-44.936c5.301 9.818 12.408 18.673 21.263 26.142 18.251 15.3 41.442 22.648 64.934 20.48 48.851-4.277 85.052-47.465 80.776-96.256l-3.192-58.91c1.566 1.385 3.253 2.711 4.879 3.976 17.348 13.011 38.37 18.071 61.32 14.938 47.285-6.566 75.174-49.152 67.584-103.424z" />
<glyph unicode="&#xe638;" glyph-name="hand-drag" d="M841.065 526.682v-352.015c0-46.803-23.070-74.752-39.936-95.112-14.095-17.107-21.444-26.684-21.444-41.803v-107.4c0-16.625-13.493-30.118-30.118-30.118s-30.118 13.493-30.118 30.118v107.4c0 37.527 19.576 61.199 35.298 80.173 14.577 17.649 26.142 31.563 26.142 56.681v352.075c0 18.793-16.143 36.503-33.19 36.503-19.817 0-24.034-3.072-24.215-3.192-3.976-5.361-3.855-34.274-3.795-57.585 0.060-11.384 0.12-24.094-0.12-38.069-0.241-16.504-12.83-28.792-30.359-29.696-16.504 0.12-29.877 13.553-29.877 30.118v127.699c0 18.492-13.372 32.407-31.081 32.407-16.264 0-28.19-12.107-29.636-29.395v-120.651c0-16.625-13.493-30.118-30.118-30.118s-30.118 13.493-30.118 30.118v0 121.133c0 0.181-0.12 0.361-0.12 0.602v46.562c0 3.976-0.843 38.671-28.552 38.671-27.106 0-31.202-24.215-31.202-38.671v-42.345c0-1.687-0.663-3.253-0.964-4.879v-156.25c0-16.625-13.493-30.118-30.118-30.118s-30.118 13.493-30.118 30.118v0 161.672c-2.891 11.686-11.324 23.492-28.070 23.492-17.227 0-31.744-15.721-31.744-34.334v-201.788c0-0.422-0.361-0.783-0.361-1.205v-66.319c0-16.625-13.493-30.118-30.118-30.118s-30.118 13.493-30.118 30.118v50.236c-10.601 3.855-25.961 6.987-34.756 5-7.108-1.385-14.276-7.65-18.733-16.324-3.554-6.807-8.312-20.902-0.542-38.37l102.28-223.895c0.964-2.108 1.626-4.277 2.108-6.505 3.373-16.565 18.793-27.467 35.418-25.961 8.373 1.084 16.926-1.807 23.311-7.529 6.325-5.722 9.999-13.854 9.999-22.408v-105.050c0-16.625-13.493-30.118-30.118-30.118s-30.118 13.493-30.118 30.118v77.463c-32.286 8.373-58.368 33.792-66.68 67.765l-101.135 221.365c-13.252 29.877-12.469 62.825 1.928 90.775 12.89 24.877 35.418 42.707 60.296 47.767 12.649 2.59 29.756 1.867 46.682-1.566v43.369c0 0.602 0.301 1.144 0.361 1.747v111.435c0 52.164 41.321 94.569 91.979 94.569 12.047 0 23.612-2.409 34.093-6.746 11.987 38.792 44.152 63.669 86.317 63.669 40.237 0 71.8-25.419 83.667-63.91 10.722 4.518 22.468 6.987 34.876 6.987 41.502 0 75.776-26.744 87.16-64.572 11.023 2.409 22.227 2.952 32.286 2.952 50.718 0 93.485-44.273 93.485-96.738z" />
<glyph unicode="&#xe639;" glyph-name="folder" d="M481.882 623.059l-117.941 120.471h-363.942v-903.529h1024v783.059h-542.118zM338.643 683.294l117.941-120.471h507.181v-122.097l-903.529 1.566v241.001h278.408zM60.235-99.765v481.822l903.529-1.566v-480.256h-903.529z" />
<glyph unicode="&#xe63a;" glyph-name="flag" d="M783.059 261.165v556.454l-715.535-278.227 715.535-278.227zM722.824 349.169l-489.171 190.223 489.171 190.283v-380.506zM903.529 864v-1024h-60.235v1024h60.235z" />
<glyph unicode="&#xe63b;" glyph-name="flag-alt" d="M903.529 864v-1024h-60.235v1024h60.235zM91.979 805.21h691.080v-481.882h-692.104l175.345 238.050-174.321 243.832zM722.824 744.975h-513.687l131.614-184.079-130.59-177.333h512.663v361.412z" />
<glyph unicode="&#xe63c;" glyph-name="flag-alt-2" d="M903.529 864v-1024h-60.235v1024h60.235zM300.213 803.765h481.882v-481.882h-300.213v-120.471h-421.647v481.882h239.977v120.471zM421.647 321.882h-120.471v301.176h-180.706v-361.412h301.176v60.235zM360.448 743.529v-60.235h0.964v-301.176h360.448v361.412h-361.412z" />
<glyph unicode="&#xe63d;" glyph-name="eye" d="M1021.892 332.905c-77.342 196.789-282.323 329.065-509.892 329.065s-432.55-132.277-509.892-329.065c-2.771-7.048-2.771-14.938 0-21.986 77.402-196.849 282.323-329.126 509.892-329.126s432.489 132.216 509.892 329.065c2.831 7.108 2.831 14.938 0 22.046zM512 42.029c-198.656 0-377.615 111.977-449.295 279.853 71.62 167.876 250.579 279.853 449.295 279.853s377.675-111.977 449.295-279.853c-71.68-167.816-250.639-279.853-449.295-279.853zM512 541.32c-121.013 0-219.437-98.424-219.437-219.437s98.424-219.437 219.497-219.437c120.952 0 219.437 98.424 219.437 219.437s-98.485 219.437-219.497 219.437zM512 162.68c-87.823 0-159.262 71.439-159.262 159.202s71.499 159.202 159.262 159.202c87.763 0 159.202-71.439 159.202-159.202s-71.379-159.202-159.202-159.202zM512 403.622c-45.056 0-81.739-36.683-81.739-81.739s36.683-81.739 81.739-81.739 81.739 36.683 81.739 81.739-36.683 81.739-81.739 81.739zM512 300.378c-11.866 0-21.504 9.638-21.504 21.504s9.638 21.504 21.504 21.504 21.504-9.638 21.504-21.504-9.638-21.504-21.504-21.504z" />
<glyph unicode="&#xe63e;" glyph-name="export" d="M262.566 505.239l-43.249 41.984 292.683 301.478 292.683-301.478-43.249-41.924-219.317 225.882v-648.553h-60.235v648.553l-219.317-225.943zM963.765 320.075v-389.722c0-16.625-13.493-30.118-30.118-30.118h-843.294c-16.625 0-30.118 13.493-30.118 30.118v390.024h-60.235v-390.024c0-49.815 40.538-90.353 90.353-90.353h843.294c49.815 0 90.353 40.538 90.353 90.353v389.722h-60.235z" />
<glyph unicode="&#xe63f;" glyph-name="exchange-vertical" d="M361.412-42.12v424.237h-60.235v-424.237l-219.618 219.618-42.586-42.586 292.322-292.322 292.382 292.382-42.586 42.586-219.678-219.678zM330.571-71.514h1.385l-0.663-0.723-0.723 0.723zM942.441 526.441l-219.618 219.678v-427.43h-60.235v427.43l-219.618-219.678-42.647 42.647 292.382 292.322 292.382-292.382-42.647-42.586z" />
<glyph unicode="&#xe640;" glyph-name="desktop" d="M120.471 201.412h783.059v481.882h-783.059v-481.882zM180.706 623.059h662.588v-361.412h-662.588v361.412zM933.647 803.765h-843.294c-49.815 0-90.353-38.43-90.353-85.715v-611.629c0-47.285 40.538-85.715 90.353-85.715h843.294c49.815 0 90.353 38.43 90.353 85.715v611.629c0 47.285-40.538 85.715-90.353 85.715zM963.765 106.421c0-14.095-13.553-25.48-30.118-25.48h-843.294c-16.565 0-30.118 11.384-30.118 25.48v611.629c0 14.095 13.553 25.48 30.118 25.48h843.294c16.565 0 30.118-11.384 30.118-25.48v-611.629zM301.176-39.529h421.647v-60.235h-421.647v60.235z" />
<glyph unicode="&#xe641;" glyph-name="cup" d="M1023.94 803.765h-135.951c0.060 10.12 0.482 19.757 0.482 30.118v30.118h-752.941v-30.118c0-9.638 0.241-20.058 0.301-30.118h-135.77l-0.060-30.057c-0.181-65.416 3.735-132.457 11.746-199.379 21.203-176.911 76.559-381.952 168.358-426.888 11.686-5.783 23.793-8.674 35.9-8.674 14.336 0 28.853 4.096 42.586 12.408l12.589 8.433c50.176-76.92 118.664-128.843 210.703-138.421v-120.952h-177.875v-60.235h421.647v60.235h-183.537v120.29c85.233 8.975 155.708 56.32 210.402 139.264l14.095-9.336c13.011-7.831 26.925-11.686 41.020-11.686 12.107 0 24.335 2.891 36.262 8.734 91.799 44.936 147.155 249.976 168.358 426.888 8.011 66.861 11.927 133.963 11.746 199.379l-0.060 29.997zM240.218 211.411l-13.794-9.276c-6.746-3.976-12.288-4.216-19.757-0.602-47.285 23.191-108.905 161.129-135.108 380.024-6.505 54.212-10.18 108.544-11.083 161.973h76.68c5.843-176.128 30.901-389.602 107.942-539.467l-4.879 7.349zM512 78.472c-273.468 0-313.163 484.894-316.055 725.293h632.109c-2.952-284.371-50.477-725.293-316.055-725.293zM952.44 581.557c-26.263-218.895-87.823-356.834-135.108-380.024-7.409-3.674-13.011-3.494-18.552-0.181l-15.059 10.059-6.987-10.481c64.994 122.76 102.822 305.152 110.291 542.6h76.559c-0.964-53.429-4.638-107.761-11.144-161.973z" />
<glyph unicode="&#xe642;" glyph-name="crown" d="M760.531 457.833l-245.941 401.95-253.651-402.071-270.999 230.882 104.749-788.36h834.56l104.689 787.576-273.408-229.978zM147.396-39.529l-8.011 60.235h745.171l-8.011-60.235h-729.148zM892.567 80.941h-761.133l-61.139 460.017 204.559-174.2 238.953 378.88 231.966-379 208.053 175.044-61.259-460.74z" />
<glyph unicode="&#xe643;" glyph-name="comments" d="M1024 773.647v-480.015c0-49.815-40.538-90.353-90.353-90.353h-30.6v60.235h30.6c16.625 0 30.118 13.553 30.118 30.118v480.015c0 16.565-13.493 30.118-30.118 30.118h-843.294c-16.625 0-30.118-13.553-30.118-30.118v-480.015c0-16.565 13.493-30.118 30.118-30.118h90.353v-174.2l107.159 94.509 39.816-45.176-207.209-182.814v247.447h-30.118c-49.815 0-90.353 40.538-90.353 90.353v480.015c0 49.815 40.538 90.353 90.353 90.353h843.294c49.815 0 90.353-40.538 90.353-90.353zM844.499 289.355v-183.296c0-49.815-40.538-90.353-90.353-90.353h-30.118v-184.561l-220.883 184.561h-51.381c-49.815 0-90.353 40.538-90.353 90.353v183.296c0 49.815 40.538 90.353 90.353 90.353h302.381c49.815 0 90.353-40.538 90.353-90.353zM784.264 289.355c0 16.565-13.493 30.118-30.118 30.118h-302.381c-16.625 0-30.118-13.553-30.118-30.118v-183.296c0-16.565 13.493-30.118 30.118-30.118h73.306l138.722-116.013v116.013h90.353c16.625 0 30.118 13.553 30.118 30.118v183.296z" />
<glyph unicode="&#xe644;" glyph-name="comment" d="M933.647 864h-843.294c-49.815 0-90.353-40.538-90.353-90.353v-602.353c0-49.815 40.538-90.353 90.353-90.353h30.118v-247.085l282.383 247.085h530.793c49.815 0 90.353 40.538 90.353 90.353v602.353c0 49.815-40.538 90.353-90.353 90.353zM963.765 171.294c0-16.565-13.493-30.118-30.118-30.118h-553.442l-199.499-174.562v174.562h-90.353c-16.625 0-30.118 13.553-30.118 30.118v602.353c0 16.565 13.493 30.118 30.118 30.118h843.294c16.625 0 30.118-13.553 30.118-30.118v-602.353z" />
<glyph unicode="&#xe645;" glyph-name="comment-alt" d="M933.647 864h-843.294c-49.815 0-90.353-40.538-90.353-90.353v-602.353c0-49.815 40.538-90.353 90.353-90.353h30.118v-247.085l282.383 247.085h530.793c49.815 0 90.353 40.538 90.353 90.353v602.353c0 49.815-40.538 90.353-90.353 90.353zM963.765 171.294c0-16.565-13.493-30.118-30.118-30.118h-553.442l-199.499-174.562v174.562h-90.353c-16.625 0-30.118 13.553-30.118 30.118v602.353c0 16.565 13.493 30.118 30.118 30.118h843.294c16.625 0 30.118-13.553 30.118-30.118v-602.353zM180.706 683.294h662.588v-60.235h-662.588v60.235zM180.706 562.824h662.588v-60.235h-662.588v60.235zM180.706 442.353h361.412v-60.235h-361.412v60.235z" />
<glyph unicode="&#xe646;" glyph-name="close" d="M554.586 352l400.324-400.324-42.586-42.586-400.324 400.324-400.324-400.324-42.586 42.586 400.324 400.324-400.384 400.324 42.586 42.586 400.384-400.324 400.324 400.324 42.586-42.586-400.324-400.324z" />
<glyph unicode="&#xe647;" glyph-name="clip" d="M724.088 608.964v-511.88h-60.235v511.88c0 65.717-48.128 136.493-153.841 136.493-116.917 0-148.119-85.775-148.119-136.493v-489.171h0.422v-87.763c0-37.346 41.743-72.644 85.896-72.644 50.839 0 94.389 41.141 94.389 74.752v16.264h-0.181l0.482 458.812c0 52.646-14.878 52.646-28.070 52.646-22.227 0-32.949-2.108-32.949-49.574v-309.971h-60.235v309.971c0 27.166 0 109.809 93.184 109.809 40.297 0 88.305-19.576 88.305-112.941l-0.422-387.313h0.12v-87.763c0-70.656-73.728-134.987-154.624-134.987-77.824 0-146.131 62.103-146.131 132.879v4.457h-0.422v572.536c0 94.75 65.175 196.728 208.354 196.728 140.529-0.060 214.076-98.967 214.076-196.728z" />
<glyph unicode="&#xe648;" glyph-name="angle-up" d="M985.088 147.441l-42.586-42.586-430.502 430.441-430.441-430.441-42.586 42.586 473.028 473.028 473.088-473.028z" />
<glyph unicode="&#xe649;" glyph-name="angle-right" d="M795.528 353.687l-473.088-473.088-42.586 42.586 430.441 430.441-430.441 430.562 42.586 42.586 473.088-473.088z" />
<glyph unicode="&#xe64a;" glyph-name="angle-left" d="M313.645 353.747l430.441-430.502-42.586-42.586-473.028 473.088 473.088 473.028 42.586-42.586-430.502-430.441z" />
<glyph unicode="&#xe64b;" glyph-name="angle-down" d="M985.088 558.306l-473.148-473.088-473.028 473.088 42.586 42.586 430.381-430.441 430.562 430.502 42.647-42.647z" />
<glyph unicode="&#xe64c;" glyph-name="check" d="M928.708 757.143l-532.058-812.273-296.237 264.192 40.117 44.936 244.013-217.69 493.809 753.845 50.357-33.009z" />
<glyph unicode="&#xe64d;" glyph-name="check-box" d="M843.294 516.984h60.235v-616.749h-843.294v843.294h505.555v-60.235h-445.32v-722.824h722.824v556.514zM292.382 373.323l-42.647-42.647 206.848-206.848 457.005 693.429-50.296 33.19-416.346-631.748-154.564 154.624z" />
<glyph unicode="&#xe64e;" glyph-name="camera" d="M358.882 683.294v60.235h-175.646v-60.235h-183.236v-722.824h1024v722.824h-665.118zM963.765 20.706h-903.529v421.647h394.963c-20.781-35.599-33.551-76.439-33.551-120.471 0-132.879 108.062-240.941 240.941-240.941s240.941 108.062 240.941 240.941c0 44.032-12.77 84.872-33.551 120.471h93.786v-421.647zM843.294 321.882c0-99.629-81.077-180.706-180.706-180.706s-180.706 81.077-180.706 180.706 81.077 180.706 180.706 180.706 180.706-81.077 180.706-180.706zM820.284 502.588c-42.406 36.984-97.099 60.235-157.696 60.235s-115.29-23.251-157.696-60.235h-444.657v120.471h903.529v-120.471h-143.48z" />
<glyph unicode="&#xe64f;" glyph-name="announcement" d="M992.015 730.157h-116.073c-17.589 0-31.985-14.095-31.985-31.383v-40.177l-662.287-242.748v16.264c0 25.901-21.564 47.044-48.008 47.044h-85.655c-26.443 0-48.008-21.143-48.008-47.044v-282.383c0-25.841 21.564-47.044 48.008-47.044h85.655c26.383 0 48.008 21.203 48.008 47.044v19.938l62.283-11.384c-1.385-9.818-2.289-19.637-2.289-29.576 0-114.266 94.027-207.27 209.559-207.27 99.81 0 182.513 67.945 203.595 161.551l189.139-34.696v-39.695c0-17.288 14.396-31.383 31.985-31.383h116.073c17.589 0 31.985 14.095 31.985 31.383v690.176c0 17.288-14.396 31.383-31.985 31.383zM451.223-18.327c-82.342 0-149.323 65.958-149.323 147.034 0 6.264 1.626 12.348 2.409 18.552l291.539-53.489c-15.902-65.175-74.391-112.098-144.625-112.098zM963.765 37.451h-59.573v61.018l-782.758 143.541v-79.029h-61.199v256h61.199v-89.389l782.758 286.901v53.429h59.573v-632.471z" />
<glyph unicode="&#xe650;" glyph-name="brush" d="M958.524 756.661l-391.529-572.235-49.694 33.973 391.529 572.235 49.694-33.973zM542.118 21.188c0-66.44-54.031-120.471-120.471-120.471-12.228 0-32.407-0.904-32.587-0.904h-328.523l274.251 206.667c9.035 6.264 51.742 35.177 86.859 35.177 66.44 0 120.471-54.031 120.471-120.471zM481.882 21.188c0 33.19-27.046 60.235-60.235 60.235-10.541 0-35.057-12.228-51.381-23.672l-129.687-97.762h146.552c3.795 0.181 22.648 0.964 34.515 0.964 33.19 0 60.235 27.046 60.235 60.235z" />
<glyph unicode="&#xe651;" glyph-name="briefcase" d="M421.647 80.941v90.353h60.235v-30.118h60.235v30.118h60.235v-90.353h-180.706zM1024 201.412h-60.235v-361.412h-903.529v361.412h-60.235v481.882h217.811c56.501 110.231 168.96 180.706 294.189 180.706s237.749-70.536 294.189-180.706h217.811v-481.882zM287.262 683.294h449.596c-49.694 74.27-133.12 120.471-224.798 120.471s-175.104-46.261-224.798-120.471zM903.529 201.412h-783.059v-301.176h783.059v301.176zM963.765 623.059h-903.529v-361.412h903.529v361.412z" />
<glyph unicode="&#xe652;" glyph-name="bolt" d="M862.148 742.807h-430.803l-140.408-422.49h100.352l-121.073-364.544 571.211 484.954h-174.923l195.644 302.080zM677.466 380.491l-282.323-239.676 79.631 239.676h-100.292l100.292 302.080h276.6l-195.644-302.080h121.736z" />
<glyph unicode="&#xe653;" glyph-name="bolt-alt" d="M712.584 382.118l-230.46-435.682-53.248 28.13 183.718 347.317h-307.742l295.153 438.453 49.935-33.672-231.966-344.546h294.611z" />
<glyph unicode="&#xe654;" glyph-name="blackboard" d="M542.118 743.529v120.471h-60.235v-120.471h-421.647v-602.353h903.529v602.353h-421.647zM903.529 201.412h-783.059v481.882h783.059v-481.882zM210.824 80.941h602.353v-60.235h-155.648l90.594-140.107-50.598-32.708-111.736 172.815h-43.671v-180.706h-60.235v180.706h-42.888l-112.58-172.875-50.477 32.828 91.196 140.047h-156.311v60.235z" />
<glyph unicode="&#xe655;" glyph-name="bag" d="M783.059 623.059v144.203c0 53.308-44.393 96.738-98.967 96.738h-343.281c-54.513 0-98.906-43.43-98.906-96.738v-144.203h-181.67v-783.059h903.529v783.059h-180.706zM302.14 767.262c0 20.119 17.348 36.503 38.671 36.503h343.281c21.384 0 38.731-16.384 38.731-36.503v-144.203h-420.683v144.203zM903.529-99.765h-783.059v481.882h783.059v-481.882zM903.529 442.353h-783.059v120.471h121.434v-38.731h60.235v38.731h420.683v-38.731h60.235v38.731h120.471v-120.471z" />
<glyph unicode="&#xe656;" glyph-name="move" d="M819.381 180.39l-42.526 42.647 99.027 98.846h-333.764v-333.764l98.846 99.027 42.647-42.526-171.61-171.972-171.61 171.972 42.647 42.526 98.846-99.027v333.764h-333.764l99.027-98.846-42.526-42.647-171.972 171.61 171.972 171.61 42.526-42.647-99.027-98.846h333.764v333.764l-98.846-99.027-42.647 42.526 171.61 171.972 171.61-171.972-42.647-42.526-98.846 99.027v-333.764h333.764l-99.027 98.846 42.526 42.647 171.972-171.61-171.972-171.61z" />
<glyph unicode="&#xe657;" glyph-name="arrows-vertical" d="M701.259 137.382l43.128-42.044-232.388-238.231-232.388 238.17 43.128 42.044 159.142-163.057v755.471l-159.142-163.117-43.128 42.104 232.388 238.17 232.388-238.17-43.128-42.044-159.142 163.057v-755.531l159.142 163.177z" />
<glyph unicode="&#xe658;" glyph-name="arrows-horizontal" d="M1006.893 352l-238.17-232.388-42.044 43.128 163.057 159.142h-755.471l163.117-159.142-42.044-43.128-238.231 232.388 238.17 232.388 42.044-43.128-163.057-159.142h755.531l-163.117 159.142 42.044 43.128 238.17-232.388z" />
<glyph unicode="&#xe659;" glyph-name="fullscreen" d="M963.524 180.209l0.241-279.974-280.034 0.241 0.060 60.235 177.092-0.181-348.883 348.823-348.883-348.883 177.092 0.181 0.060-60.235-280.034-0.181 0.241 280.034 60.235-0.060-0.181-177.032 348.883 348.823-348.883 348.883 0.181-177.032-60.235-0.060-0.241 279.974 280.034-0.241-0.060-60.235-177.092 0.181 348.883-348.883 348.883 348.883-177.092-0.181-0.060 60.235 280.034 0.241-0.241-280.034-60.235 0.060 0.181 177.032-348.883-348.823 348.883-348.883-0.181 177.032 60.235 0.060z" />
<glyph unicode="&#xe65a;" glyph-name="arrow-top-right" d="M963.765 803.945v-542.298h-60.235v439.537l-621.448-620.243-42.586 42.647 621.327 620.122h-440.681v60.235h543.624z" />
<glyph unicode="&#xe65b;" glyph-name="arrow-top-left" d="M740.412 80.941l-621.448 620.243v-439.537h-60.235v542.298h543.624v-60.235h-440.681l621.327-620.122-42.586-42.647z" />
<glyph unicode="&#xe65c;" glyph-name="arrow-circle-up" d="M512 515.057l262.264-262.264-42.586-42.586-219.678 219.678-219.618-219.618-42.586 42.586 262.204 262.204zM1024 352c0-282.323-229.677-512-512-512s-512 229.677-512 512 229.677 512 512 512 512-229.677 512-512zM963.765 352c0 249.133-202.632 451.765-451.765 451.765s-451.765-202.632-451.765-451.765 202.632-451.765 451.765-451.765 451.765 202.632 451.765 451.765z" />
<glyph unicode="&#xe65d;" glyph-name="arrow-circle-right" d="M412.853 614.264l262.204-262.264-262.264-262.264-42.586 42.586 219.678 219.678-219.678 219.618 42.647 42.647zM1024 352c0-282.323-229.677-512-512-512s-512 229.677-512 512 229.677 512 512 512 512-229.677 512-512zM963.765 352c0 249.133-202.632 451.765-451.765 451.765s-451.765-202.632-451.765-451.765 202.632-451.765 451.765-451.765 451.765 202.632 451.765 451.765z" />
<glyph unicode="&#xe65e;" glyph-name="arrow-circle-left" d="M653.794 571.618l-219.678-219.618 219.618-219.618-42.586-42.586-262.204 262.204 262.264 262.264 42.586-42.647zM1024 352c0-282.323-229.677-512-512-512s-512 229.677-512 512 229.677 512 512 512 512-229.677 512-512zM963.765 352c0 249.133-202.632 451.765-451.765 451.765s-451.765-202.632-451.765-451.765 202.632-451.765 451.765-451.765 451.765 202.632 451.765 451.765z" />
<glyph unicode="&#xe65f;" glyph-name="arrow-circle-down" d="M731.618 493.794l42.586-42.586-262.204-262.264-262.264 262.204 42.586 42.586 219.678-219.618 219.618 219.678zM1024 352c0-282.323-229.677-512-512-512s-512 229.677-512 512 229.677 512 512 512 512-229.677 512-512zM963.765 352c0 249.133-202.632 451.765-451.765 451.765s-451.765-202.632-451.765-451.765 202.632-451.765 451.765-451.765 451.765 202.632 451.765 451.765z" />
<glyph unicode="&#xe660;" glyph-name="angle-double-up" d="M512 498.191l412.853-412.853-42.586-42.586-370.266 370.266-370.206-370.206-42.586 42.586 412.792 412.792zM512 704.738l370.206-370.206 42.586 42.586-412.792 412.853-412.853-412.853 42.647-42.586 370.206 370.206z" />
<glyph unicode="&#xe661;" glyph-name="angle-double-right" d="M580.909 352l-412.853-412.853-42.586 42.586 370.206 370.266-370.206 370.206 42.586 42.647 412.853-412.853zM459.836 764.853l-42.586-42.647 370.206-370.206-370.206-370.206 42.586-42.586 412.792 412.792-412.792 412.853z" />
<glyph unicode="&#xe662;" glyph-name="angle-double-left" d="M481.099 352l370.206-370.206-42.586-42.586-412.792 412.792 412.853 412.853 42.586-42.586-370.266-370.266zM559.586 722.266l-42.586 42.586-412.853-412.853 412.853-412.853 42.586 42.586-370.206 370.266 370.206 370.266z" />
<glyph unicode="&#xe663;" glyph-name="angle-double-down" d="M512 222.856l-412.853 412.853 42.586 42.586 370.266-370.206 370.206 370.206 42.586-42.586-412.792-412.853zM512 16.248l-370.206 370.266-42.647-42.586 412.853-412.853 412.853 412.853-42.586 42.586-370.266-370.266z" />
<glyph unicode="&#xe664;" glyph-name="zip" d="M582.295 864h-461.824v-1024h783.059v704.271l-321.235 319.729zM602.353 759.070l197.15-196.247h-197.15v196.247zM180.706-99.765v903.529h180.706v-60.235h60.235v60.235h120.471v-301.176h301.176v-602.353h-662.588zM301.176 382.118h60.235v-60.235h-60.235v60.235zM361.412 382.118v60.235h60.235v-60.235h-60.235zM361.412 502.588v60.235h60.235v-60.235h-60.235zM301.176 502.588h60.235v-60.235h-60.235v60.235zM301.176 623.059h60.235v-60.235h-60.235v60.235zM361.412 623.059v60.235h60.235v-60.235h-60.235zM301.176 743.529h60.235v-60.235h-60.235v60.235zM361.412 298.451c-66.44 0-120.471-54.031-120.471-120.471s54.031-120.471 120.471-120.471c3.735 0 7.288 0.422 13.192 1.205 38.912 4.277 73.367 27.407 92.22 61.801 9.999 18.251 15.059 37.587 15.059 57.464 0 66.44-54.031 120.471-120.471 120.471zM413.997 149.368c-9.397-17.167-26.564-28.732-45.899-30.84l-6.746-0.843c-33.19 0-60.175 27.046-60.175 60.235s27.046 60.235 60.235 60.235 60.235-27.046 60.235-60.235c0-9.577-2.59-19.215-7.65-28.552z" />
<glyph unicode="&#xe665;" glyph-name="world" d="M512.964 864c-282.323 0-512-229.677-512-512s229.677-512 512-512 512 229.677 512 512-229.737 512-512 512zM62.705 321.882h176.911c2.65-61.681 12.71-122.338 30.901-180.706h-156.792c-28.973 54.573-46.743 115.832-51.019 180.706zM239.616 382.118h-176.911c4.277 64.873 22.046 126.133 51.019 180.706h156.612c-18.131-58.368-28.13-119.025-30.72-180.706zM334.125 562.824h355.147c19.878-58.127 31.443-118.784 34.274-180.706h-423.695c2.771 61.922 14.396 122.579 34.274 180.706zM299.851 321.882h423.755c-2.952-61.922-14.517-122.579-34.455-180.706h-354.846c-19.938 58.127-31.563 118.784-34.455 180.706zM783.842 321.882h179.381c-4.277-64.873-22.046-126.133-51.019-180.706h-159.262c18.191 58.368 28.25 119.025 30.901 180.706zM783.842 382.118c-2.59 61.681-12.589 122.338-30.72 180.706h159.081c28.913-54.573 46.682-115.832 51.019-180.706h-179.381zM873.532 623.059h-141.794c-23.612 57.525-55.176 111.917-93.365 162.635 95.051-27.528 176.971-85.534 235.159-162.635zM546.575 802.078c49.634-54.031 89.389-114.447 118.784-179.019h-307.32c29.335 64.512 69.030 124.868 118.664 178.899 11.987 0.904 23.974 1.807 36.262 1.807 11.324 0 22.468-0.904 33.611-1.687zM384.482 784.911c-37.888-50.477-69.331-104.629-92.762-161.852h-139.384c57.525 76.318 138.36 133.963 232.147 161.852zM152.335 80.941h139.565c23.552-57.284 55.115-111.496 93.184-161.973-94.027 27.768-175.104 85.474-232.749 161.973zM477.425-97.958c-49.754 54.031-89.63 114.387-119.145 178.899h306.839c-29.515-64.572-69.391-124.988-119.206-179.019-10.903-0.783-21.865-1.687-32.949-1.687-12.047 0-23.793 0.904-35.539 1.807zM637.711-81.875c38.31 50.718 70.114 105.231 93.786 162.816h142.035c-58.308-77.282-140.469-135.349-235.821-162.816z" />
<glyph unicode="&#xe666;" glyph-name="wheelchair" d="M656.625 89.976l58.85-12.83c-30.419-139.625-151.251-237.146-293.828-237.146-166.069 0-301.176 135.108-301.176 301.176 0 136.734 92.22 256.542 224.376 291.298l15.3-58.248c-105.653-27.829-179.441-123.663-179.441-233.050 0-132.879 108.062-240.941 240.941-240.941 114.025 0 210.643 78.005 234.978 189.741zM963.765-46.818v-60.235h-112.52l-57.525 248.049h-370.929l-32.768 486.822c-51.019 14.035-88.847 60.296-88.847 115.712 0 66.44 54.031 120.471 120.471 120.471s120.471-54.031 120.471-120.471c0-56.501-39.153-103.605-91.618-116.616l16.264-241.604 218.775 54.272 14.456-58.488-229.195-56.802 8.312-123h362.496l57.525-248.049h64.632zM421.647 683.294c33.25 0 60.235 27.046 60.235 60.235s-26.985 60.235-60.235 60.235-60.235-27.046-60.235-60.235 26.985-60.235 60.235-60.235z" />
<glyph unicode="&#xe667;" glyph-name="view-list" d="M0 864v-240.941h1024v240.941h-1024zM963.765 683.294h-903.529v120.471h903.529v-120.471zM0 261.647h1024v240.941h-1024v-240.941zM60.235 442.353h903.529v-120.471h-903.529v120.471zM0-99.765h1024v240.941h-1024v-240.941zM60.235 80.941h903.529v-120.471h-903.529v120.471z" />
<glyph unicode="&#xe668;" glyph-name="view-list-alt" d="M301.176 864v-240.941h722.824v240.941h-722.824zM963.765 683.294h-602.353v120.471h602.353v-120.471zM301.176 261.647h722.824v240.941h-722.824v-240.941zM361.412 442.353h602.353v-120.471h-602.353v120.471zM301.176-99.765h722.824v240.941h-722.824v-240.941zM361.412 80.941h602.353v-120.471h-602.353v120.471zM0 623.059h240.941v240.941h-240.941v-240.941zM60.235 803.765h120.471v-120.471h-120.471v120.471zM0 261.647h240.941v240.941h-240.941v-240.941zM60.235 442.353h120.471v-120.471h-120.471v120.471zM0-99.765h240.941v240.941h-240.941v-240.941zM60.235 80.941h120.471v-120.471h-120.471v120.471z" />
<glyph unicode="&#xe669;" glyph-name="view-grid" d="M0 442.353h421.647v421.647h-421.647v-421.647zM60.235 803.765h301.176v-301.176h-301.176v301.176zM602.353 864v-421.647h421.647v421.647h-421.647zM963.765 502.588h-301.176v301.176h301.176v-301.176zM0-160h421.647v421.647h-421.647v-421.647zM60.235 201.412h301.176v-301.176h-301.176v301.176zM602.353-160h421.647v421.647h-421.647v-421.647zM662.588 201.412h301.176v-301.176h-301.176v301.176z" />
<glyph unicode="&#xe66a;" glyph-name="uppercase" d="M421.647 623.059h60.235v-120.471h-60.235v60.235h-120.471v-481.882h60.235v-60.235h-180.706v60.235h60.235v481.882h-120.471v-60.235h-60.235v120.471h361.412zM903.529 623.059h-361.412v-120.471h60.235v60.235h120.471v-481.882h-60.235v-60.235h180.706v60.235h-60.235v481.882h120.471v-60.235h60.235v120.471h-60.235z" />
<glyph unicode="&#xe66b;" glyph-name="upload" d="M1024-99.765v-60.235h-1024v60.235h1024zM481.822 761.118v-680.177h60.235v680.297l219.678-219.678 42.586 42.586-292.322 292.322-292.382-292.322 42.586-42.586 219.618 219.558z" />
<glyph unicode="&#xe66c;" glyph-name="underline" d="M903.529 803.765v-60.235h-60.235v-389.060c0-182.633-148.6-331.294-331.294-331.294s-331.294 148.661-331.294 331.294v389.060h-60.235v60.235h180.706v-60.235h-60.235v-389.060c0-149.444 121.615-271.059 271.059-271.059s271.059 121.615 271.059 271.059v389.060h-60.235v60.235h180.706zM120.471-99.765h783.059v60.235h-783.059v-60.235z" />
<glyph unicode="&#xe66d;" glyph-name="truck" d="M1024 683.294h-662.588v-180.706h-173.056l-71.68-240.941h-116.676v-299.791h120.591c0-0.482-0.12-0.904-0.12-1.385 0-66.44 54.031-120.471 120.471-120.471s120.471 54.031 120.471 120.471c0 0.482-0.12 0.904-0.12 1.385h301.478c-0.060-0.482-0.181-0.904-0.181-1.385 0-66.44 54.031-120.471 120.471-120.471s120.471 54.031 120.471 120.471c0 0.482-0.12 0.904-0.12 1.385h120.591v721.438zM233.291 442.353h128.12v-180.706h-181.911l53.79 180.706zM240.941-99.765c-33.19 0-60.235 27.046-60.235 60.235s27.046 60.235 60.235 60.235 60.235-27.046 60.235-60.235-27.046-60.235-60.235-60.235zM783.059-99.765c-33.19 0-60.235 27.046-60.235 60.235s27.046 60.235 60.235 60.235 60.235-27.046 60.235-60.235-27.046-60.235-60.235-60.235zM963.765 22.091h-77.764c-21.082 35.057-59.091 58.85-102.942 58.85s-81.86-23.793-102.942-58.85h-336.233c-21.082 35.057-59.091 58.85-102.942 58.85s-81.86-23.793-102.942-58.85h-77.764v179.32h361.412v421.647h542.118v-600.968z" />
<glyph unicode="&#xe66e;" glyph-name="timer" d="M542.118 742.024v61.741h90.353v60.235h-240.941v-60.235h90.353v-61.741c-235.038-15.661-421.647-211.305-421.647-450.259 0-249.133 202.632-451.765 451.765-451.765s451.765 202.632 451.765 451.765c0 238.953-186.609 434.598-421.647 450.259zM512-99.765c-215.883 0-391.529 175.646-391.529 391.529s175.646 391.529 391.529 391.529 391.529-175.646 391.529-391.529-175.646-391.529-391.529-391.529zM542.118 321.882h240.941v-60.235h-301.176v240.941h60.235v-180.706z" />
<glyph unicode="&#xe66f;" glyph-name="ticket" d="M572.235 803.765v-30.118c0-33.25-27.046-60.235-60.235-60.235s-60.235 26.985-60.235 60.235v30.118h-210.824v-903.529h210.824v30.118c0 33.25 27.046 60.235 60.235 60.235s60.235-26.985 60.235-60.235v-30.118h210.824v903.529h-210.824zM395.324 743.529c13.432-51.863 60.657-90.353 116.676-90.353s103.243 38.49 116.676 90.353h94.148v-361.412h-421.647v361.412h94.148zM628.676-39.529c-13.372 51.863-60.597 90.353-116.676 90.353s-103.243-38.49-116.676-90.353h-94.148v361.412h421.647v-361.412h-94.148z" />
<glyph unicode="&#xe670;" glyph-name="thumb-up" d="M925.696 278.212c5-12.228 7.951-28.070 7.951-48.61 0-31.684-14.456-58.488-37.406-74.27 8.312-14.095 12.288-30.178 12.288-46.261 0-33.852-18.854-62.705-47.285-77.583 4.819-11.324 7.65-25.299 7.77-42.466 0.12-27.046-7.77-48.791-23.552-64.632-16.625-16.685-40.177-25.178-69.933-25.178h-338.824c-45.417 0-76.68 24.335-99.569 42.165-13.192 10.24-25.66 19.998-34.334 19.998h-126.615c-16.625 0-30.118 13.493-30.118 30.118s13.493 30.118 30.118 30.118h126.615c29.335 0 51.622-17.348 71.319-32.648 19.456-15.119 37.828-29.455 62.584-29.455h338.824c12.77 0 22.468 2.59 27.226 7.409 4.096 4.096 6.144 11.445 6.084 21.805-0.181 26.323-5.542 31.985-61.862 31.985h-6.385c-16.625 0-30.118 13.493-30.118 30.118s13.493 30.118 30.118 30.118h75.776c18.492 0 31.925 11.866 31.925 28.19 0 27.106-27.046 31.142-43.189 31.142h-45.176c-16.625 0-30.118 13.493-30.118 30.118s13.493 30.118 30.118 30.118h86.558c19.938 0 26.985 15.059 26.985 29.154 0 29.636 0 29.636-26.443 30.419-3.072 0.060-6.264 0.301-9.397 0.422h-64.813c-16.625 0-30.118 13.493-30.118 30.118s13.493 30.118 30.118 30.118h59.151c0.422 0 0.783 0.241 1.205 0.241h38.008c17.769 0 32.286 13.673 32.286 30.419s-14.456 30.419-32.286 30.419h-268.228c-8.975 0-17.468 3.976-23.191 10.903-5.722 6.927-8.072 16.023-6.385 24.817l31.322 164.683c3.735 16.444 14.336 63.066 1.988 83.727-3.192 5.361-10.963 11.083-20.48 11.083 0 0 0 0 0 0-11.806 0-23.913-9.457-34.093-26.504l-195.223-315.272c-5.481-8.855-15.179-14.276-25.6-14.276h-154.744c-16.625 0-30.118 13.493-30.118 30.118s13.493 30.118 30.118 30.118h137.999l186.007 300.574c28.672 48.188 65.958 55.477 85.534 55.477 0 0 0 0 0.060 0 29.214 0 57.525-15.902 72.162-40.418 21.926-36.683 14.336-87.040 5.24-126.856l-24.275-127.94h231.846c51.019 0 92.521-40.659 92.521-90.654 0.060-29.997-14.938-56.681-37.948-73.186z" />
<glyph unicode="&#xe671;" glyph-name="thumb-down" d="M877.508 291.704c0-16.625-13.493-30.118-30.118-30.118h-137.999l-186.007-300.574c-28.732-48.188-65.958-55.477-85.534-55.477 0 0-0.060 0-0.060 0-29.214 0-57.525 15.902-72.222 40.418-21.926 36.744-14.336 87.1-5.24 126.856l24.275 127.94h-231.846c-51.019 0-92.461 40.659-92.461 90.654 0 33.009 18.071 61.982 45.056 77.824-9.216 12.589-15.059 27.407-15.059 43.912 0 31.684 14.456 58.488 37.406 74.27-8.312 14.155-12.288 30.238-12.288 46.321 0 34.635 19.757 63.97 49.212 78.607-8.011 15.42-9.758 31.081-9.758 41.562 0 56.139 34.997 89.63 93.545 89.63h338.824c45.417 0 76.74-24.335 99.569-42.165 13.192-10.24 25.66-19.998 34.274-19.998h126.675c16.625 0 30.118-13.493 30.118-30.118s-13.493-30.118-30.118-30.118h-126.675c-29.335 0-51.622 17.348-71.319 32.648-19.396 15.24-37.768 29.515-62.524 29.515h-338.824c-28.13 0-33.31-9.939-33.31-29.395 0-9.517 0-31.744 61.862-31.744h6.325c16.625 0 30.118-13.493 30.118-30.118s-13.493-30.118-30.118-30.118h-75.776c-18.492 0-31.864-11.866-31.864-28.19 0-27.106 27.046-31.142 43.189-31.142h45.176c16.625 0 30.118-13.493 30.118-30.118s-13.493-30.118-30.118-30.118h-86.498c-19.878 0-26.985-15.059-26.985-29.154 0-10.12 22.046-27.528 42.466-30.901h58.187c16.625 0 30.118-13.493 30.118-30.118s-13.493-30.118-30.118-30.118h-59.211c-0.422 0-0.783-0.241-1.205-0.241h-38.008c-17.769 0-32.226-13.673-32.226-30.419s14.456-30.419 32.226-30.419h268.228c8.975 0 17.468-3.976 23.191-10.903s8.072-16.023 6.385-24.817l-31.322-164.683c-3.735-16.444-14.336-63.006-1.988-83.727 3.192-5.301 10.963-11.083 20.48-11.083 11.806 0 23.913 9.457 34.093 26.504l195.102 315.272c5.481 8.855 15.179 14.276 25.6 14.276h154.744c16.806 0 30.238-13.493 30.238-30.118z" />
<glyph unicode="&#xe672;" glyph-name="text" d="M843.294 743.529v-180.706h-60.235v120.471h-240.941v-722.824h98.967v-60.235h-258.168v60.235h98.967v722.824h-240.941v-120.471h-60.235v180.706h662.588z" />
<glyph unicode="&#xe673;" glyph-name="stats-up" d="M1024-99.765v-60.235h-1024v60.235h1024zM313.404 383.563l253.229-182.272 336.896 376.531v-137.577h60.235v243.049h-243.11v-60.235h142.517l-305.393-341.233-248.712 179.14-263.349-238.291 40.418-44.634 227.268 205.523z" />
<glyph unicode="&#xe674;" glyph-name="stats-down" d="M311.176 333.749l-263.288 238.291 40.358 44.634 227.268-205.583 253.229 182.272 336.896-376.471v137.638h60.235v-243.11h-243.11v60.235h142.517l-305.333 341.233-248.772-179.14zM0-99.765v-60.235h1024v60.235h-1024z" />
<glyph unicode="&#xe675;" glyph-name="split-v" d="M641.265 72.147l42.586-42.586-171.851-171.912-171.912 171.912 42.586 42.586 99.208-99.208v227.208h60.235v-227.208l99.147 99.208zM481.882 731.061v-227.208h60.235v227.208l99.147-99.147 42.586 42.586-171.851 171.851-171.912-171.851 42.586-42.586 99.208 99.147zM0 382.118v-60.235h1024v60.235h-1024z" />
<glyph unicode="&#xe676;" glyph-name="split-h" d="M132.939 382.118h227.208v-60.235h-227.208l99.147-99.147-42.586-42.586-171.851 171.851 171.912 171.912 42.586-42.586-99.208-99.208zM834.5 523.912l-42.586-42.586 99.147-99.208h-227.208v-60.235h227.208l-99.147-99.147 42.586-42.586 171.851 171.851-171.851 171.912zM481.882-160h60.235v1024h-60.235v-1024z" />
<glyph unicode="&#xe677;" glyph-name="smallcap" d="M361.412 507.106h60.235v-120.471h-60.235v60.235h-120.471v-481.882h60.235v-60.235h-180.706v60.235h60.235v481.882h-120.471v-60.235h-60.235v120.471h361.412zM963.765 743.529h-602.353v-155.226h60.235v94.991h240.941v-722.824h-60.235v-60.235h180.706v60.235h-60.235v722.824h240.941v-94.991h60.235v155.226h-60.235z" />
<glyph unicode="&#xe678;" glyph-name="shine" d="M512 562.824c-116.254 0-210.824-94.569-210.824-210.824s94.569-210.824 210.824-210.824 210.824 94.569 210.824 210.824-94.569 210.824-210.824 210.824zM512 201.412c-83.004 0-150.588 67.584-150.588 150.588s67.584 150.588 150.588 150.588 150.588-67.584 150.588-150.588-67.584-150.588-150.588-150.588zM542.118 623.059h-60.235v180.706h60.235v-180.706zM481.882 80.941h60.235v-180.706h-60.235v180.706zM963.765 382.118v-60.235h-180.706v60.235h180.706zM240.941 321.882h-180.706v60.235h180.706v-60.235zM724.992 522.406l-42.586 42.586 127.759 127.759 42.586-42.586-127.759-127.759zM299.008 181.594l42.586-42.586-127.759-127.759-42.586 42.586 127.759 127.759zM724.992 181.594l127.759-127.759-42.586-42.586-127.759 127.759 42.586 42.586zM299.008 522.406l-127.759 127.759 42.586 42.586 127.759-127.759-42.586-42.586z" />
<glyph unicode="&#xe679;" glyph-name="shift-right" d="M503.206 644.382l292.322-292.382-292.382-292.382-42.586 42.586 219.678 219.678h-680.237v60.235h680.177l-219.618 219.618 42.647 42.647zM963.765 864v-1024h60.235v1024h-60.235z" />
<glyph unicode="&#xe67a;" glyph-name="shift-left" d="M1024 321.822h-680.177l219.618-219.618-42.586-42.586-292.382 292.382 292.382 292.382 42.586-42.586-219.738-219.738h680.297v-60.235zM0-160h60.235v1024h-60.235v-1024z" />
<glyph unicode="&#xe67b;" glyph-name="shield" d="M903.529 802.801c0-99.629-81.077-180.706-180.706-180.706s-180.706 81.077-180.706 180.706h-60.235c0-99.629-81.077-180.706-180.706-180.706s-180.706 81.077-180.706 180.706h-60.235v-412.431c0-325.572 421.768-481.882 439.778-488.328l9.999-3.674 10.059 3.494c18.071 6.204 443.693 155.829 443.693 490.195v410.744h-60.235zM120.471 390.43v253.229c44.152-50.116 108.845-81.8 180.706-81.8 72.041 0 136.493 32.105 180.706 82.462v-669.455c-99.93 44.996-361.412 184.742-361.412 415.563zM903.529 392.056c0-234.616-258.59-371.23-361.412-416.346v668.672c44.213-50.357 108.664-82.462 180.706-82.462 71.861 0 136.553 31.624 180.706 81.739v-251.603z" />
<glyph unicode="&#xe67c;" glyph-name="notepad" d="M60.235 864v-1024h903.529v1024h-903.529zM903.529-99.765h-783.059v903.529h120.471v-65.777c-34.997-12.469-60.235-45.598-60.235-84.811 0-49.815 40.538-90.353 90.353-90.353s90.353 40.538 90.353 90.353c0 39.213-25.239 72.343-60.235 84.811v65.777h180.706v-65.777c-34.997-12.469-60.235-45.598-60.235-84.811 0-49.815 40.538-90.353 90.353-90.353s90.353 40.538 90.353 90.353c0 39.213-25.239 72.343-60.235 84.811v65.777h180.706v-65.777c-34.997-12.469-60.235-45.598-60.235-84.811 0-49.815 40.538-90.353 90.353-90.353s90.353 40.538 90.353 90.353c0 39.213-25.239 72.343-60.235 84.811v65.777h120.471v-903.529zM301.176 653.176c0-16.565-13.553-30.118-30.118-30.118s-30.118 13.553-30.118 30.118 13.553 30.118 30.118 30.118 30.118-13.553 30.118-30.118zM542.118 653.176c0-16.565-13.553-30.118-30.118-30.118s-30.118 13.553-30.118 30.118 13.553 30.118 30.118 30.118 30.118-13.553 30.118-30.118zM783.059 653.176c0-16.565-13.553-30.118-30.118-30.118s-30.118 13.553-30.118 30.118 13.553 30.118 30.118 30.118 30.118-13.553 30.118-30.118z" />
<glyph unicode="&#xe67d;" glyph-name="server" d="M1024 653.176c0 136.915-263.831 210.824-512 210.824s-512-73.909-512-210.824c0-8.975 1.446-19.155 4.819-30.118h-4.819v-572.235c0-136.915 263.831-210.824 512-210.824s512 73.909 512 210.824v572.235h-4.819c3.373 10.963 4.819 21.143 4.819 30.118zM512 803.765c258.59 0 451.765-79.511 451.765-150.588 0-23.974-23.371-50.296-65.837-74.029-85.474-47.947-229.737-76.559-385.928-76.559s-300.454 28.612-385.928 76.559c-42.466 23.733-65.837 50.056-65.837 74.029 0 71.078 193.175 150.588 451.765 150.588zM512-99.765c-258.59 0-451.765 79.511-451.765 150.588v98.364c10.541-8.132 22.106-16.324 36.382-24.275 94.088-52.646 249.374-84.088 415.383-84.088 20.781 0 41.382 0.482 61.621 1.446 142.216 6.686 271.36 36.563 353.702 82.643v0c0 0.060 0.060 0.060 0.060 0.060 14.216 8.011 25.901 16.143 36.382 24.275v-98.424c0-71.078-193.175-150.588-451.765-150.588zM897.928 177.498c-85.534-47.887-229.737-76.499-385.928-76.499-19.516 0-38.912 0.482-57.946 1.325-133.361 6.144-253.169 33.25-327.981 75.113v0c-42.406 23.853-65.837 50.176-65.837 74.15v98.424c10.541-8.132 22.167-16.324 36.442-24.275 94.027-52.646 249.314-84.088 415.322-84.088s321.295 31.443 415.322 84.088c14.276 7.951 25.901 16.143 36.442 24.275v-98.424c0-23.974-23.432-50.296-65.837-74.089zM897.867 378.323c-85.474-47.887-229.677-76.499-385.867-76.499s-300.393 28.612-385.867 76.499c-42.466 23.733-65.897 50.116-65.897 74.089v98.424c10.541-8.192 22.106-16.324 36.382-24.335 94.088-52.706 249.314-84.149 415.383-84.149s321.295 31.443 415.383 84.149c14.276 8.011 25.841 16.143 36.382 24.335v-98.424c0-23.974-23.432-50.357-65.897-74.089z" />
<glyph unicode="&#xe67e;" glyph-name="quote-right" d="M440.139 450.665c0 117.218-95.352 212.57-212.57 212.57-117.158 0-212.51-95.352-212.51-212.57 0-117.158 95.352-212.51 212.51-212.51 44.213 0 85.293 13.673 119.326 36.804-74.15-209.016-240.339-233.532-248.952-234.677l7.409-59.753c3.072 0.361 308.706 42.345 335.089 465.257l-0.783 0.060c0.060 1.626 0.482 3.132 0.482 4.819zM227.569 298.33c-83.968 0-152.275 68.307-152.275 152.275s68.307 152.335 152.275 152.335c84.028 0 152.335-68.367 152.335-152.335s-68.307-152.275-152.335-152.275zM1007.977 445.847c0.060 1.626 0.482 3.192 0.482 4.819 0 117.218-95.352 212.57-212.51 212.57s-212.51-95.352-212.51-212.57c0-117.158 95.352-212.51 212.51-212.51 44.213 0 85.293 13.673 119.326 36.804-74.089-209.016-240.339-233.532-248.952-234.677l7.409-59.753c3.072 0.361 308.706 42.345 335.089 465.257l-0.843 0.060zM795.949 298.33c-83.968 0-152.275 68.307-152.275 152.275s68.307 152.335 152.275 152.335 152.275-68.367 152.275-152.335-68.307-152.275-152.275-152.275z" />
<glyph unicode="&#xe67f;" glyph-name="quote-left" d="M793.239 405.368c-44.213 0-85.353-13.673-119.386-36.864 74.089 209.137 240.399 233.713 249.013 234.797l-7.409 59.753c-3.072-0.361-308.766-42.406-335.089-465.318l0.904-0.060c0-1.626-0.482-3.253-0.482-4.879 0-117.158 95.352-212.51 212.51-212.51s212.51 95.352 212.51 212.51-95.413 212.57-212.57 212.57zM793.239 40.523c-84.028 0-152.275 68.307-152.275 152.275s68.307 152.275 152.275 152.275 152.275-68.307 152.275-152.275-68.307-152.275-152.275-152.275zM224.858 405.368c-44.213 0-85.293-13.673-119.326-36.864 74.089 209.137 240.339 233.713 248.952 234.797l-7.409 59.753c-3.072-0.361-308.706-42.406-335.149-465.318l0.904-0.060c0-1.626-0.482-3.253-0.482-4.879 0-117.158 95.352-212.51 212.51-212.51s212.51 95.352 212.51 212.51-95.292 212.57-212.51 212.57zM224.858 40.523c-84.028 0-152.275 68.307-152.275 152.275s68.307 152.275 152.275 152.275 152.275-68.307 152.275-152.275-68.247-152.275-152.275-152.275z" />
<glyph unicode="&#xe680;" glyph-name="pulse" d="M863.172 382.118l-113.001 263.65-207.089-589.282-241.845 789.685-142.758-464.053h-158.479v-60.235h202.933l98.184 319.006 237.929-777.216 216.666 616.207 67.704-157.997h200.584v60.235z" />
<glyph unicode="&#xe681;" glyph-name="printer" d="M1024 502.588h-181.188v109.508l-271.24 251.904h-391.349v-361.412h-180.224v-481.882h180.706v-186.729h662.588v186.729h180.706v481.882zM601.871 753.649l140.649-130.59h-140.649v130.59zM240.459 803.765h301.176v-240.941h240.941v-60.235h-542.118v301.176zM783.059-105.788h-542.118v301.176h542.118v-301.176zM963.765 80.941h-120.471v174.682h-662.588v-174.682h-120.471v361.412h903.529v-361.412zM662.95 80.941h-361.773v60.235h361.773v-60.235zM542.118-39.529h-240.941v60.235h240.941v-60.235zM180.706 321.882h-60.235v60.235h60.235v-60.235zM301.176 321.882h-60.235v60.235h60.235v-60.235z" />
<glyph unicode="&#xe682;" glyph-name="power-off" d="M963.765 291.765c0-249.133-202.632-451.765-451.765-451.765s-451.765 202.632-451.765 451.765c0 210.703 149.143 396.288 354.665 441.284l12.89-58.85c-178.056-38.972-307.32-199.8-307.32-382.434 0-215.883 175.646-391.529 391.529-391.529s391.529 175.646 391.529 391.529c0 182.392-129.084 343.221-306.959 382.374l12.951 58.85c205.282-45.237 354.244-230.761 354.244-441.224zM542.118 864h-60.235v-602.353h60.235v602.353z" />
<glyph unicode="&#xe683;" glyph-name="plug" d="M180.706 623.059v-302.020c0-165.587 148.661-300.333 331.294-300.333s331.294 134.746 331.294 300.333v302.020h-662.588zM783.059 321.039c0-132.397-121.615-240.098-271.059-240.098s-271.059 107.701-271.059 240.098v241.784h542.118v-241.784zM422.611 683.294h-60.235v180.706h60.235v-180.706zM661.624 683.294h-60.235v180.706h60.235v-180.706zM481.882 20.706h60.235v-180.706h-60.235v180.706zM662.588 382.118h-301.176v60.235h301.176v-60.235zM662.588 261.647h-301.176v60.235h301.176v-60.235z" />
<glyph unicode="&#xe684;" glyph-name="pie-chart" d="M902.626 325.316l60.115-4.036c-15.842-236.122-213.835-421.045-450.741-421.045-249.133 0-451.765 202.632-451.765 451.765 0 235.219 183.537 433.092 417.912 450.5l4.457-60.055c-203.053-15.059-362.135-186.549-362.135-390.445 0-215.883 175.646-391.529 391.529-391.529 205.342 0 376.892 160.226 390.626 364.845zM1024 412.296v-30.118l-30.178-1.024h-450.68v482.906l30.178-0.060c248.531-0.542 450.68-203.234 450.68-451.704zM962.921 441.389c-13.432 190.946-167.213 345.931-359.544 361.111v-361.111h359.544z" />
<glyph unicode="&#xe685;" glyph-name="paragraph" d="M963.765 802.199h-663.070c-131.373 0-238.231-106.857-238.231-238.231s106.857-238.17 238.231-238.17h181.188v-425.562h60.235v841.728h121.374v-841.728h60.235v841.728h240.038v60.235zM481.882 385.973h-181.188c-98.184 0-177.995 79.812-177.995 177.935 0 98.184 79.812 177.995 177.995 177.995h181.188v-355.93z" />
<glyph unicode="&#xe686;" glyph-name="panel" d="M0 864v-1024h1024v1024h-1024zM963.765-99.765h-903.529v903.529h903.529v-903.529zM240.941 247.672v-166.731h60.235v166.731c44.454 13.131 77.161 53.85 77.161 102.46s-32.708 89.329-77.161 102.46v170.466h-60.235v-170.466c-44.454-13.131-77.161-53.85-77.161-102.46s32.708-89.389 77.161-102.46zM271.059 397.176c25.961 0 47.044-21.143 47.044-47.044s-21.082-47.044-47.044-47.044-47.044 21.082-47.044 47.044 21.082 47.044 47.044 47.044zM481.882 375.672v-294.731h60.235v294.731c44.454 13.131 77.161 53.85 77.161 102.46s-32.708 89.329-77.161 102.46v42.466h-60.235v-42.466c-44.454-13.131-77.161-53.85-77.161-102.46s32.708-89.389 77.161-102.46zM512 525.176c25.961 0 47.044-21.143 47.044-47.044s-21.082-47.104-47.044-47.104-47.044 21.143-47.044 47.104 21.082 47.044 47.044 47.044zM752.941 55.823c59.151 0 107.279 48.128 107.279 107.279 0 48.67-32.708 89.329-77.161 102.46v357.496h-60.235v-357.496c-44.454-13.131-77.161-53.85-77.161-102.46 0-59.151 48.128-107.279 107.279-107.279zM752.941 210.206c25.961 0 47.044-21.143 47.044-47.044s-21.143-47.044-47.044-47.044-47.044 21.143-47.044 47.044 21.082 47.044 47.044 47.044z" />
<glyph unicode="&#xe687;" glyph-name="package" d="M513.024 866.108l-513.024-194.018v-644.096l512-192.030 512 192.030v644.036l-510.976 194.078zM908.589 651.49l-155.768-58.428-394.963 149.926 155.106 58.669 395.625-150.167zM512 502.769l-396.408 148.661 157.154 59.392 394.601-149.805-155.347-58.248zM60.235 607.819l421.647-158.118v-538.022l-421.647 158.118v538.022zM542.118-88.32v538.022l421.647 158.118v-538.022l-421.647-158.118z" />
<glyph unicode="&#xe688;" glyph-name="music" d="M889.374 595.411l25.359 54.573-432.851 200.945v-595.004c-30.78 26.744-70.475 43.49-114.327 43.49-96.798 0-175.526-78.788-175.526-175.526s78.728-175.526 175.526-175.526 175.526 78.788 175.526 175.526c0 3.192-0.783 6.204-0.964 9.276v623.435l347.256-161.19zM367.556 8.599c-63.608 0-115.29 51.682-115.29 115.29s51.682 115.29 115.29 115.29 115.29-51.682 115.29-115.29-51.742-115.29-115.29-115.29z" />
<glyph unicode="&#xe689;" glyph-name="music-alt" d="M361.412 848.038v-555.49c-30.84 26.865-70.656 43.731-114.688 43.731-96.798 0-175.526-78.788-175.526-175.526s78.728-175.526 175.526-175.526c94.569 0 171.369 75.354 174.863 169.080v0 0.361c0.060 2.048 0.602 3.976 0.602 6.144s-0.482 4.036-0.542 6.084v367.074l542.118-106.074v-281.058c-30.901 27.166-70.957 44.213-115.29 44.213-96.798 0-175.526-78.788-175.526-175.526s78.728-175.526 175.526-175.526c95.473 0 172.996 76.68 175.104 171.61l0.422-0.12v706.921l-662.588 129.626zM246.724 45.463c-63.608 0-115.29 51.682-115.29 115.29s51.682 115.29 115.29 115.29c61.5 0 111.435-48.489 114.688-109.146v-12.228c-3.253-60.717-53.188-109.207-114.688-109.207zM421.647 595.29v179.622l542.118-106.135v-179.501l-542.118 106.014zM848.474-99.765c-63.608 0-115.29 51.682-115.29 115.29s51.682 115.29 115.29 115.29 115.29-51.682 115.29-115.29-51.682-115.29-115.29-115.29z" />
<glyph unicode="&#xe68a;" glyph-name="mouse" d="M512 864c-182.694 0-331.294-148.6-331.294-331.294v-361.412c0-182.694 148.6-331.294 331.294-331.294s331.294 148.6 331.294 331.294v361.412c0 182.694-148.6 331.294-331.294 331.294zM783.059 171.294c0-149.444-121.615-271.059-271.059-271.059s-271.059 121.615-271.059 271.059v361.412c0 149.444 121.615 271.059 271.059 271.059s271.059-121.615 271.059-271.059v-361.412zM512 653.176c-49.815 0-90.353-40.538-90.353-90.353v-120.471c0-49.815 40.538-90.353 90.353-90.353s90.353 40.538 90.353 90.353v120.471c0 49.815-40.538 90.353-90.353 90.353zM542.118 442.353c0-16.625-13.493-30.118-30.118-30.118s-30.118 13.493-30.118 30.118v120.471c0 16.625 13.493 30.118 30.118 30.118s30.118-13.493 30.118-30.118v-120.471z" />
<glyph unicode="&#xe68b;" glyph-name="mouse-alt" d="M512 864c-182.694 0-331.294-148.6-331.294-331.294v-361.412c0-182.694 148.6-331.294 331.294-331.294s331.294 148.6 331.294 331.294v361.412c0 182.694-148.6 331.294-331.294 331.294zM783.059 532.706v-30.118h-240.941v298.104c135.168-15.179 240.941-128.843 240.941-267.987zM481.882 800.693v-298.104h-240.941v30.118c0 139.144 105.773 252.808 240.941 267.987zM512-99.765c-149.444 0-271.059 121.615-271.059 271.059v271.059h542.118v-271.059c0-149.444-121.615-271.059-271.059-271.059z" />
<glyph unicode="&#xe68c;" glyph-name="money" d="M645.662 287.127v0l-0.602 0.602c-0.783 0.663-1.325 1.446-2.168 2.048l-0.181-0.241-100.593 77.222v343.763c68.668-13.131 120.471-70.114 120.471-138.3l30.057-3.614 30.178 3.614c0 101.195-78.848 184.44-180.706 198.536v93.244h-60.235v-93.244c-101.858-14.095-180.706-97.34-180.706-198.536 0-56.742 25.359-110.712 69.331-148.962l-0.301-0.301 2.409-1.867c0 0 0 0 0 0v0l109.267-83.968v-343.642c-68.668 13.131-120.471 70.114-120.471 138.3h-60.235c0-101.195 78.848-184.44 180.706-198.536v-93.304h60.235v93.304c101.858 14.095 180.706 97.34 180.706 198.536 0 60.597-28.25 116.796-77.161 155.347zM410.925 467.592c-31.443 26.865-49.513 64.873-49.513 104.629 0 68.186 51.802 125.169 120.471 138.3v-297.442l-70.957 54.513zM542.118-6.52v297.321l66.5-51.14c34.153-26.925 53.971-66.018 53.971-107.881 0-68.186-51.802-125.169-120.471-138.3z" />
<glyph unicode="&#xe68d;" glyph-name="microphone" d="M512 141.176c149.444 0 271.059 121.615 271.059 271.059v180.706c0 139.204-105.773 252.808-240.941 267.987v3.072h-60.235v-3.072c-135.168-15.179-240.941-128.783-240.941-267.987v-180.706c0-149.444 121.615-271.059 271.059-271.059zM361.412 739.976v-116.917h60.235v159.503c18.793 8.975 38.912 15.059 60.235 18.131v-177.634h60.235v177.634c21.323-3.072 41.442-9.096 60.235-18.131v-159.503h60.235v116.917c37.165-38.008 60.235-89.811 60.235-147.034v-30.118h-421.647v30.118c0 57.224 23.070 109.086 60.235 147.034zM301.176 502.588h421.647v-90.353c0-116.254-94.569-210.824-210.824-210.824s-210.824 94.569-210.824 210.824v90.353zM903.529 442.353v-195.765c0-124.506-121.615-225.882-271.059-225.882h-90.353v-180.706h-60.235v180.706h-90.353c-149.444 0-271.059 101.376-271.059 225.882v195.765h60.235v-195.765c0-91.377 94.569-165.647 210.824-165.647h240.941c116.254 0 210.824 74.27 210.824 165.647v195.765h60.235z" />
<glyph unicode="&#xe68e;" glyph-name="menu" d="M963.765 683.294v-120.471h-903.529v120.471h903.529zM60.235 261.647h903.529v120.471h-903.529v-120.471zM60.235-39.529h903.529v120.471h-903.529v-120.471z" />
<glyph unicode="&#xe68f;" glyph-name="menu-alt" d="M963.765 743.529v-120.471h-662.588v120.471h662.588zM301.176 321.882h662.588v120.471h-662.588v-120.471zM301.176 20.706h662.588v120.471h-662.588v-120.471zM120.471 743.529c-33.25 0-60.235-26.925-60.235-60.235s26.985-60.235 60.235-60.235 60.235 26.925 60.235 60.235-26.985 60.235-60.235 60.235zM120.471 442.353c-33.25 0-60.235-26.925-60.235-60.235s26.985-60.235 60.235-60.235 60.235 26.925 60.235 60.235-26.985 60.235-60.235 60.235zM120.471 141.176c-33.25 0-60.235-26.925-60.235-60.235s26.985-60.235 60.235-60.235 60.235 26.925 60.235 60.235-26.985 60.235-60.235 60.235z" />
<glyph unicode="&#xe690;" glyph-name="map" d="M632.41 596.676l-295.273 85.414-337.137 1.205v-662.588h322.138l312.983-89.088 328.644 96.678v665.058l-331.354-96.678zM361.412 612.397l240.941-69.692v-539.106l-240.941 68.608v540.19zM60.235 623.059h240.941v-543.142l-240.941 1.024v542.118zM903.529 73.352l-240.941-70.897v540.25l240.941 70.295v-539.648z" />
<glyph unicode="&#xe691;" glyph-name="map-alt" d="M903.529 623.059v-4.156l-0.783 3.494-61.139-13.312c-8.373 108.604-98.424 194.68-209.137 194.68-110.893 0-201.126-86.438-209.257-195.283l-61.801 13.432v1.144h-361.412v-662.588h322.138l312.983-89.088 328.644 96.678v654.999h-60.235zM632.471 743.529c83.064 0 150.588-67.584 150.588-150.588 0-108.785-103.544-253.53-150.588-313.645-47.044 60.115-150.588 204.86-150.588 313.645 0 83.004 67.524 150.588 150.588 150.588zM361.412 560.294l65.114-14.155c24.817-136.674 144.926-288.407 175.827-325.632v-277.203l-240.941 68.608v548.382zM60.235 562.824h240.941v-543.142l-240.941 1.024v542.118zM662.588-57.781v278.347c30.961 37.286 151.371 189.44 175.947 326.234l64.994 14.095v-547.78l-240.941-70.897zM714.27 587.942c0 45.116-36.683 81.8-81.8 81.8s-81.8-36.683-81.8-81.8 36.683-81.86 81.8-81.86 81.8 36.683 81.8 81.86zM610.906 587.942c0 11.927 9.698 21.564 21.564 21.564s21.564-9.698 21.564-21.564-9.698-21.624-21.564-21.624-21.564 9.698-21.564 21.624z" />
<glyph unicode="&#xe692;" glyph-name="loop" d="M60.235 321.882c0-132.879 103.063-240.941 229.677-240.941v-60.235c-159.864 0-289.912 135.108-289.912 301.176s130.048 301.176 289.912 301.176h254.735l-99.147 99.147 42.586 42.586 171.912-171.851-171.851-171.912-42.647 42.647 99.208 99.147h-254.795c-126.615 0-229.677-108.062-229.677-240.941zM734.088 623.059v-60.235c126.615 0 229.677-108.062 229.677-240.941s-103.063-240.941-229.677-240.941h-254.795l99.147 99.147-42.586 42.586-171.851-171.851 171.912-171.912 42.586 42.586-99.208 99.208h254.735c159.925 0 289.973 135.108 289.973 301.176s-130.048 301.176-289.912 301.176z" />
<glyph unicode="&#xe693;" glyph-name="location-pin" d="M512 833.882c-182.633 0-331.294-148.6-331.294-331.294 0-263.409 295.936-607.533 308.525-622.11l22.769-26.202 22.769 26.263c12.589 14.517 308.525 358.641 308.525 622.050 0 182.694-148.661 331.294-331.294 331.294zM512-52.48c-69.030 85.775-271.059 354.123-271.059 555.068 0 149.444 121.615 271.059 271.059 271.059s271.059-121.615 271.059-271.059c0-200.764-202.029-469.293-271.059-555.068zM512 674.921c-99.629 0-180.706-81.077-180.706-180.706s81.077-180.706 180.706-180.706 180.706 81.077 180.706 180.706-81.077 180.706-180.706 180.706zM512 373.745c-66.44 0-120.471 54.031-120.471 120.471s54.031 120.471 120.471 120.471 120.471-54.031 120.471-120.471-54.031-120.471-120.471-120.471z" />
<glyph unicode="&#xe694;" glyph-name="list" d="M1024 623.059v-60.235h-722.824v60.235h722.824zM180.706 592.941c0-49.815-40.538-90.353-90.353-90.353s-90.353 40.538-90.353 90.353 40.538 90.353 90.353 90.353 90.353-40.538 90.353-90.353zM120.471 592.941c0 16.565-13.493 30.118-30.118 30.118s-30.118-13.553-30.118-30.118 13.493-30.118 30.118-30.118 30.118 13.553 30.118 30.118zM301.176 321.882h722.824v60.235h-722.824v-60.235zM180.706 352c0-49.815-40.538-90.353-90.353-90.353s-90.353 40.538-90.353 90.353 40.538 90.353 90.353 90.353 90.353-40.538 90.353-90.353zM120.471 352c0 16.565-13.493 30.118-30.118 30.118s-30.118-13.553-30.118-30.118 13.493-30.118 30.118-30.118 30.118 13.553 30.118 30.118zM301.176 80.941h722.824v60.235h-722.824v-60.235zM180.706 111.059c0-49.815-40.538-90.353-90.353-90.353s-90.353 40.538-90.353 90.353 40.538 90.353 90.353 90.353 90.353-40.538 90.353-90.353zM120.471 111.059c0 16.565-13.493 30.118-30.118 30.118s-30.118-13.553-30.118-30.118 13.493-30.118 30.118-30.118 30.118 13.553 30.118 30.118z" />
<glyph unicode="&#xe695;" glyph-name="light-bulb" d="M512 864c-182.633 0-331.294-157.636-331.294-351.352 0-141.794 58.067-221.064 109.267-290.997 38.37-52.284 71.439-97.461 71.439-161.009v-126.253c0-52.043 40.538-94.389 90.353-94.389h120.471c49.815 0 90.353 42.345 90.353 94.389v128.060c0 62.946 31.142 104.508 70.475 157.154 49.092 65.717 110.231 147.396 110.231 293.045 0 193.717-148.661 351.352-331.294 351.352zM572.235-99.765h-120.471c-16.565 0-30.118 15.3-30.118 34.153v98.364h180.706v-98.364c0-18.854-13.553-34.153-30.118-34.153zM684.815 255.684c-35.358-47.285-71.68-95.955-80.474-162.696h-185.043c-9.156 66.379-45.417 116.073-80.715 164.262-48.008 65.536-97.641 133.301-97.641 255.398 0 160.527 121.615 291.117 271.059 291.117s271.059-130.59 271.059-291.117c0-125.591-49.935-192.392-98.244-256.964z" />
<glyph unicode="&#xe696;" glyph-name="Italic" d="M716.499 742.686l-342.799-782.216h47.947v-60.235h-180.706v60.235h66.921l342.799 782.216h-48.309v60.235h180.706v-60.235h-66.56z" />
<glyph unicode="&#xe697;" glyph-name="info" d="M650.541 4.081v-60.235h-277.082v60.235h108.424v447.608h-105.412v60.235h165.647v-507.844h108.424zM481.16 620.348c51.080 0 92.28 41.321 92.28 92.28 0 51.019-41.261 92.401-92.28 92.401-51.14 0-92.401-41.382-92.401-92.401 0-50.959 41.321-92.28 92.401-92.28z" />
<glyph unicode="&#xe698;" glyph-name="infinite" d="M1024 382.118c0-132.879-108.062-240.941-240.941-240.941-72.102 0-139.144 32.045-185.163 87.462l-0.12-0.060-0.843 1.084c-0.663 0.843-1.566 1.385-2.289 2.289l0.241 0.181-218.895 269.975c-34.274 38.551-83.486 60.717-135.048 60.717-99.629 0-180.706-81.077-180.706-180.706s81.077-180.706 180.706-180.706c55.115 0 106.556 24.696 141.071 67.765l0.542-0.422 49.212 60.958 46.863-37.828-49.574-61.38-0.602 0.482c-45.96-57.043-114.266-89.811-187.512-89.811-132.879 0-240.941 108.062-240.941 240.941s108.062 240.941 240.941 240.941c67.464 0 131.674-28.732 177.272-78.366l0.482 0.361 2.53-3.132 222.75-274.673c34.515-41.743 84.872-65.837 139.083-65.837 99.629 0 180.706 81.077 180.706 180.706s-81.077 180.706-180.706 180.706c-50.959 0-99.388-21.805-133.722-59.573l-57.103-70.776-46.863 37.828 57.103 70.776-0.241 0.181c45.779 51.983 111.736 81.8 180.826 81.8 132.879 0 240.941-108.062 240.941-240.941z" />
<glyph unicode="&#xe699;" glyph-name="id-badge" d="M0 683.294v-722.824h1024v722.824h-1024zM963.765 20.706h-903.529v602.353h903.529v-602.353zM154.323 50.161l-60.235 1.325c1.988 86.136 84.209 159.744 199.319 181.73v19.637c-14.938 15.601-25.6 36.744-32.828 55.597-9.758 6.987-18.191 17.709-24.034 31.081-11.144 24.696-9.216 49.453 3.795 64.331-0.241 4.457-0.361 8.855-0.361 13.071l-0.12 11.083c-0.361 32.346-0.964 85.534 55.959 95.413 11.686 20.42 29.094 37.768 71.017 39.213 67.644 2.108 115.411-22.769 131.614-69.331 5.481-15.962 0.361-29.214-3.373-38.852-3.554-9.156-6.927-17.769-4.939-33.973 0.783-6.445 0.663-12.77 0.181-18.793 10.541-14.276 12.71-35.96 4.939-58.729-5.722-16.444-14.999-29.154-26.142-36.623-6.686-17.288-16.264-36.382-29.335-50.899v-22.709c114.989-22.588 194.44-94.63 196.427-181.188l-60.235-1.385c-1.385 61.5-72.885 114.929-170.044 127.036l-26.383 3.313v102.942l12.047 9.035c6.385 4.819 16.324 19.336 24.998 45.839l8.132 20.721 4.457 38.008c0.843 6.385 1.626 12.469 1.144 16.143-3.735 31.322 3.976 51.2 8.553 63.006 0.301 0.843 0.542 1.385 0.723 1.867-12.649 23.853-52.947 24.877-70.536 24.456-16.685-0.663-17.89-3.012-21.143-9.216-4.096-7.951-13.794-26.624-38.37-28.792-5.542-0.482-7.288-1.626-7.288-1.626-2.47-3.855-2.289-22.106-2.168-34.214l0.060-11.746c0-8.493 0.602-17.589 1.747-26.865l4.216-34.515 7.228-1.265 0.181-14.938c9.276-28.070 20.42-43.43 27.166-48.068l12.951-8.975v-101.617l-26.624-3.132c-97.099-11.384-171.309-66.138-172.695-127.398zM903.529 382.118h-301.176v60.235h301.176v-60.235zM843.294 261.647h-240.941v60.235h240.941v-60.235z" />
<glyph unicode="&#xe69a;" glyph-name="hummer" d="M542.118 623.059h338.824l-217.389 240.941h-422.611v-240.941h240.941v-224.256h-67.765v-558.803h195.765v558.803h-67.765v224.256zM301.176 803.765h335.571l108.725-120.471h-444.296v120.471zM549.647-99.765h-75.294v438.332h75.294v-438.332z" />
<glyph unicode="&#xe69b;" glyph-name="home" d="M843.294-99.765h-180.706v361.412h-301.176v-361.412h-180.706v542.118h-60.235v-602.353h783.059v602.353h-60.235v-542.118zM421.647-99.765v301.176h180.706v-301.176h-180.706zM1011.712 474.097l-35.659-48.61-464.053 340.932-464.053-340.811-35.659 48.55 499.712 366.953 499.712-367.014z" />
</font>
</defs>
</svg>
