<?xml version="1.0" standalone="no"?>
<!DOCTYPE svg PUBLIC "-//W3C//DTD SVG 1.1//EN" "http://www.w3.org/Graphics/SVG/1.1/DTD/svg11.dtd" >
<svg xmlns="http://www.w3.org/2000/svg" xmlns:xlink="http://www.w3.org/1999/xlink" version="1.1">
<metadata>
Created by FontForge 20201107 at Thu Nov 16 17:46:01 2023
 By 
Copyright 2020 The Open Sans Project Authors (https://github.com/googlefonts/opensans)
</metadata>
<defs>
<font id="OpenSans-Light" horiz-adv-x="0" >
  <font-face 
    font-family="Open Sans Light"
    font-weight="300"
    font-stretch="normal"
    units-per-em="2048"
    panose-1="0 0 0 0 0 0 0 0 0 0"
    ascent="1638"
    descent="-410"
    x-height="1087"
    cap-height="1462"
    bbox="-1055 -549 2329 2146"
    underline-thickness="50"
    underline-position="-125"
    unicode-range="U+000D-FFFD"
  />
<missing-glyph horiz-adv-x="1229" 
 />
    <glyph glyph-name="f_f" unicode="ff" horiz-adv-x="1230" 
d="M585 1003h-256v-1003h-101v1003h-202v60l202 26v120q0 120 34.5 199.5t105 119t178.5 39.5q56 0 101 -8.5t84 -21.5l-23 -85q-35 12 -77.5 20t-83.5 8q-115 0 -166.5 -63.5t-51.5 -206.5v-123h256v-84zM1200 1003h-256v-1003h-101v1003h-202v60l202 26v120
q0 120 34.5 199.5t105 119t178.5 39.5q56 0 101 -8.5t84 -21.5l-23 -85q-35 12 -77.5 20t-83.5 8q-115 0 -166.5 -63.5t-51.5 -206.5v-123h256v-84z" />
    <glyph glyph-name="fi" unicode="fi" horiz-adv-x="1078" 
d="M585 1003h-256v-1003h-101v1003h-202v60l202 26v120q0 120 34.5 199.5t105 119t178.5 39.5q56 0 101 -8.5t84 -21.5l-23 -85q-35 12 -77.5 20t-83.5 8q-115 0 -166.5 -63.5t-51.5 -206.5v-123h256v-84zM896 1087v-1087h-101v1087h101zM847 1489q38 0 56 -22.5t18 -60.5
t-18 -60t-56 -22q-36 0 -54 22t-18 60t18 60.5t54 22.5z" />
    <glyph glyph-name="fl" unicode="fl" horiz-adv-x="1078" 
d="M585 1003h-256v-1003h-101v1003h-202v60l202 26v120q0 120 34.5 199.5t105 119t178.5 39.5q56 0 101 -8.5t84 -21.5l-23 -85q-35 12 -77.5 20t-83.5 8q-115 0 -166.5 -63.5t-51.5 -206.5v-123h256v-84zM898 0h-102v1556h102v-1556z" />
    <glyph glyph-name="f_f_i" unicode="ffi" horiz-adv-x="1693" 
d="M585 1003h-256v-1003h-101v1003h-202v60l202 26v120q0 120 34.5 199.5t105 119t178.5 39.5q56 0 101 -8.5t84 -21.5l-23 -85q-35 12 -77.5 20t-83.5 8q-115 0 -166.5 -63.5t-51.5 -206.5v-123h256v-84zM1200 1003h-256v-1003h-101v1003h-202v60l202 26v120
q0 120 34.5 199.5t105 119t178.5 39.5q56 0 101 -8.5t84 -21.5l-23 -85q-35 12 -77.5 20t-83.5 8q-115 0 -166.5 -63.5t-51.5 -206.5v-123h256v-84zM1511 1087v-1087h-101v1087h101zM1462 1489q38 0 56 -22.5t18 -60.5t-18 -60t-56 -22q-36 0 -54 22t-18 60t18 60.5t54 22.5
z" />
    <glyph glyph-name="f_f_l" unicode="ffl" horiz-adv-x="1693" 
d="M585 1003h-256v-1003h-101v1003h-202v60l202 26v120q0 120 34.5 199.5t105 119t178.5 39.5q56 0 101 -8.5t84 -21.5l-23 -85q-35 12 -77.5 20t-83.5 8q-115 0 -166.5 -63.5t-51.5 -206.5v-123h256v-84zM1200 1003h-256v-1003h-101v1003h-202v60l202 26v120
q0 120 34.5 199.5t105 119t178.5 39.5q56 0 101 -8.5t84 -21.5l-23 -85q-35 12 -77.5 20t-83.5 8q-115 0 -166.5 -63.5t-51.5 -206.5v-123h256v-84zM1513 0h-102v1556h102v-1556z" />
    <glyph glyph-name=".notdef" horiz-adv-x="1229" 
 />
    <glyph glyph-name=".null" 
 />
    <glyph glyph-name="nonmarkingreturn" horiz-adv-x="682" 
 />
    <glyph glyph-name="NULL" 
 />
    <glyph glyph-name="NULL" 
 />
    <glyph glyph-name="CR" unicode="&#xd;" horiz-adv-x="532" 
 />
    <glyph glyph-name="space" unicode=" " horiz-adv-x="532" 
 />
    <glyph glyph-name="exclam" unicode="!" horiz-adv-x="492" 
d="M285 377h-75l-22 1085h119zM164 71q0 44 20 67.5t60 23.5q42 0 62 -23.5t20 -67.5t-20 -68t-62 -24q-40 0 -60 24t-20 68z" />
    <glyph glyph-name="quotedbl" unicode="&#x22;" horiz-adv-x="723" 
d="M252 1462l-20 -528h-68l-20 528h108zM580 1462l-21 -528h-67l-21 528h109z" />
    <glyph glyph-name="numbersign" unicode="#" horiz-adv-x="1323" 
d="M966 926l-76 -393h301v-82h-316l-88 -451h-86l88 451h-364l-88 -451h-85l85 451h-282v82h297l77 393h-296v81h311l87 455h87l-87 -455h365l88 455h85l-87 -455h286v-81h-302zM439 533h364l77 393h-364z" />
    <glyph glyph-name="dollar" unicode="$" horiz-adv-x="1169" 
d="M518 -119v169q-123 2 -221 20t-164 43v102q70 -29 173 -50t212 -23v562q-116 39 -203.5 84.5t-136.5 114t-49 173.5q0 106 50 179.5t138 114t201 46.5v138h80v-137q92 -2 177.5 -21t165.5 -55l-35 -86q-78 34 -157 51.5t-151 20.5v-550q123 -41 212.5 -86t138 -111
t48.5 -173q0 -162 -109.5 -251t-289.5 -103v-172h-80zM598 146q136 9 217 72.5t81 185.5q0 73 -34 120.5t-100 82.5t-164 68v-529zM518 805v521q-85 -5 -150 -33.5t-101.5 -80.5t-36.5 -128q0 -80 36.5 -131t101.5 -85.5t150 -62.5z" />
    <glyph glyph-name="percent" unicode="%" horiz-adv-x="1653" 
d="M401 1483q146 0 218 -118t72 -339q0 -226 -75 -343.5t-217 -117.5q-139 0 -212.5 119t-73.5 342t74.5 340t213.5 117zM401 1403q-96 0 -146.5 -94t-50.5 -283q0 -188 49.5 -284.5t145.5 -96.5q101 0 151.5 97.5t50.5 283.5q0 185 -48 281t-152 96zM1280 1462l-811 -1462
h-95l811 1462h95zM1251 897q144 0 216.5 -118t72.5 -339q0 -226 -75 -343t-217 -117q-139 0 -212.5 118.5t-73.5 341.5t74.5 340t214.5 117zM1251 817q-97 0 -147.5 -93.5t-50.5 -283.5q0 -188 49.5 -284t145.5 -96q101 0 151.5 96.5t50.5 283.5q0 185 -48 281t-151 96z" />
    <glyph glyph-name="ampersand" unicode="&#x26;" horiz-adv-x="1461" 
d="M623 1485q99 0 174 -36.5t116.5 -104.5t41.5 -162q0 -137 -90.5 -226t-237.5 -164l459 -459q58 70 101 162t68 199h103q-31 -128 -83 -235t-124 -193l263 -266h-136l-193 199q-64 -64 -137.5 -114t-164.5 -77.5t-210 -27.5q-135 0 -236.5 45t-158.5 132.5t-57 214.5
q0 111 42 187.5t121 135t190 115.5q-61 63 -107 118.5t-71.5 114.5t-25.5 132q0 95 44 164.5t123.5 107.5t185.5 38zM538 744q-100 -50 -169.5 -99t-105.5 -112.5t-36 -157.5q0 -143 95.5 -223.5t252.5 -80.5q156 0 259 53.5t186 138.5zM620 1398q-115 0 -182 -60t-67 -163
q0 -86 49 -157.5t139 -163.5q143 69 219 143.5t76 184.5q0 99 -64 157.5t-170 58.5z" />
    <glyph glyph-name="quotesingle" unicode="'" horiz-adv-x="393" 
d="M252 1462l-20 -528h-68l-20 528h108z" />
    <glyph glyph-name="parenleft" unicode="(" horiz-adv-x="557" 
d="M84 561q0 177 34.5 339t101 304.5t163.5 257.5h106q-152 -185 -227 -415.5t-75 -483.5q0 -166 34 -322t101 -298t166 -267h-105q-97 117 -163.5 256t-101 297t-34.5 332z" />
    <glyph glyph-name="parenright" unicode=")" horiz-adv-x="557" 
d="M473 572q0 -175 -34 -337t-100.5 -303.5t-163.5 -255.5h-105q102 124 168.5 267.5t99.5 301.5t33 325t-33.5 324.5t-100.5 300.5t-168 267h106q97 -118 163.5 -258t100.5 -299t34 -333z" />
    <glyph glyph-name="asterisk" unicode="*" horiz-adv-x="1128" 
d="M615 1554l-24 -412l397 131l20 -106l-391 -84l251 -330l-96 -58l-214 352l-206 -351l-98 57l250 330l-393 84l22 106l394 -131l-24 412h112z" />
    <glyph glyph-name="plus" unicode="+" horiz-adv-x="1169" 
d="M627 766h432v-87h-432v-436h-87v436h-431v87h431v437h87v-437z" />
    <glyph glyph-name="comma" unicode="," horiz-adv-x="440" 
d="M298 238l9 -24q-16 -75 -39.5 -158t-51 -165.5t-58.5 -154.5h-78q26 91 47 177.5t37 168t26 156.5h108z" />
    <glyph glyph-name="hyphen" unicode="-" horiz-adv-x="659" 
d="M82 507v93h496v-93h-496z" />
    <glyph glyph-name="period" unicode="." horiz-adv-x="488" 
d="M164 71q0 44 20 67.5t59 23.5q43 0 63 -23.5t20 -67.5t-20 -68t-63 -24q-39 0 -59 24t-20 68z" />
    <glyph glyph-name="slash" unicode="/" horiz-adv-x="698" 
d="M673 1462l-546 -1462h-103l547 1462h102z" />
    <glyph glyph-name="zero" unicode="0" horiz-adv-x="1169" 
d="M1050 735q0 -183 -28 -324t-85 -237t-145 -145t-208 -49q-152 0 -256 85t-157.5 253t-53.5 417q0 222 45.5 391t148.5 264t274 95q170 0 272.5 -93t147.5 -261.5t45 -395.5zM219 735q0 -225 39 -372.5t120 -220.5t206 -73q129 0 209 73t117.5 221t37.5 372
q0 206 -32.5 354t-111.5 227t-219 79q-137 0 -217 -81t-114.5 -229t-34.5 -350z" />
    <glyph glyph-name="one" unicode="1" horiz-adv-x="1169" 
d="M682 0h-99v1104v103.5t1 80t3 67.5q-27 -27 -52 -47t-64 -51l-216 -164l-56 72l398 297h85v-1462z" />
    <glyph glyph-name="two" unicode="2" horiz-adv-x="1169" 
d="M1028 0h-915v86l430 448q103 107 173.5 193.5t107 173.5t36.5 195q0 141 -82.5 219t-223.5 78q-95 0 -182.5 -34t-170.5 -100l-56 71q61 50 128.5 84t138.5 51.5t142 17.5q125 0 216.5 -47.5t142.5 -133.5t51 -202q0 -120 -41.5 -217.5t-117.5 -190.5t-180 -200
l-381 -394v-4h784v-94z" />
    <glyph glyph-name="three" unicode="3" horiz-adv-x="1169" 
d="M981 1125q0 -97 -40 -171t-109.5 -121t-159.5 -64v-6q172 -22 263 -112.5t91 -246.5q0 -123 -58 -219t-174.5 -150.5t-292.5 -54.5q-119 0 -221 22t-186 61v99q83 -41 191.5 -67.5t216.5 -26.5q212 0 315 91.5t103 245.5q0 112 -55 179.5t-154.5 98.5t-233.5 31h-160v89
h161q113 0 203 35.5t142.5 106t52.5 175.5q0 136 -86.5 205t-230.5 69q-77 0 -144.5 -16t-130 -46.5t-124.5 -73.5l-52 73q86 66 198.5 109t251.5 43q199 0 311 -96t112 -262z" />
    <glyph glyph-name="four" unicode="4" horiz-adv-x="1169" 
d="M1141 373h-252v-373h-99v373h-742v80l735 1017h106v-1004h252v-93zM790 466v562q0 62 0.5 107t1.5 81.5t2 70.5t2 70h-6q-28 -48 -52.5 -88.5t-62.5 -91.5l-516 -711h631z" />
    <glyph glyph-name="five" unicode="5" horiz-adv-x="1169" 
d="M562 881q148 0 255.5 -50t166 -145.5t58.5 -233.5q0 -146 -65 -252t-183.5 -163t-279.5 -57q-116 0 -210.5 22.5t-159.5 60.5v102q70 -42 167.5 -69t203.5 -27q128 0 223 43.5t147.5 127.5t52.5 206q0 163 -99 254.5t-299 91.5q-82 0 -156.5 -11.5t-138.5 -28.5l-58 41
l59 669h702v-94h-615l-45 -521q45 11 113.5 22.5t160.5 11.5z" />
    <glyph glyph-name="six" unicode="6" horiz-adv-x="1169" 
d="M129 623q0 164 25.5 299.5t75.5 240t126 176.5t178 109t229 37q55 0 105 -6t88 -17v-92q-37 13 -86 20.5t-105 7.5q-172 0 -289 -79.5t-178.5 -237t-68.5 -390.5h7q29 54 81.5 103t131 80t185.5 31q132 0 227.5 -53t147 -152t51.5 -235q0 -146 -53.5 -255t-154 -169.5
t-241.5 -60.5q-120 0 -210 49t-150.5 137t-91 204.5t-30.5 252.5zM610 68q165 0 256.5 103.5t91.5 293.5q0 164 -84 259.5t-254 95.5q-118 0 -203.5 -47t-131.5 -116.5t-46 -136.5q0 -63 18 -140t61 -148.5t114.5 -117.5t177.5 -46z" />
    <glyph glyph-name="seven" unicode="7" horiz-adv-x="1169" 
d="M339 0l605 1368h-836v94h946v-74l-604 -1388h-111z" />
    <glyph glyph-name="eight" unicode="8" horiz-adv-x="1169" 
d="M582 1483q124 0 217.5 -40t145.5 -116t52 -184q0 -89 -40.5 -156t-111.5 -117.5t-165 -90.5q110 -42 192 -97t127.5 -130t45.5 -178q0 -124 -61 -212.5t-166 -135t-240 -46.5q-140 0 -243 47t-159.5 133.5t-56.5 202.5q0 108 45.5 185.5t125.5 132.5t182 93
q-84 37 -153.5 85t-111 116.5t-41.5 165.5q0 107 53.5 183t147.5 117.5t215 41.5zM220 363q0 -135 95 -216t261 -81t267 80t101 227q0 82 -38.5 144t-112 109.5t-178.5 85.5l-48 18q-102 -37 -180 -85.5t-122.5 -116.5t-44.5 -165zM581 1396q-137 0 -225.5 -67t-88.5 -191
q0 -83 41 -141t113.5 -99.5t166.5 -76.5q98 40 166.5 84t104.5 101t36 135q0 126 -84 190.5t-230 64.5z" />
    <glyph glyph-name="nine" unicode="9" horiz-adv-x="1169" 
d="M1040 843q0 -165 -25.5 -301t-75.5 -241.5t-126 -177.5t-178 -109t-230 -37q-53 0 -111 6.5t-97 17.5v94q38 -13 93.5 -22t113.5 -9q171 0 288 80.5t179 238.5t68 390h-7q-28 -53 -81.5 -103t-132.5 -81.5t-186 -31.5q-132 0 -227 53.5t-145.5 153t-50.5 236.5
q0 145 54 253.5t154.5 169t240.5 60.5q122 0 212 -48.5t150 -136t90 -203.5t30 -252zM558 1394q-164 0 -255.5 -102.5t-91.5 -290.5q0 -166 83.5 -262.5t254.5 -96.5q117 0 202.5 47.5t132 117.5t46.5 138q0 62 -18.5 139t-61 147.5t-114 116.5t-178.5 46z" />
    <glyph glyph-name="colon" unicode=":" horiz-adv-x="488" 
d="M164 71q0 44 20 67.5t59 23.5q43 0 63 -23.5t20 -67.5t-20 -68t-63 -24q-39 0 -59 24t-20 68zM164 1011q0 45 20 68.5t59 23.5q43 0 63 -23.5t20 -68.5q0 -43 -20 -67t-63 -24q-39 0 -59 24t-20 67z" />
    <glyph glyph-name="semicolon" unicode=";" horiz-adv-x="488" 
d="M291 238l10 -24q-17 -74 -40.5 -157.5t-51 -166t-57.5 -154.5h-79q26 91 46.5 177.5t37 168t27.5 156.5h107zM162 1011q0 45 20 68.5t59 23.5q44 0 63.5 -23.5t19.5 -68.5q0 -43 -19.5 -67t-63.5 -24q-39 0 -59 24t-20 67z" />
    <glyph glyph-name="less" unicode="&#x3c;" horiz-adv-x="1169" 
d="M1058 266l-948 434v62l948 455v-93l-831 -391l831 -374v-93z" />
    <glyph glyph-name="equal" unicode="=" horiz-adv-x="1169" 
d="M114 886v86h940v-86h-940zM114 472v86h940v-86h-940z" />
    <glyph glyph-name="greater" unicode="&#x3e;" horiz-adv-x="1169" 
d="M110 359l831 374l-831 391v93l948 -455v-62l-948 -434v93z" />
    <glyph glyph-name="question" unicode="?" horiz-adv-x="862" 
d="M292 377v36q0 93 14.5 155t52 111t106.5 102q76 57 126.5 105.5t76 105t25.5 138.5q0 132 -81 197t-215 65q-85 0 -157.5 -20t-145.5 -56l-36 87q86 39 165.5 59.5t177.5 20.5q181 0 286 -90.5t105 -261.5q0 -98 -32.5 -168t-90.5 -126t-136 -114q-59 -45 -93 -87.5
t-48 -96.5t-14 -134v-28h-86zM260 71q0 44 20 67.5t60 23.5q42 0 62 -23.5t20 -67.5t-20 -68t-62 -24q-40 0 -60 24t-20 68z" />
    <glyph glyph-name="at" unicode="@" horiz-adv-x="1814" 
d="M1703 724q0 -101 -20 -192t-61.5 -161t-104 -110t-147.5 -40q-92 0 -149.5 54.5t-63.5 146.5h-5q-43 -100 -123.5 -150.5t-181.5 -50.5q-153 0 -236 97.5t-83 271.5q0 133 54.5 236t152 162t228.5 59q80 0 153 -12.5t128 -31.5l-17 -342q-1 -37 -3.5 -75.5t-2.5 -73.5
q0 -109 38 -160.5t116 -51.5q81 0 134 55.5t79.5 151.5t26.5 217q0 198 -77.5 343t-222.5 223.5t-347 78.5q-175 0 -316 -54t-242 -156.5t-155 -248t-54 -329.5q0 -217 78 -373t226 -239t358 -83q111 0 220 24t203 62v-88q-88 -37 -194 -59t-229 -22q-234 0 -402.5 94
t-259 268t-90.5 414q0 202 61 363.5t174 275t270.5 174t351.5 60.5q223 0 388 -89t256 -252t91 -387zM623 589q0 -142 59.5 -215.5t174.5 -73.5q131 0 200.5 89.5t78.5 262.5l14 287q-37 13 -84 20t-102 7q-108 0 -184.5 -49t-116.5 -134t-40 -194z" />
    <glyph glyph-name="A" unicode="A" horiz-adv-x="1230" 
d="M1121 0l-199 517h-614l-203 -517h-105l575 1467h94l560 -1467h-108zM889 610l-202 548q-8 21 -19.5 54t-24 70t-24.5 70q-10 -35 -22 -70t-23 -67.5t-21 -58.5l-210 -546h546z" />
    <glyph glyph-name="B" unicode="B" horiz-adv-x="1284" 
d="M206 1462h401q271 0 396.5 -85t125.5 -271q0 -84 -32.5 -153t-96 -115.5t-156.5 -63.5v-7q111 -17 183.5 -61.5t108 -117t35.5 -172.5q0 -144 -65.5 -236t-181.5 -136t-268 -44h-450v1462zM309 812h324q206 0 298 72t92 213q0 146 -99 210t-317 64h-298v-559zM309 722
v-631h344q203 0 306 82.5t103 246.5q0 108 -48 174.5t-143.5 97t-237.5 30.5h-324z" />
    <glyph glyph-name="C" unicode="C" horiz-adv-x="1271" 
d="M827 1390q-140 0 -250 -47.5t-186 -134.5t-116 -207.5t-40 -265.5q0 -200 63 -349.5t189.5 -231.5t315.5 -82q110 0 200 16.5t167 42.5v-90q-73 -27 -164.5 -44t-212.5 -17q-219 0 -367.5 94t-223.5 264t-75 397q0 163 47 299.5t137.5 237t220.5 156t296 55.5
q105 0 200.5 -20.5t179.5 -59.5l-40 -90q-81 40 -166 58.5t-175 18.5z" />
    <glyph glyph-name="D" unicode="D" horiz-adv-x="1446" 
d="M1318 745q0 -245 -86.5 -411t-256 -250t-419.5 -84h-350v1462h396q234 0 393 -82t241 -241.5t82 -393.5zM1210 741q0 209 -68 349t-208 210.5t-355 70.5h-270v-1280h242q331 0 495 162.5t164 487.5z" />
    <glyph glyph-name="E" unicode="E" horiz-adv-x="1131" 
d="M1005 0h-799v1462h799v-93h-696v-554h657v-93h-657v-629h696v-93z" />
    <glyph glyph-name="F" unicode="F" horiz-adv-x="1029" 
d="M309 0h-103v1462h800v-93h-697v-623h659v-92h-659v-654z" />
    <glyph glyph-name="G" unicode="G" horiz-adv-x="1481" 
d="M783 738h537v-671q-105 -44 -224 -65.5t-253 -21.5q-233 0 -392.5 88.5t-241.5 256.5t-82 404q0 220 89.5 391t256.5 268t400 97q120 0 226.5 -22t202.5 -66l-41 -92q-95 44 -193.5 66t-199.5 22q-198 0 -340.5 -84.5t-218 -234t-75.5 -344.5q0 -221 73 -367t213.5 -219
t341.5 -73q110 0 197.5 16t158.5 42v515h-435v94z" />
    <glyph glyph-name="H" unicode="H" horiz-adv-x="1473" 
d="M1266 0h-103v720h-854v-720h-103v1462h103v-648h854v648h103v-1462z" />
    <glyph glyph-name="I" unicode="I" horiz-adv-x="516" 
d="M206 0v1462h103v-1462h-103z" />
    <glyph glyph-name="J" unicode="J" horiz-adv-x="505" 
d="M-27 -368q-54 0 -93 7t-65 18v94q29 -11 70 -18t86 -7q81 0 133 32t77 95t25 156v1453h103v-1451q0 -116 -36.5 -201.5t-110.5 -131.5t-189 -46z" />
    <glyph glyph-name="K" unicode="K" horiz-adv-x="1190" 
d="M1190 0h-125l-566 771l-190 -183v-588h-103v1462h103v-769q37 42 77.5 84.5t81.5 86.5l577 598h128l-598 -619z" />
    <glyph glyph-name="L" unicode="L" horiz-adv-x="1050" 
d="M206 0v1462h103v-1368h696v-94h-799z" />
    <glyph glyph-name="M" unicode="M" horiz-adv-x="1768" 
d="M839 0l-537 1350h-5q2 -37 3.5 -77.5t2.5 -84.5t1 -92v-1096h-98v1462h156l518 -1302h6l522 1302h152v-1462h-101v1108q0 39 1 80t2.5 81.5t3.5 78.5h-6l-539 -1348h-82z" />
    <glyph glyph-name="N" unicode="N" horiz-adv-x="1477" 
d="M1270 0h-105l-864 1293h-5q2 -54 3.5 -109.5t3 -114t1.5 -120.5v-949h-98v1462h106l861 -1289h5q-1 44 -2.5 102t-3 119t-1.5 115v953h99v-1462z" />
    <glyph glyph-name="O" unicode="O" horiz-adv-x="1565" 
d="M1436 733q0 -167 -41 -305t-123 -238t-204.5 -155t-285.5 -55q-164 0 -287 55t-204.5 155.5t-122.5 239t-41 305.5q0 222 75.5 391t223 264t364.5 95q208 0 352.5 -90.5t219 -259t74.5 -402.5zM235 734q0 -196 59 -345.5t181 -233.5t308 -84q188 0 309 83t179 232t58 347
q0 313 -136.5 486t-402.5 173q-187 0 -310.5 -83t-184 -231t-60.5 -344z" />
    <glyph glyph-name="P" unicode="P" horiz-adv-x="1198" 
d="M565 1462q261 0 391 -100t130 -311q0 -108 -34.5 -191.5t-103.5 -140.5t-172.5 -86t-241.5 -29h-225v-604h-103v1462h359zM554 1371h-245v-676h215q142 0 244 32.5t157 109.5t55 210q0 169 -104 246.5t-322 77.5z" />
    <glyph glyph-name="Q" unicode="Q" horiz-adv-x="1565" 
d="M1436 733q0 -188 -53 -341t-158.5 -254.5t-264.5 -136.5l313 -349h-145l-280 331q-16 0 -32.5 -1.5t-33.5 -1.5q-164 0 -287 55t-204.5 155.5t-122.5 239t-41 305.5q0 222 75.5 391t223 264t364.5 95q208 0 352.5 -90.5t219 -259t74.5 -402.5zM235 734q0 -196 59 -345.5
t181 -233.5t308 -84q188 0 309 83t179 232t58 347q0 313 -136.5 486t-402.5 173q-187 0 -310.5 -83t-184 -231t-60.5 -344z" />
    <glyph glyph-name="R" unicode="R" horiz-adv-x="1217" 
d="M561 1462q174 0 290.5 -38t175.5 -125t59 -235q0 -111 -40.5 -190.5t-111.5 -130.5t-164 -78l401 -665h-122l-377 636h-363v-636h-103v1462h355zM551 1371h-242v-644h291q179 0 279.5 86t100.5 247q0 177 -106 244t-323 67z" />
    <glyph glyph-name="S" unicode="S" horiz-adv-x="1117" 
d="M1011 377q0 -131 -66 -219.5t-179 -133t-256 -44.5q-89 0 -161.5 8.5t-131 22.5t-106.5 32v103q78 -30 180.5 -52.5t223.5 -22.5q114 0 202.5 33t139.5 100t51 169q0 90 -42.5 147.5t-127.5 99t-214 84.5q-90 31 -163.5 65.5t-125.5 80t-79.5 110t-27.5 152.5
q0 121 61.5 203.5t167 125t237.5 42.5q105 0 199.5 -19.5t182.5 -58.5l-36 -89q-88 38 -176 56t-174 18q-103 0 -183.5 -30.5t-127.5 -91.5t-47 -154q0 -96 43.5 -155t124 -98t190.5 -76q130 -44 224 -92.5t145.5 -122.5t51.5 -193z" />
    <glyph glyph-name="T" unicode="T" horiz-adv-x="1074" 
d="M588 0h-104v1369h-474v93h1052v-93h-474v-1369z" />
    <glyph glyph-name="U" unicode="U" horiz-adv-x="1473" 
d="M1283 1462v-946q0 -171 -66 -290.5t-189.5 -182.5t-295.5 -63q-261 0 -401 141.5t-140 398.5v942h102v-942q0 -220 114.5 -334.5t329.5 -114.5q141 0 240 50.5t151 148t52 236.5v956h103z" />
    <glyph glyph-name="V" unicode="V" horiz-adv-x="1182" 
d="M1182 1462l-540 -1462h-102l-540 1462h108l400 -1082q17 -47 32 -91.5t28 -85.5t23 -79q10 38 22.5 77.5t27.5 84t33 95.5l399 1081h109z" />
    <glyph glyph-name="W" unicode="W" horiz-adv-x="1827" 
d="M1778 1462l-399 -1462h-100l-313 1104q-11 35 -19.5 66.5t-16 60t-14 54t-10.5 46.5q-4 -21 -8.5 -44.5t-10.5 -48.5t-13 -52t-15 -56l-312 -1130h-101l-394 1462h106l275 -1031q11 -41 20.5 -78t17.5 -71.5t15.5 -67t13.5 -65.5q7 33 14 67t15.5 69t18 72.5t21.5 78.5
l287 1026h103l298 -1032q12 -43 22 -81t18 -72.5t15 -67t14 -65.5q8 45 16.5 88.5t20.5 91.5t27 105l281 1033h107z" />
    <glyph glyph-name="X" unicode="X" horiz-adv-x="1101" 
d="M1102 0h-118l-433 686l-439 -686h-113l492 760l-448 702h117l395 -629l398 629h113l-451 -701z" />
    <glyph glyph-name="Y" unicode="Y" horiz-adv-x="1081" 
d="M541 664l427 798h113l-487 -897v-565h-103v557l-491 905h114z" />
    <glyph glyph-name="Z" unicode="Z" horiz-adv-x="1179" 
d="M1098 0h-1022v75l868 1293h-824v94h955v-75l-869 -1293h892v-94z" />
    <glyph glyph-name="bracketleft" unicode="[" horiz-adv-x="653" 
d="M602 -324h-428v1786h428v-87h-330v-1611h330v-88z" />
    <glyph glyph-name="backslash" unicode="\" horiz-adv-x="698" 
d="M127 1462l547 -1462h-103l-547 1462h103z" />
    <glyph glyph-name="bracketright" unicode="]" horiz-adv-x="653" 
d="M51 -236h330v1611h-330v87h429v-1786h-429v88z" />
    <glyph glyph-name="asciicircum" unicode="^" horiz-adv-x="1169" 
d="M88 561l465 912h68l460 -912h-97l-398 798l-400 -798h-98z" />
    <glyph glyph-name="underscore" unicode="_" horiz-adv-x="841" 
d="M845 -267h-849v82h849v-82z" />
    <glyph glyph-name="grave" unicode="`" horiz-adv-x="534" 
d="M201 1569q27 -45 70.5 -102.5t92 -113t89.5 -95.5v-17h-73q-39 32 -81 72t-83 83t-75.5 83.5t-58.5 72.5v17h119z" />
    <glyph glyph-name="a" unicode="a" horiz-adv-x="1085" 
d="M560 1106q179 0 268 -90t89 -287v-729h-78l-18 190h-6q-35 -61 -85 -108.5t-122.5 -74.5t-176.5 -27q-105 0 -179.5 35t-115 102t-40.5 163q0 162 134 246.5t385 95.5l202 10v79q0 167 -66 238t-195 71q-84 0 -161.5 -21.5t-157.5 -61.5l-32 84q78 37 167.5 61t187.5 24z
M816 553l-190 -8q-207 -10 -315 -74t-108 -192q0 -103 64.5 -158t179.5 -55q179 0 273.5 102t95.5 278v107z" />
    <glyph glyph-name="b" unicode="b" horiz-adv-x="1219" 
d="M280 1556v-442q0 -57 -2 -125t-4 -113h6q39 101 136 167t242 66q212 0 327.5 -143t115.5 -419q0 -169 -52 -296.5t-154.5 -199t-256.5 -71.5q-139 0 -227 58.5t-128 146.5h-8l-19 -185h-77v1556h101zM647 1021q-129 0 -210 -55.5t-119 -161.5t-38 -259v-16
q0 -225 82 -343t266 -118q182 0 275.5 124.5t93.5 354.5q0 235 -87 354.5t-263 119.5z" />
    <glyph glyph-name="c" unicode="c" horiz-adv-x="973" 
d="M616 -20q-162 0 -273.5 67.5t-168 193t-56.5 297.5q0 179 65 306.5t183 195.5t277 68q78 0 145 -14t121 -39l-27 -89q-56 25 -119 38t-121 13q-134 0 -227.5 -58.5t-143 -166t-49.5 -253.5q0 -137 42 -242.5t129 -166t223 -60.5q79 0 150.5 16t130.5 41v-92
q-53 -24 -122.5 -39.5t-158.5 -15.5z" />
    <glyph glyph-name="d" unicode="d" horiz-adv-x="1219" 
d="M574 -20q-223 0 -339.5 140.5t-116.5 409.5q0 282 123 430t343 148q94 0 163.5 -29t117 -78.5t73.5 -112.5h8q-4 53 -6 114t-2 112v442h101v-1556h-82l-13 199h-6q-27 -60 -74.5 -110t-118.5 -79.5t-171 -29.5zM585 68q192 0 273 119.5t81 341.5v16q0 230 -81 352.5
t-264 122.5q-181 0 -276.5 -126t-95.5 -366q0 -226 89.5 -343t273.5 -117z" />
    <glyph glyph-name="e" unicode="e" horiz-adv-x="1125" 
d="M592 1108q139 0 231.5 -65t138 -178t45.5 -259v-73h-785q0 -224 103.5 -344t296.5 -120q101 0 175.5 16.5t165.5 56.5v-93q-80 -36 -160 -52.5t-184 -16.5q-165 0 -276.5 68.5t-168 193.5t-56.5 292q0 163 54.5 293t160 205.5t259.5 75.5zM591 1021q-156 0 -252.5 -103.5
t-113.5 -298.5h677q0 119 -34 210t-102.5 141.5t-174.5 50.5z" />
    <glyph glyph-name="f" unicode="f" horiz-adv-x="615" 
d="M585 1003h-256v-1003h-101v1003h-202v60l202 26v120q0 120 34.5 199.5t105 119t178.5 39.5q56 0 101 -8.5t84 -21.5l-23 -85q-35 12 -77.5 20t-83.5 8q-115 0 -166.5 -63.5t-51.5 -206.5v-123h256v-84z" />
    <glyph glyph-name="g" unicode="g" horiz-adv-x="1064" 
d="M468 -492q-205 0 -318.5 79t-113.5 221q0 110 69 189.5t187 95.5q-47 22 -76.5 60t-29.5 88q0 56 35 104.5t105 89.5q-94 34 -148 115.5t-54 196.5q0 110 47 191t133.5 125.5t204.5 44.5q36 0 65.5 -2t54.5 -6.5t45 -11.5h351v-72l-224 -15q44 -53 66 -114.5t22 -129.5
q0 -162 -102 -257t-284 -95q-50 0 -98 9q-61 -36 -93 -72.5t-32 -90.5q0 -34 20 -55.5t58 -33t93 -11.5h191q177 0 271 -72t94 -212q0 -171 -140.5 -265t-398.5 -94zM475 -407q143 0 238.5 31t143.5 91.5t48 149.5q0 73 -35 113t-99 55.5t-151 15.5h-182q-87 0 -155 -23.5
t-105.5 -74.5t-37.5 -136q0 -109 85.5 -165.5t249.5 -56.5zM507 486q135 0 207 68t72 197q0 138 -74 207t-207 69q-129 0 -202.5 -73.5t-73.5 -206.5q0 -124 70 -192.5t208 -68.5z" />
    <glyph glyph-name="h" unicode="h" horiz-adv-x="1209" 
d="M281 1556v-508q0 -44 -1.5 -82t-4.5 -77h7q27 62 77.5 111t125 78t172.5 29q124 0 208.5 -42.5t128.5 -129.5t44 -224v-711h-100v705q0 162 -74 238t-215 76q-120 0 -202 -46.5t-124 -140t-42 -233.5v-599h-101v1556h101z" />
    <glyph glyph-name="i" unicode="i" horiz-adv-x="463" 
d="M281 1087v-1087h-101v1087h101zM232 1489q38 0 56 -22.5t18 -60.5t-18 -60t-56 -22q-36 0 -54 22t-18 60t18 60.5t54 22.5z" />
    <glyph glyph-name="j" unicode="j" horiz-adv-x="463" 
d="M31 -492q-44 0 -78 6.5t-59 16.5v87q31 -12 62.5 -16.5t66.5 -4.5q76 0 116.5 47t40.5 144v1299h101v-1302q0 -90 -30.5 -152t-86.5 -93.5t-133 -31.5zM160 1406q0 38 18 60.5t54 22.5q38 0 56 -22.5t18 -60.5t-18 -60t-56 -22q-36 0 -54 22t-18 60z" />
    <glyph glyph-name="k" unicode="k" horiz-adv-x="991" 
d="M281 1556v-785q0 -73 -1.5 -148.5t-3.5 -150.5h2q29 34 60.5 71.5t62.5 72.5l430 471h122l-429 -466l467 -621h-121l-415 554l-174 -183v-371h-101v1556h101z" />
    <glyph glyph-name="l" unicode="l" horiz-adv-x="463" 
d="M283 0h-102v1556h102v-1556z" />
    <glyph glyph-name="m" unicode="m" horiz-adv-x="1809" 
d="M1302 1108q157 0 248 -91t91 -287v-730h-99v726q0 151 -69 222t-182 71q-155 0 -242.5 -90.5t-87.5 -284.5v-644h-100v726q0 101 -31.5 165.5t-87.5 96t-132 31.5q-101 0 -175 -41.5t-114 -128t-40 -219.5v-630h-101v1087h82l15 -178h6q27 53 72 98t111.5 73t156.5 28
q117 0 198.5 -52.5t113.5 -155.5h7q44 98 136.5 153t223.5 55z" />
    <glyph glyph-name="n" unicode="n" horiz-adv-x="1209" 
d="M659 1108q183 0 281 -96t98 -301v-711h-100v705q0 162 -74 238t-215 76q-179 0 -273.5 -104.5t-94.5 -315.5v-599h-101v1087h82l15 -198h6q29 61 79.5 110.5t124.5 79t172 29.5z" />
    <glyph glyph-name="o" unicode="o" horiz-adv-x="1201" 
d="M1082 545q0 -126 -31 -229.5t-92 -178.5t-151.5 -116t-210.5 -41q-114 0 -203 40.5t-150.5 115.5t-93.5 178.5t-32 230.5q0 175 58.5 301.5t168 194t262.5 67.5q158 0 263.5 -71.5t158.5 -198.5t53 -293zM222 545q0 -143 41 -250t124.5 -167t211.5 -60q131 0 215 60
t124 168t40 249q0 137 -38 244t-120 168.5t-214 61.5q-189 0 -286.5 -126t-97.5 -348z" />
    <glyph glyph-name="p" unicode="p" horiz-adv-x="1219" 
d="M662 1108q210 0 325.5 -141t115.5 -416q0 -184 -55 -311.5t-156.5 -193.5t-243.5 -66q-98 0 -170.5 29.5t-120.5 80t-74 111.5h-7q3 -57 5 -119t2 -117v-446h-102v1568h84l12 -217h6q27 62 76 117t124 88t179 33zM649 1019q-123 0 -204.5 -53.5t-121 -156t-40.5 -250.5
v-17q0 -159 39.5 -264.5t119 -157.5t197.5 -52q116 0 196 57t122 165t42 262q0 229 -87.5 348t-262.5 119z" />
    <glyph glyph-name="q" unicode="q" horiz-adv-x="1219" 
d="M934 -481v476q0 45 2 108t4 108h-7q-39 -100 -136 -166.5t-243 -66.5q-209 0 -324.5 142.5t-115.5 420.5q0 168 51.5 295.5t155 199.5t256.5 72q140 0 227.5 -61.5t127.5 -148.5h6l16 189h81v-1568h-101zM567 66q129 0 209.5 54.5t119 158t39.5 251.5v26q0 228 -83 346
t-266 118q-182 0 -275 -127t-93 -354q0 -230 87 -351.5t262 -121.5z" />
    <glyph glyph-name="r" unicode="r" horiz-adv-x="797" 
d="M613 1106q43 0 81 -5t71 -14l-16 -93q-33 9 -67 13.5t-73 4.5q-77 0 -137.5 -29t-102.5 -83t-64 -130t-22 -170v-600h-102v1087h87l10 -205h6q25 63 70.5 113.5t110.5 80.5t148 30z" />
    <glyph glyph-name="s" unicode="s" horiz-adv-x="954" 
d="M860 285q0 -97 -48.5 -165.5t-141.5 -104t-229 -35.5q-113 0 -202 20t-149 49v100q75 -37 166 -60t187 -23q168 0 242 57t74 156q0 65 -36.5 107.5t-104.5 73.5t-164 63q-100 34 -177.5 67.5t-121.5 89t-44 151.5q0 131 105 204t282 73q98 0 182.5 -18.5t153.5 -47.5
l-36 -86q-62 29 -143 47t-162 18q-133 0 -208 -47t-75 -138q0 -70 36 -109.5t103 -66t159 -58.5q95 -33 175.5 -69t128.5 -93t48 -155z" />
    <glyph glyph-name="t" unicode="t" horiz-adv-x="685" 
d="M474 67q47 0 87.5 7t71.5 18v-84q-32 -11 -75 -19.5t-95 -8.5q-92 0 -153 34.5t-92 105t-31 179.5v704h-162v60l161 31l35 256h67v-263h339v-84h-339v-698q0 -117 43.5 -177.5t142.5 -60.5z" />
    <glyph glyph-name="u" unicode="u" horiz-adv-x="1209" 
d="M1025 1087v-1087h-82l-15 196h-6q-28 -60 -79 -109t-125 -78t-172 -29q-125 0 -209.5 43.5t-127.5 131.5t-43 220v712h101v-702q0 -163 73.5 -240t215.5 -77q120 0 201.5 46t124 139.5t42.5 233.5v600h101z" />
    <glyph glyph-name="v" unicode="v" horiz-adv-x="941" 
d="M417 0l-417 1087h107l279 -741q26 -67 46.5 -128.5t34.5 -111.5h5q16 50 36.5 112t45.5 128l279 741h108l-418 -1087h-106z" />
    <glyph glyph-name="w" unicode="w" horiz-adv-x="1480" 
d="M1049 0l-231 730q-11 33 -20 63t-17 58t-15 54.5t-14 52.5h-5q-7 -26 -14 -53t-15 -56t-17 -59t-20 -62l-239 -728h-104l-309 1087h107l191 -695q17 -61 29 -109t21 -87t16 -74h5q6 25 13 52.5t15 59.5t19 68t24 78l233 707h100l224 -705q16 -51 29.5 -97.5t24 -86.5
t17.5 -75h6q4 33 12.5 72.5t21 88.5t28.5 108l184 695h102l-295 -1087h-107z" />
    <glyph glyph-name="x" unicode="x" horiz-adv-x="1019" 
d="M444 559l-379 528h118l322 -459l322 459h117l-376 -528l400 -559h-119l-344 488l-342 -488h-116z" />
    <glyph glyph-name="y" unicode="y" horiz-adv-x="940" 
d="M1 1087h107l264 -690q24 -61 42.5 -112.5t32.5 -94t23 -77.5h6q15 46 40 118.5t57 161.5l261 694h108l-496 -1291q-36 -94 -79 -159.5t-101 -99t-140 -33.5q-37 0 -67 5.5t-58 14.5v87q26 -8 53.5 -13.5t60.5 -5.5q57 0 98.5 23.5t74.5 72.5t62 125l74 193z" />
    <glyph glyph-name="z" unicode="z" horiz-adv-x="945" 
d="M859 0h-777v67l652 936h-604v84h727v-69l-651 -934h653v-84z" />
    <glyph glyph-name="braceleft" unicode="{" horiz-adv-x="723" 
d="M651 -324q-117 0 -197.5 33.5t-122 99.5t-41.5 163v331q0 79 -25 128.5t-77 72t-133 22.5v87q81 0 133 22t77 71t25 130v332q0 97 42.5 162t123 98.5t195.5 33.5v-87q-87 -1 -145 -24t-87 -71.5t-29 -124.5v-328q0 -104 -42.5 -169.5t-141.5 -83.5v-8q100 -17 142 -82.5
t42 -170.5v-333q0 -75 28.5 -122.5t86.5 -70t146 -23.5v-88z" />
    <glyph glyph-name="bar" unicode="|" horiz-adv-x="1108" 
d="M507 1560h88v-2066h-88v2066z" />
    <glyph glyph-name="braceright" unicode="}" horiz-adv-x="723" 
d="M71 -324v88q87 1 145 24t86.5 70.5t28.5 121.5v332q0 105 43 170.5t142 82.5v8q-99 18 -142 83.5t-43 169.5v329q0 77 -28.5 125.5t-86 71.5t-145.5 23v87q117 0 197.5 -33.5t122.5 -99t42 -162.5v-330q0 -81 24.5 -130.5t76.5 -71.5t133 -22v-87q-81 0 -133 -22.5
t-76.5 -71.5t-24.5 -128v-333q0 -96 -43 -162t-123.5 -99.5t-195.5 -33.5z" />
    <glyph glyph-name="asciitilde" unicode="~" horiz-adv-x="1169" 
d="M568 682q-62 30 -110.5 45.5t-110.5 15.5q-58 0 -119.5 -29t-117.5 -87v100q48 48 110 75t132 27q76 0 131 -17t126 -50q63 -28 111 -44t104 -16q57 0 117.5 28t116.5 87v-97q-43 -46 -103.5 -75t-134.5 -29q-68 0 -123.5 16t-128.5 50z" />
    <glyph glyph-name="uni00A0" unicode="&#xa0;" horiz-adv-x="532" 
 />
    <glyph glyph-name="exclamdown" unicode="&#xa1;" horiz-adv-x="492" 
d="M206 706h75l21 -1084h-118zM326 1013q0 -44 -20.5 -67t-59.5 -23q-43 0 -62.5 23t-19.5 67t19.5 68.5t62.5 24.5q39 0 59.5 -24.5t20.5 -68.5z" />
    <glyph glyph-name="cent" unicode="&#xa2;" horiz-adv-x="1169" 
d="M704 1483v-171q80 -2 145 -15.5t122 -38.5l-26 -88q-58 25 -121.5 37.5t-120.5 12.5q-134 0 -228 -58t-143.5 -165.5t-49.5 -255.5q0 -141 42 -245.5t129.5 -163.5t224.5 -59q80 0 150 15.5t131 40.5v-90q-50 -23 -113.5 -39t-142.5 -18v-202h-83v204q-147 12 -245 81.5
t-147 189.5t-49 285q0 166 53 287t152 192t236 87v177h84z" />
    <glyph glyph-name="sterling" unicode="&#xa3;" horiz-adv-x="1169" 
d="M697 1481q103 0 181.5 -20t143.5 -49l-37 -86q-64 29 -133 48t-153 19q-143 0 -214.5 -81t-71.5 -253v-302h411v-83h-411v-268q0 -90 -20.5 -151.5t-55.5 -99.5t-79 -61h816v-94h-996v87q74 14 126.5 52t80 103.5t27.5 161.5v270h-211v83h211v314q0 134 45.5 225
t131.5 138t208 47z" />
    <glyph glyph-name="currency" unicode="&#xa4;" horiz-adv-x="1169" 
d="M177 724q0 70 23.5 136t66.5 120l-148 152l56 57l151 -149q54 45 120.5 68.5t137.5 23.5q69 0 135.5 -23.5t120.5 -68.5l150 148l57 -57l-148 -151q44 -53 68 -119.5t24 -136.5q0 -69 -23.5 -136t-68.5 -121l148 -151l-57 -56l-150 149q-53 -45 -120 -68.5t-136 -23.5
q-71 0 -138 23.5t-120 69.5l-151 -150l-56 57l148 151q-43 54 -66.5 120.5t-23.5 135.5zM257 724q0 -92 44 -167t118.5 -118t162.5 -43q91 0 166 45t119.5 119.5t44.5 164.5q0 91 -44 165.5t-118.5 119t-164.5 44.5t-165 -44.5t-119 -119t-44 -166.5z" />
    <glyph glyph-name="yen" unicode="&#xa5;" horiz-adv-x="1169" 
d="M585 710l429 752h110l-460 -788h311v-82h-341v-204h341v-82h-341v-306h-99v306h-341v82h341v204h-341v82h307l-458 788h111z" />
    <glyph glyph-name="brokenbar" unicode="&#xa6;" horiz-adv-x="1108" 
d="M507 1560h88v-763h-88v763zM507 259h88v-765h-88v765z" />
    <glyph glyph-name="section" unicode="&#xa7;" horiz-adv-x="1057" 
d="M156 809q0 100 57 164t142 95q-84 35 -136.5 86.5t-52.5 144.5q0 122 99.5 191t276.5 69q101 0 180.5 -17.5t147.5 -45.5l-35 -82q-61 28 -136.5 45t-161.5 17q-135 0 -205 -44.5t-70 -131.5q0 -58 34.5 -93t99 -60t152.5 -56q94 -31 172.5 -67.5t125 -92.5t46.5 -149
q0 -101 -50.5 -170t-124.5 -107q75 -34 121 -87.5t46 -140.5q0 -130 -105 -206t-306 -76q-109 0 -197 20t-148 48v94q50 -23 107 -41.5t118 -28.5t123 -10q169 0 239.5 55t70.5 140q0 59 -34 97.5t-100 68t-162 60.5q-97 33 -172.5 68.5t-118.5 92.5t-43 150zM247 817
q0 -70 35.5 -112.5t101 -72t156.5 -61.5l94 -30q72 32 119.5 91t47.5 140q0 66 -37.5 111.5t-114.5 80.5t-196 67q-85 -21 -145.5 -74t-60.5 -140z" />
    <glyph glyph-name="dieresis" unicode="&#xa8;" horiz-adv-x="1182" 
d="M332 1391q0 35 16.5 56t48.5 21q36 0 52 -21t16 -56q0 -36 -16 -57t-52 -21q-32 0 -48.5 21t-16.5 57zM713 1391q0 35 16.5 56t48.5 21q35 0 51.5 -21t16.5 -56q0 -36 -16.5 -57t-51.5 -21q-32 0 -48.5 21t-16.5 57z" />
    <glyph glyph-name="copyright" unicode="&#xa9;" horiz-adv-x="1704" 
d="M852 -18q-164 0 -301.5 57.5t-238 160t-156 238.5t-55.5 293q0 161 58 298t161 238t239 157.5t293 56.5q161 0 298 -59.5t238.5 -163.5t158 -239.5t56.5 -287.5q0 -157 -57.5 -293.5t-160 -238.5t-239 -159.5t-294.5 -57.5zM888 285q-194 0 -304 115t-110 330
q0 133 52 234t147 157t223 56q79 0 140.5 -14.5t115.5 -41.5l-36 -76q-49 24 -102 36.5t-117 12.5q-149 0 -238.5 -97.5t-89.5 -266.5q0 -179 86.5 -271t235.5 -92q63 0 116.5 11t110.5 33v-80q-50 -22 -105 -34t-125 -12zM852 55q143 0 265.5 52.5t214 145.5t142.5 215.5
t51 262.5q0 138 -50 260t-140.5 215.5t-213.5 147t-269 53.5q-144 0 -266.5 -51t-214 -143t-142.5 -215.5t-51 -266.5q0 -139 49 -261t138.5 -215.5t213 -146.5t273.5 -53z" />
    <glyph glyph-name="ordfeminine" unicode="&#xaa;" horiz-adv-x="686" 
d="M352 1479q114 0 171 -54t57 -161v-451h-66l-14 93q-30 -44 -83.5 -73.5t-129.5 -29.5q-64 0 -111.5 21t-73 63t-25.5 105q0 66 34.5 110.5t106 68.5t180.5 29l101 4v57q0 77 -41 111t-109 34q-53 0 -101.5 -13t-95.5 -38l-30 68q49 24 108 40t122 16zM499 1137l-96 -4
q-130 -5 -186 -37.5t-56 -103.5q0 -59 36.5 -88.5t102.5 -29.5q101 0 150 54t49 146v63z" />
    <glyph glyph-name="guillemotleft" unicode="&#xab;" horiz-adv-x="889" 
d="M64 572l324 394l68 -43l-283 -363l283 -363l-68 -43l-324 391v27zM432 572l326 394l68 -43l-283 -363l283 -363l-68 -43l-326 391v27z" />
    <glyph glyph-name="logicalnot" unicode="&#xac;" horiz-adv-x="1169" 
d="M1037 766v-499h-85v412h-843v87h928z" />
    <glyph glyph-name="uni00AD" unicode="&#xad;" horiz-adv-x="659" 
d="M82 507v93h496v-93h-496z" />
    <glyph glyph-name="registered" unicode="&#xae;" horiz-adv-x="1704" 
d="M595 289v881h250q142 0 221.5 -61t79.5 -192q0 -98 -52.5 -157t-126.5 -84l235 -387h-107l-217 365h-192v-365h-91zM685 730h154q94 0 155.5 46t61.5 140q0 92 -58 133t-158 41h-155v-360zM852 -18q-164 0 -301.5 57.5t-238 160t-156 238.5t-55.5 293q0 161 58 298
t161 238t239 157.5t293 56.5q161 0 298 -59.5t238.5 -163.5t158 -239.5t56.5 -287.5q0 -157 -57.5 -293.5t-160 -238.5t-239 -159.5t-294.5 -57.5zM852 55q143 0 265.5 52.5t214 145.5t142.5 215.5t51 262.5q0 138 -50 260t-140.5 215.5t-213.5 147t-269 53.5
q-144 0 -266.5 -51t-214 -143t-142.5 -215.5t-51 -266.5q0 -139 49 -261t138.5 -215.5t213 -146.5t273.5 -53z" />
    <glyph glyph-name="overscore" unicode="&#xaf;" horiz-adv-x="1024" 
d="M1030 1556h-1036v84h1036v-84z" />
    <glyph glyph-name="degree" unicode="&#xb0;" horiz-adv-x="877" 
d="M438 884q-88 0 -157 37t-108.5 105t-39.5 158q0 89 39 156.5t108 105t158 37.5t157.5 -38t108 -105.5t39.5 -155.5q0 -90 -39.5 -158t-108 -105t-157.5 -37zM438 962q101 0 161 62.5t60 159.5q0 101 -60.5 161.5t-160.5 60.5q-105 0 -162.5 -60.5t-57.5 -161.5
q0 -97 57.5 -159.5t162.5 -62.5z" />
    <glyph glyph-name="plusminus" unicode="&#xb1;" horiz-adv-x="1169" 
d="M109 0v85h951v-85h-951zM627 768h432v-86h-432v-437h-87v437h-431v86h431v437h87v-437z" />
    <glyph glyph-name="uni00B2" unicode="&#xb2;" horiz-adv-x="689" 
d="M628 852h-575v69l246 247q77 77 127 133t74 105t24 104q0 74 -46 118.5t-132 44.5q-63 0 -116.5 -21.5t-108.5 -64.5l-44 62q58 47 125 73.5t145 26.5q126 0 196 -65t70 -171q0 -70 -29.5 -128.5t-86.5 -119.5t-136 -140l-194 -193h461v-80z" />
    <glyph glyph-name="uni00B3" unicode="&#xb3;" horiz-adv-x="689" 
d="M344 1745q128 0 198.5 -59t70.5 -159q0 -85 -44 -139t-110 -71v-5q83 -18 130 -70t47 -138q0 -122 -84 -192.5t-245 -70.5q-73 0 -138.5 13.5t-122.5 39.5v84q65 -28 130 -45t131 -17q119 0 179 50.5t60 139.5q0 86 -60.5 126t-179.5 40h-129v74h129q108 0 162.5 46.5
t54.5 128.5q0 70 -48 109t-130 39q-71 0 -129.5 -21.5t-115.5 -56.5l-40 63q58 41 127.5 66t156.5 25z" />
    <glyph glyph-name="acute" unicode="&#xb4;" horiz-adv-x="534" 
d="M453 1569v-17q-24 -32 -59 -72.5t-76 -83.5t-83 -83t-81 -72h-72v17q40 40 88 95.5t91.5 113t71.5 102.5h120z" />
    <glyph glyph-name="uni00B5" unicode="&#xb5;" horiz-adv-x="1221" 
d="M1039 1087v-1087h-84l-15 176h-6q-29 -56 -73 -100.5t-111 -70t-168 -25.5q-115 0 -188.5 37.5t-111.5 100.5h-6q2 -26 2.5 -58.5t1 -69.5t0.5 -78v-404h-100v1579h100v-704q0 -157 75.5 -236t230.5 -79q132 0 209 49t110.5 143t33.5 228v599h100z" />
    <glyph glyph-name="paragraph" unicode="&#xb6;" horiz-adv-x="1341" 
d="M1083 -260h-77v1741h-250v-1741h-78v924q-33 -9 -68.5 -13.5t-77.5 -4.5q-118 0 -200 53.5t-125 156t-43 248.5q0 155 46 255.5t135 148.5t218 48h520v-1816z" />
    <glyph glyph-name="periodcentered" unicode="&#xb7;" horiz-adv-x="488" 
d="M164 673q0 44 20 67.5t59 23.5q43 0 63 -23.5t20 -67.5t-20 -68t-63 -24q-39 0 -59 24t-20 68z" />
    <glyph glyph-name="cedilla" unicode="&#xb8;" horiz-adv-x="420" 
d="M393 -292q0 -93 -69.5 -146.5t-188.5 -53.5q-35 0 -63 3.5t-49 8.5v73q23 -6 51 -8.5t63 -2.5q77 0 123 30.5t46 92.5q0 61 -51.5 88.5t-150.5 31.5l90 175h77l-62 -124q55 -6 96.5 -27t64.5 -56t23 -85z" />
    <glyph glyph-name="uni00B9" unicode="&#xb9;" horiz-adv-x="689" 
d="M431 1729v-877h-87v570q0 38 0.5 76t1 74.5t2.5 70.5q-29 -21 -59 -40t-70 -42l-102 -62l-41 65l273 165h82z" />
    <glyph glyph-name="ordmasculine" unicode="&#xba;" horiz-adv-x="740" 
d="M672 1142q0 -152 -78 -247t-224 -95q-140 0 -219 93.5t-79 248.5q0 160 81.5 250.5t222.5 90.5q97 0 163 -43.5t99.5 -120t33.5 -177.5zM155 1142q0 -123 53 -196.5t162 -73.5q113 0 165.5 74t52.5 196q0 118 -50.5 193t-162.5 75q-107 0 -163.5 -69.5t-56.5 -198.5z" />
    <glyph glyph-name="guillemotright" unicode="&#xbb;" horiz-adv-x="889" 
d="M825 548l-326 -394l-68 44l284 363l-284 363l68 42l326 -391v-27zM456 548l-325 -394l-68 44l283 363l-283 363l68 42l325 -391v-27z" />
    <glyph glyph-name="onequarter" unicode="&#xbc;" horiz-adv-x="1466" 
d="M285 0l811 1462h93l-811 -1462h-93zM315 586v570v76t1 74.5t3 70.5q-29 -21 -59 -40t-71 -43l-102 -61l-40 65l273 164h82v-876h-87zM1216 0v241h-411v63l409 579h92v-565h141v-77h-141v-241h-90zM900 318h316v282q0 47 0.5 93.5t2.5 89.5q-15 -30 -36.5 -61.5
t-43.5 -63.5z" />
    <glyph glyph-name="onehalf" unicode="&#xbd;" horiz-adv-x="1545" 
d="M262 0l811 1462h93l-811 -1462h-93zM305 586v570v56.5t1 56.5t1.5 55t1.5 53q-29 -21 -58.5 -40t-70.5 -43l-102 -61l-40 65l273 164h82v-876h-88zM909 0v69l245 247q78 77 128 133t74 105t24 104q0 74 -46.5 118.5t-131.5 44.5q-63 0 -117 -21.5t-108 -64.5l-44 62
q58 47 125 73.5t145 26.5q126 0 196 -65t70 -171q0 -70 -30 -128.5t-86.5 -119.5t-135.5 -140l-194 -193h461v-80h-575z" />
    <glyph glyph-name="threequarters" unicode="&#xbe;" horiz-adv-x="1570" 
d="M395 0l812 1462h93l-811 -1462h-94zM305 575q-73 0 -138.5 13.5t-121.5 39.5v84q64 -29 129 -45.5t132 -16.5q118 0 178 50.5t60 139.5q0 86 -60.5 126t-178.5 40h-130v74h130q107 0 161.5 46.5t54.5 128.5q0 70 -48 108.5t-130 38.5q-71 0 -129 -21t-116 -56l-40 63
q59 41 128.5 66t156.5 25q127 0 197.5 -59.5t70.5 -158.5q0 -85 -44 -139t-109 -71v-5q83 -18 129.5 -70.5t46.5 -137.5q0 -122 -84 -192.5t-245 -70.5zM1320 0v241h-411v63l409 579h92v-565h142v-77h-142v-241h-90zM1005 318h315v282q0 47 1 93.5t3 89.5q-16 -30 -37 -61.5
t-43 -63.5z" />
    <glyph glyph-name="questiondown" unicode="&#xbf;" horiz-adv-x="862" 
d="M572 713v-36q0 -92 -14.5 -154.5t-52 -111.5t-106.5 -102q-75 -57 -126 -105.5t-76.5 -105t-25.5 -138.5q0 -132 81.5 -197t214.5 -65q86 0 158 20.5t145 55.5l36 -87q-86 -39 -165.5 -59.5t-177.5 -20.5q-181 0 -286 90.5t-105 261.5q0 99 32.5 168.5t91 125.5
t136.5 114q59 45 92.5 87.5t48 96.5t14.5 134v28h85zM604 1019q0 -44 -20 -67.5t-60 -23.5q-42 0 -61.5 23.5t-19.5 67.5t19.5 68t61.5 24q40 0 60 -24t20 -68z" />
    <glyph glyph-name="Agrave" unicode="&#xc0;" horiz-adv-x="1230" 
d="M1121 0l-199 517h-614l-203 -517h-105l575 1467h94l560 -1467h-108zM889 610l-202 548q-8 21 -19.5 54t-24 70t-24.5 70q-10 -35 -22 -70t-23 -67.5t-21 -58.5l-210 -546h546zM481 1944q27 -45 70.5 -102.5t92 -113t89.5 -95.5v-17h-73q-39 32 -81 72t-83 83t-75.5 83.5
t-58.5 72.5v17h119z" />
    <glyph glyph-name="Aacute" unicode="&#xc1;" horiz-adv-x="1230" 
d="M1121 0l-199 517h-614l-203 -517h-105l575 1467h94l560 -1467h-108zM889 610l-202 548q-8 21 -19.5 54t-24 70t-24.5 70q-10 -35 -22 -70t-23 -67.5t-21 -58.5l-210 -546h546zM912 1944v-17q-24 -32 -59 -72.5t-76 -83.5t-83 -83t-81 -72h-72v17q40 40 88 95.5t91.5 113
t71.5 102.5h120z" />
    <glyph glyph-name="Acircumflex" unicode="&#xc2;" horiz-adv-x="1230" 
d="M1121 0l-199 517h-614l-203 -517h-105l575 1467h94l560 -1467h-108zM889 610l-202 548q-8 21 -19.5 54t-24 70t-24.5 70q-10 -35 -22 -70t-23 -67.5t-21 -58.5l-210 -546h546zM670 1940q25 -43 67 -99.5t89.5 -112t85.5 -96.5v-16h-74q-56 48 -113 110t-104 119
q-48 -57 -105 -119t-113 -110h-73v16q38 41 85 96.5t90 112t67 99.5h98z" />
    <glyph glyph-name="Atilde" unicode="&#xc3;" horiz-adv-x="1230" 
d="M1121 0l-199 517h-614l-203 -517h-105l575 1467h94l560 -1467h-108zM889 610l-202 548q-8 21 -19.5 54t-24 70t-24.5 70q-10 -35 -22 -70t-23 -67.5t-21 -58.5l-210 -546h546zM240 1632q5 55 20 96.5t40.5 69.5t60.5 42.5t77 14.5q49 0 88.5 -21t74 -48.5t69 -49
t72.5 -21.5q46 0 80 29.5t45 111.5h71q-10 -107 -63 -166t-137 -59q-49 0 -88 21t-73 48.5t-68.5 49t-75.5 21.5q-45 0 -78 -29.5t-44 -109.5h-71z" />
    <glyph glyph-name="Adieresis" unicode="&#xc4;" horiz-adv-x="1230" 
d="M1121 0l-199 517h-614l-203 -517h-105l575 1467h94l560 -1467h-108zM889 610l-202 548q-8 21 -19.5 54t-24 70t-24.5 70q-10 -35 -22 -70t-23 -67.5t-21 -58.5l-210 -546h546zM362 1766q0 35 16.5 56t48.5 21q36 0 52 -21t16 -56q0 -36 -16 -57t-52 -21q-32 0 -48.5 21
t-16.5 57zM743 1766q0 35 16.5 56t48.5 21q35 0 51.5 -21t16.5 -56q0 -36 -16.5 -57t-51.5 -21q-32 0 -48.5 21t-16.5 57z" />
    <glyph glyph-name="Aring" unicode="&#xc5;" horiz-adv-x="1230" 
d="M1121 0l-199 517h-614l-203 -517h-105l575 1467h94l560 -1467h-108zM889 610l-202 548q-8 21 -19.5 54t-24 70t-24.5 70q-10 -35 -22 -70t-23 -67.5t-21 -58.5l-210 -546h546zM617 1402q-89 0 -151 57t-62 153q0 93 61 151t152 58q89 0 151 -59t62 -149q0 -96 -62 -153.5
t-151 -57.5zM617 1471q62 0 101 40.5t39 100.5q0 61 -41 100.5t-99 39.5q-60 0 -101 -39.5t-41 -100.5q0 -60 39 -100.5t103 -40.5z" />
    <glyph glyph-name="AE" unicode="&#xc6;" horiz-adv-x="1654" 
d="M1590 0h-778v516h-474l-229 -516h-111l653 1462h939v-93h-675v-554h635v-93h-635v-629h675v-93zM379 609h433v759h-98z" />
    <glyph glyph-name="Ccedilla" unicode="&#xc7;" horiz-adv-x="1271" 
d="M827 1390q-140 0 -250 -47.5t-186 -134.5t-116 -207.5t-40 -265.5q0 -200 63 -349.5t189.5 -231.5t315.5 -82q110 0 200 16.5t167 42.5v-90q-73 -27 -164.5 -44t-212.5 -17q-219 0 -367.5 94t-223.5 264t-75 397q0 163 47 299.5t137.5 237t220.5 156t296 55.5
q105 0 200.5 -20.5t179.5 -59.5l-40 -90q-81 40 -166 58.5t-175 18.5zM925 -292q0 -93 -69.5 -146.5t-188.5 -53.5q-35 0 -63 3.5t-49 8.5v73q23 -6 51 -8.5t63 -2.5q77 0 123 30.5t46 92.5q0 61 -51.5 88.5t-150.5 31.5l90 175h77l-62 -124q55 -6 96.5 -27t64.5 -56t23 -85
z" />
    <glyph glyph-name="Egrave" unicode="&#xc8;" horiz-adv-x="1131" 
d="M1005 0h-799v1462h799v-93h-696v-554h657v-93h-657v-629h696v-93zM492 1944q27 -45 70.5 -102.5t92 -113t89.5 -95.5v-17h-73q-39 32 -81 72t-83 83t-75.5 83.5t-58.5 72.5v17h119z" />
    <glyph glyph-name="Eacute" unicode="&#xc9;" horiz-adv-x="1131" 
d="M1005 0h-799v1462h799v-93h-696v-554h657v-93h-657v-629h696v-93zM923 1944v-17q-24 -32 -59 -72.5t-76 -83.5t-83 -83t-81 -72h-72v17q40 40 88 95.5t91.5 113t71.5 102.5h120z" />
    <glyph glyph-name="Ecircumflex" unicode="&#xca;" horiz-adv-x="1131" 
d="M1005 0h-799v1462h799v-93h-696v-554h657v-93h-657v-629h696v-93zM680 1940q25 -43 67 -99.5t89.5 -112t85.5 -96.5v-16h-74q-56 48 -113 110t-104 119q-48 -57 -105 -119t-113 -110h-73v16q38 41 85 96.5t90 112t67 99.5h98z" />
    <glyph glyph-name="Edieresis" unicode="&#xcb;" horiz-adv-x="1131" 
d="M1005 0h-799v1462h799v-93h-696v-554h657v-93h-657v-629h696v-93zM373 1766q0 35 16.5 56t48.5 21q36 0 52 -21t16 -56q0 -36 -16 -57t-52 -21q-32 0 -48.5 21t-16.5 57zM754 1766q0 35 16.5 56t48.5 21q35 0 51.5 -21t16.5 -56q0 -36 -16.5 -57t-51.5 -21
q-32 0 -48.5 21t-16.5 57z" />
    <glyph glyph-name="Igrave" unicode="&#xcc;" horiz-adv-x="516" 
d="M206 0v1462h103v-1462h-103zM117 1944q27 -45 70.5 -102.5t92 -113t89.5 -95.5v-17h-73q-39 32 -81 72t-83 83t-75.5 83.5t-58.5 72.5v17h119z" />
    <glyph glyph-name="Iacute" unicode="&#xcd;" horiz-adv-x="516" 
d="M206 0v1462h103v-1462h-103zM532 1944v-17q-24 -32 -59 -72.5t-76 -83.5t-83 -83t-81 -72h-72v17q40 40 88 95.5t91.5 113t71.5 102.5h120z" />
    <glyph glyph-name="Icircumflex" unicode="&#xce;" horiz-adv-x="516" 
d="M206 0v1462h103v-1462h-103zM307 1940q25 -43 67 -99.5t89.5 -112t85.5 -96.5v-16h-74q-56 48 -113 110t-104 119q-48 -57 -105 -119t-113 -110h-73v16q38 41 85 96.5t90 112t67 99.5h98z" />
    <glyph glyph-name="Idieresis" unicode="&#xcf;" horiz-adv-x="516" 
d="M206 0v1462h103v-1462h-103zM3 1766q0 35 16.5 56t48.5 21q36 0 52 -21t16 -56q0 -36 -16 -57t-52 -21q-32 0 -48.5 21t-16.5 57zM384 1766q0 35 16.5 56t48.5 21q35 0 51.5 -21t16.5 -56q0 -36 -16.5 -57t-51.5 -21q-32 0 -48.5 21t-16.5 57z" />
    <glyph glyph-name="Eth" unicode="&#xd0;" horiz-adv-x="1446" 
d="M602 1462q233 0 392.5 -82t241.5 -241.5t82 -393.5q0 -245 -86.5 -411t-256 -250t-420.5 -84h-343v680h-167v93h167v689h390zM579 1371h-265v-598h401v-93h-401v-589h237q331 0 495 162.5t164 487.5q0 209 -68.5 349t-208 210.5t-354.5 70.5z" />
    <glyph glyph-name="Ntilde" unicode="&#xd1;" horiz-adv-x="1477" 
d="M1270 0h-105l-864 1293h-5q2 -54 3.5 -109.5t3 -114t1.5 -120.5v-949h-98v1462h106l861 -1289h5q-1 44 -2.5 102t-3 119t-1.5 115v953h99v-1462zM384 1632q5 55 20 96.5t40.5 69.5t60.5 42.5t77 14.5q49 0 88.5 -21t74 -48.5t69 -49t72.5 -21.5q46 0 80 29.5t45 111.5h71
q-10 -107 -63 -166t-137 -59q-49 0 -88 21t-73 48.5t-68.5 49t-75.5 21.5q-45 0 -78 -29.5t-44 -109.5h-71z" />
    <glyph glyph-name="Ograve" unicode="&#xd2;" horiz-adv-x="1565" 
d="M1436 733q0 -167 -41 -305t-123 -238t-204.5 -155t-285.5 -55q-164 0 -287 55t-204.5 155.5t-122.5 239t-41 305.5q0 222 75.5 391t223 264t364.5 95q208 0 352.5 -90.5t219 -259t74.5 -402.5zM235 734q0 -196 59 -345.5t181 -233.5t308 -84q188 0 309 83t179 232t58 347
q0 313 -136.5 486t-402.5 173q-187 0 -310.5 -83t-184 -231t-60.5 -344zM644 1944q27 -45 70.5 -102.5t92 -113t89.5 -95.5v-17h-73q-39 32 -81 72t-83 83t-75.5 83.5t-58.5 72.5v17h119z" />
    <glyph glyph-name="Oacute" unicode="&#xd3;" horiz-adv-x="1565" 
d="M1436 733q0 -167 -41 -305t-123 -238t-204.5 -155t-285.5 -55q-164 0 -287 55t-204.5 155.5t-122.5 239t-41 305.5q0 222 75.5 391t223 264t364.5 95q208 0 352.5 -90.5t219 -259t74.5 -402.5zM235 734q0 -196 59 -345.5t181 -233.5t308 -84q188 0 309 83t179 232t58 347
q0 313 -136.5 486t-402.5 173q-187 0 -310.5 -83t-184 -231t-60.5 -344zM1074 1944v-17q-24 -32 -59 -72.5t-76 -83.5t-83 -83t-81 -72h-72v17q40 40 88 95.5t91.5 113t71.5 102.5h120z" />
    <glyph glyph-name="Ocircumflex" unicode="&#xd4;" horiz-adv-x="1565" 
d="M1436 733q0 -167 -41 -305t-123 -238t-204.5 -155t-285.5 -55q-164 0 -287 55t-204.5 155.5t-122.5 239t-41 305.5q0 222 75.5 391t223 264t364.5 95q208 0 352.5 -90.5t219 -259t74.5 -402.5zM235 734q0 -196 59 -345.5t181 -233.5t308 -84q188 0 309 83t179 232t58 347
q0 313 -136.5 486t-402.5 173q-187 0 -310.5 -83t-184 -231t-60.5 -344zM831 1940q25 -43 67 -99.5t89.5 -112t85.5 -96.5v-16h-74q-56 48 -113 110t-104 119q-48 -57 -105 -119t-113 -110h-73v16q38 41 85 96.5t90 112t67 99.5h98z" />
    <glyph glyph-name="Otilde" unicode="&#xd5;" horiz-adv-x="1565" 
d="M1436 733q0 -167 -41 -305t-123 -238t-204.5 -155t-285.5 -55q-164 0 -287 55t-204.5 155.5t-122.5 239t-41 305.5q0 222 75.5 391t223 264t364.5 95q208 0 352.5 -90.5t219 -259t74.5 -402.5zM235 734q0 -196 59 -345.5t181 -233.5t308 -84q188 0 309 83t179 232t58 347
q0 313 -136.5 486t-402.5 173q-187 0 -310.5 -83t-184 -231t-60.5 -344zM401 1632q5 55 20 96.5t40.5 69.5t60.5 42.5t77 14.5q49 0 88.5 -21t74 -48.5t69 -49t72.5 -21.5q46 0 80 29.5t45 111.5h71q-10 -107 -63 -166t-137 -59q-49 0 -88 21t-73 48.5t-68.5 49t-75.5 21.5
q-45 0 -78 -29.5t-44 -109.5h-71z" />
    <glyph glyph-name="Odieresis" unicode="&#xd6;" horiz-adv-x="1565" 
d="M1436 733q0 -167 -41 -305t-123 -238t-204.5 -155t-285.5 -55q-164 0 -287 55t-204.5 155.5t-122.5 239t-41 305.5q0 222 75.5 391t223 264t364.5 95q208 0 352.5 -90.5t219 -259t74.5 -402.5zM235 734q0 -196 59 -345.5t181 -233.5t308 -84q188 0 309 83t179 232t58 347
q0 313 -136.5 486t-402.5 173q-187 0 -310.5 -83t-184 -231t-60.5 -344zM524 1766q0 35 16.5 56t48.5 21q36 0 52 -21t16 -56q0 -36 -16 -57t-52 -21q-32 0 -48.5 21t-16.5 57zM905 1766q0 35 16.5 56t48.5 21q35 0 51.5 -21t16.5 -56q0 -36 -16.5 -57t-51.5 -21
q-32 0 -48.5 21t-16.5 57z" />
    <glyph glyph-name="multiply" unicode="&#xd7;" horiz-adv-x="1169" 
d="M967 1166l60 -61l-383 -382l383 -383l-61 -60l-383 381l-381 -381l-62 60l383 383l-383 382l62 61l382 -383z" />
    <glyph glyph-name="Oslash" unicode="&#xd8;" horiz-adv-x="1565" 
d="M1436 733q0 -167 -41 -305t-123 -238t-204.5 -155t-285.5 -55q-126 0 -227.5 33t-177.5 96l-121 -166l-73 50l127 175q-90 100 -136.5 245t-46.5 322q0 222 75.5 391t223 264t364.5 95q117 0 215 -30.5t174 -88.5l112 155l72 -52l-117 -160q92 -98 141 -243.5t49 -332.5z
M1329 733q0 159 -36.5 283t-106.5 208l-753 -1035q65 -56 152.5 -87t197.5 -31q188 0 309 83t179 232t58 347zM235 734q0 -149 34 -271t102 -209l752 1032q-64 52 -147 79t-186 27q-187 0 -310.5 -83t-184 -231t-60.5 -344z" />
    <glyph glyph-name="Ugrave" unicode="&#xd9;" horiz-adv-x="1473" 
d="M1283 1462v-946q0 -171 -66 -290.5t-189.5 -182.5t-295.5 -63q-261 0 -401 141.5t-140 398.5v942h102v-942q0 -220 114.5 -334.5t329.5 -114.5q141 0 240 50.5t151 148t52 236.5v956h103zM599 1944q27 -45 70.5 -102.5t92 -113t89.5 -95.5v-17h-73q-39 32 -81 72t-83 83
t-75.5 83.5t-58.5 72.5v17h119z" />
    <glyph glyph-name="Uacute" unicode="&#xda;" horiz-adv-x="1473" 
d="M1283 1462v-946q0 -171 -66 -290.5t-189.5 -182.5t-295.5 -63q-261 0 -401 141.5t-140 398.5v942h102v-942q0 -220 114.5 -334.5t329.5 -114.5q141 0 240 50.5t151 148t52 236.5v956h103zM1028 1944v-17q-24 -32 -59 -72.5t-76 -83.5t-83 -83t-81 -72h-72v17
q40 40 88 95.5t91.5 113t71.5 102.5h120z" />
    <glyph glyph-name="Ucircumflex" unicode="&#xdb;" horiz-adv-x="1473" 
d="M1283 1462v-946q0 -171 -66 -290.5t-189.5 -182.5t-295.5 -63q-261 0 -401 141.5t-140 398.5v942h102v-942q0 -220 114.5 -334.5t329.5 -114.5q141 0 240 50.5t151 148t52 236.5v956h103zM786 1940q25 -43 67 -99.5t89.5 -112t85.5 -96.5v-16h-74q-56 48 -113 110
t-104 119q-48 -57 -105 -119t-113 -110h-73v16q38 41 85 96.5t90 112t67 99.5h98z" />
    <glyph glyph-name="Udieresis" unicode="&#xdc;" horiz-adv-x="1473" 
d="M1283 1462v-946q0 -171 -66 -290.5t-189.5 -182.5t-295.5 -63q-261 0 -401 141.5t-140 398.5v942h102v-942q0 -220 114.5 -334.5t329.5 -114.5q141 0 240 50.5t151 148t52 236.5v956h103zM480 1766q0 35 16.5 56t48.5 21q36 0 52 -21t16 -56q0 -36 -16 -57t-52 -21
q-32 0 -48.5 21t-16.5 57zM861 1766q0 35 16.5 56t48.5 21q35 0 51.5 -21t16.5 -56q0 -36 -16.5 -57t-51.5 -21q-32 0 -48.5 21t-16.5 57z" />
    <glyph glyph-name="Yacute" unicode="&#xdd;" horiz-adv-x="1081" 
d="M541 664l427 798h113l-487 -897v-565h-103v557l-491 905h114zM833 1944v-17q-24 -32 -59 -72.5t-76 -83.5t-83 -83t-81 -72h-72v17q40 40 88 95.5t91.5 113t71.5 102.5h120z" />
    <glyph glyph-name="Thorn" unicode="&#xde;" horiz-adv-x="1198" 
d="M1089 782q0 -105 -34 -187t-103 -139t-173.5 -86.5t-245.5 -29.5h-224v-340h-103v1462h103v-264h268q262 0 387 -103t125 -313zM309 431h212q146 0 249 33t158 109t55 205q0 173 -101 251t-319 78h-254v-676z" />
    <glyph glyph-name="germandbls" unicode="&#xdf;" horiz-adv-x="1194" 
d="M963 1288q0 -74 -29 -123t-71 -84.5t-84 -66.5t-71 -68t-29 -92q0 -45 20 -77.5t62 -65.5t107 -77q64 -42 115 -87.5t81 -106.5t30 -151q0 -93 -41.5 -162.5t-120.5 -108t-194 -38.5q-97 0 -163 17t-119 43v97q41 -21 86 -37t93.5 -25t100.5 -9q130 0 194 59.5t64 158.5
q0 68 -23 115.5t-66 86.5t-104 80q-70 47 -119.5 87.5t-75.5 87t-26 109.5q0 71 28 115.5t70 77t83.5 63.5t70 72.5t28.5 105.5q0 94 -69.5 144.5t-193.5 50.5q-101 0 -172 -33.5t-108 -102.5t-37 -174v-1169h-101v1169q0 134 51 222.5t144.5 132t222.5 43.5
q114 0 196 -33.5t126 -95.5t44 -150z" />
    <glyph glyph-name="agrave" unicode="&#xe0;" horiz-adv-x="1085" 
d="M560 1106q179 0 268 -90t89 -287v-729h-78l-18 190h-6q-35 -61 -85 -108.5t-122.5 -74.5t-176.5 -27q-105 0 -179.5 35t-115 102t-40.5 163q0 162 134 246.5t385 95.5l202 10v79q0 167 -66 238t-195 71q-84 0 -161.5 -21.5t-157.5 -61.5l-32 84q78 37 167.5 61t187.5 24z
M816 553l-190 -8q-207 -10 -315 -74t-108 -192q0 -103 64.5 -158t179.5 -55q179 0 273.5 102t95.5 278v107zM398 1569q27 -45 70.5 -102.5t92 -113t89.5 -95.5v-17h-73q-39 32 -81 72t-83 83t-75.5 83.5t-58.5 72.5v17h119z" />
    <glyph glyph-name="aacute" unicode="&#xe1;" horiz-adv-x="1085" 
d="M560 1106q179 0 268 -90t89 -287v-729h-78l-18 190h-6q-35 -61 -85 -108.5t-122.5 -74.5t-176.5 -27q-105 0 -179.5 35t-115 102t-40.5 163q0 162 134 246.5t385 95.5l202 10v79q0 167 -66 238t-195 71q-84 0 -161.5 -21.5t-157.5 -61.5l-32 84q78 37 167.5 61t187.5 24z
M816 553l-190 -8q-207 -10 -315 -74t-108 -192q0 -103 64.5 -158t179.5 -55q179 0 273.5 102t95.5 278v107zM829 1569v-17q-24 -32 -59 -72.5t-76 -83.5t-83 -83t-81 -72h-72v17q40 40 88 95.5t91.5 113t71.5 102.5h120z" />
    <glyph glyph-name="acircumflex" unicode="&#xe2;" horiz-adv-x="1085" 
d="M560 1106q179 0 268 -90t89 -287v-729h-78l-18 190h-6q-35 -61 -85 -108.5t-122.5 -74.5t-176.5 -27q-105 0 -179.5 35t-115 102t-40.5 163q0 162 134 246.5t385 95.5l202 10v79q0 167 -66 238t-195 71q-84 0 -161.5 -21.5t-157.5 -61.5l-32 84q78 37 167.5 61t187.5 24z
M816 553l-190 -8q-207 -10 -315 -74t-108 -192q0 -103 64.5 -158t179.5 -55q179 0 273.5 102t95.5 278v107zM585 1565q25 -43 67 -99.5t89.5 -112t85.5 -96.5v-16h-74q-56 48 -113 110t-104 119q-48 -57 -105 -119t-113 -110h-73v16q38 41 85 96.5t90 112t67 99.5h98z" />
    <glyph glyph-name="atilde" unicode="&#xe3;" horiz-adv-x="1085" 
d="M560 1106q179 0 268 -90t89 -287v-729h-78l-18 190h-6q-35 -61 -85 -108.5t-122.5 -74.5t-176.5 -27q-105 0 -179.5 35t-115 102t-40.5 163q0 162 134 246.5t385 95.5l202 10v79q0 167 -66 238t-195 71q-84 0 -161.5 -21.5t-157.5 -61.5l-32 84q78 37 167.5 61t187.5 24z
M816 553l-190 -8q-207 -10 -315 -74t-108 -192q0 -103 64.5 -158t179.5 -55q179 0 273.5 102t95.5 278v107zM155 1257q5 55 20 96.5t40.5 69.5t60.5 42.5t77 14.5q49 0 88.5 -21t74 -48.5t69 -49t72.5 -21.5q46 0 80 29.5t45 111.5h71q-10 -107 -63 -166t-137 -59
q-49 0 -88 21t-73 48.5t-68.5 49t-75.5 21.5q-45 0 -78 -29.5t-44 -109.5h-71z" />
    <glyph glyph-name="adieresis" unicode="&#xe4;" horiz-adv-x="1085" 
d="M560 1106q179 0 268 -90t89 -287v-729h-78l-18 190h-6q-35 -61 -85 -108.5t-122.5 -74.5t-176.5 -27q-105 0 -179.5 35t-115 102t-40.5 163q0 162 134 246.5t385 95.5l202 10v79q0 167 -66 238t-195 71q-84 0 -161.5 -21.5t-157.5 -61.5l-32 84q78 37 167.5 61t187.5 24z
M816 553l-190 -8q-207 -10 -315 -74t-108 -192q0 -103 64.5 -158t179.5 -55q179 0 273.5 102t95.5 278v107zM279 1391q0 35 16.5 56t48.5 21q36 0 52 -21t16 -56q0 -36 -16 -57t-52 -21q-32 0 -48.5 21t-16.5 57zM660 1391q0 35 16.5 56t48.5 21q35 0 51.5 -21t16.5 -56
q0 -36 -16.5 -57t-51.5 -21q-32 0 -48.5 21t-16.5 57z" />
    <glyph glyph-name="aring" unicode="&#xe5;" horiz-adv-x="1085" 
d="M560 1106q179 0 268 -90t89 -287v-729h-78l-18 190h-6q-35 -61 -85 -108.5t-122.5 -74.5t-176.5 -27q-105 0 -179.5 35t-115 102t-40.5 163q0 162 134 246.5t385 95.5l202 10v79q0 167 -66 238t-195 71q-84 0 -161.5 -21.5t-157.5 -61.5l-32 84q78 37 167.5 61t187.5 24z
M816 553l-190 -8q-207 -10 -315 -74t-108 -192q0 -103 64.5 -158t179.5 -55q179 0 273.5 102t95.5 278v107zM535 1247q-89 0 -151 57t-62 153q0 93 61 151t152 58q89 0 151 -59t62 -149q0 -96 -62 -153.5t-151 -57.5zM535 1316q62 0 101 40.5t39 100.5q0 61 -41 100.5
t-99 39.5q-60 0 -101 -39.5t-41 -100.5q0 -60 39 -100.5t103 -40.5z" />
    <glyph glyph-name="ae" unicode="&#xe6;" horiz-adv-x="1752" 
d="M1236 1108q132 0 222.5 -65t135 -178t41.5 -257v-74h-739q0 -228 97 -346.5t271 -118.5q93 0 165 16.5t162 56.5v-93q-81 -36 -158 -52.5t-171 -16.5q-106 0 -189 35.5t-140 99t-89 150.5q-33 -86 -86 -150t-132.5 -99.5t-190.5 -35.5q-106 0 -182 35t-116.5 102
t-40.5 163q0 108 59 181t172 113t274 48l193 10v81q0 166 -66 236.5t-188 70.5q-79 0 -156 -21.5t-158 -61.5l-32 84q78 38 169 61.5t183 23.5q137 0 216.5 -62.5t104.5 -199.5q48 118 140.5 191t228.5 73zM792 553l-178 -8q-199 -10 -305 -74t-106 -192q0 -103 63.5 -158
t179.5 -55q111 0 188 46.5t117 131.5t41 202v107zM1235 1021q-137 0 -229 -102.5t-107 -299.5h630q1 120 -31.5 210.5t-98 141t-164.5 50.5z" />
    <glyph glyph-name="ccedilla" unicode="&#xe7;" horiz-adv-x="973" 
d="M616 -20q-162 0 -273.5 67.5t-168 193t-56.5 297.5q0 179 65 306.5t183 195.5t277 68q78 0 145 -14t121 -39l-27 -89q-56 25 -119 38t-121 13q-134 0 -227.5 -58.5t-143 -166t-49.5 -253.5q0 -137 42 -242.5t129 -166t223 -60.5q79 0 150.5 16t130.5 41v-92
q-53 -24 -122.5 -39.5t-158.5 -15.5zM752 -292q0 -93 -69.5 -146.5t-188.5 -53.5q-35 0 -63 3.5t-49 8.5v73q23 -6 51 -8.5t63 -2.5q77 0 123 30.5t46 92.5q0 61 -51.5 88.5t-150.5 31.5l90 175h77l-62 -124q55 -6 96.5 -27t64.5 -56t23 -85z" />
    <glyph glyph-name="egrave" unicode="&#xe8;" horiz-adv-x="1125" 
d="M592 1108q139 0 231.5 -65t138 -178t45.5 -259v-73h-785q0 -224 103.5 -344t296.5 -120q101 0 175.5 16.5t165.5 56.5v-93q-80 -36 -160 -52.5t-184 -16.5q-165 0 -276.5 68.5t-168 193.5t-56.5 292q0 163 54.5 293t160 205.5t259.5 75.5zM591 1021q-156 0 -252.5 -103.5
t-113.5 -298.5h677q0 119 -34 210t-102.5 141.5t-174.5 50.5zM440 1569q27 -45 70.5 -102.5t92 -113t89.5 -95.5v-17h-73q-39 32 -81 72t-83 83t-75.5 83.5t-58.5 72.5v17h119z" />
    <glyph glyph-name="eacute" unicode="&#xe9;" horiz-adv-x="1125" 
d="M592 1108q139 0 231.5 -65t138 -178t45.5 -259v-73h-785q0 -224 103.5 -344t296.5 -120q101 0 175.5 16.5t165.5 56.5v-93q-80 -36 -160 -52.5t-184 -16.5q-165 0 -276.5 68.5t-168 193.5t-56.5 292q0 163 54.5 293t160 205.5t259.5 75.5zM591 1021q-156 0 -252.5 -103.5
t-113.5 -298.5h677q0 119 -34 210t-102.5 141.5t-174.5 50.5zM869 1569v-17q-24 -32 -59 -72.5t-76 -83.5t-83 -83t-81 -72h-72v17q40 40 88 95.5t91.5 113t71.5 102.5h120z" />
    <glyph glyph-name="ecircumflex" unicode="&#xea;" horiz-adv-x="1125" 
d="M592 1108q139 0 231.5 -65t138 -178t45.5 -259v-73h-785q0 -224 103.5 -344t296.5 -120q101 0 175.5 16.5t165.5 56.5v-93q-80 -36 -160 -52.5t-184 -16.5q-165 0 -276.5 68.5t-168 193.5t-56.5 292q0 163 54.5 293t160 205.5t259.5 75.5zM591 1021q-156 0 -252.5 -103.5
t-113.5 -298.5h677q0 119 -34 210t-102.5 141.5t-174.5 50.5zM626 1565q25 -43 67 -99.5t89.5 -112t85.5 -96.5v-16h-74q-56 48 -113 110t-104 119q-48 -57 -105 -119t-113 -110h-73v16q38 41 85 96.5t90 112t67 99.5h98z" />
    <glyph glyph-name="edieresis" unicode="&#xeb;" horiz-adv-x="1125" 
d="M592 1108q139 0 231.5 -65t138 -178t45.5 -259v-73h-785q0 -224 103.5 -344t296.5 -120q101 0 175.5 16.5t165.5 56.5v-93q-80 -36 -160 -52.5t-184 -16.5q-165 0 -276.5 68.5t-168 193.5t-56.5 292q0 163 54.5 293t160 205.5t259.5 75.5zM591 1021q-156 0 -252.5 -103.5
t-113.5 -298.5h677q0 119 -34 210t-102.5 141.5t-174.5 50.5zM320 1391q0 35 16.5 56t48.5 21q36 0 52 -21t16 -56q0 -36 -16 -57t-52 -21q-32 0 -48.5 21t-16.5 57zM701 1391q0 35 16.5 56t48.5 21q35 0 51.5 -21t16.5 -56q0 -36 -16.5 -57t-51.5 -21q-32 0 -48.5 21
t-16.5 57z" />
    <glyph glyph-name="igrave" unicode="&#xec;" horiz-adv-x="463" 
d="M281 0h-101v1087h101v-1087zM93 1569q27 -45 70.5 -102.5t92 -113t89.5 -95.5v-17h-73q-39 32 -81 72t-83 83t-75.5 83.5t-58.5 72.5v17h119z" />
    <glyph glyph-name="iacute" unicode="&#xed;" horiz-adv-x="463" 
d="M281 0h-101v1087h101v-1087zM523 1569v-17q-24 -32 -59 -72.5t-76 -83.5t-83 -83t-81 -72h-72v17q40 40 88 95.5t91.5 113t71.5 102.5h120z" />
    <glyph glyph-name="icircumflex" unicode="&#xee;" horiz-adv-x="463" 
d="M281 0h-101v1087h101v-1087zM280 1565q25 -43 67 -99.5t89.5 -112t85.5 -96.5v-16h-74q-56 48 -113 110t-104 119q-48 -57 -105 -119t-113 -110h-73v16q38 41 85 96.5t90 112t67 99.5h98z" />
    <glyph glyph-name="idieresis" unicode="&#xef;" horiz-adv-x="463" 
d="M281 0h-101v1087h101v-1087zM-26 1391q0 35 16.5 56t48.5 21q36 0 52 -21t16 -56q0 -36 -16 -57t-52 -21q-32 0 -48.5 21t-16.5 57zM355 1391q0 35 16.5 56t48.5 21q35 0 51.5 -21t16.5 -56q0 -36 -16.5 -57t-51.5 -21q-32 0 -48.5 21t-16.5 57z" />
    <glyph glyph-name="eth" unicode="&#xf0;" horiz-adv-x="1174" 
d="M427 1556q72 -33 133.5 -70t112.5 -77l229 137l45 -68l-209 -124q103 -100 173.5 -223.5t107 -267t36.5 -304.5q0 -171 -53.5 -302t-159 -204t-260.5 -73q-144 0 -249 59.5t-161.5 169t-56.5 256.5q0 153 59.5 263.5t164 170t240.5 59.5q88 0 153 -17t112.5 -48t80.5 -73
l6 1q-30 136 -101 263.5t-174 221.5l-265 -157l-46 68l244 143q-43 33 -96.5 65.5t-109.5 57.5zM590 872q-113 0 -196.5 -48t-129.5 -140t-46 -222q0 -123 43 -212t125 -136t197 -47q180 0 274.5 125.5t94.5 365.5q0 51 -17.5 106t-58.5 102.5t-111 76.5t-175 29z" />
    <glyph glyph-name="ntilde" unicode="&#xf1;" horiz-adv-x="1209" 
d="M659 1108q183 0 281 -96t98 -301v-711h-100v705q0 162 -74 238t-215 76q-179 0 -273.5 -104.5t-94.5 -315.5v-599h-101v1087h82l15 -198h6q29 61 79.5 110.5t124.5 79t172 29.5zM246 1257q5 55 20 96.5t40.5 69.5t60.5 42.5t77 14.5q49 0 88.5 -21t74 -48.5t69 -49
t72.5 -21.5q46 0 80 29.5t45 111.5h71q-10 -107 -63 -166t-137 -59q-49 0 -88 21t-73 48.5t-68.5 49t-75.5 21.5q-45 0 -78 -29.5t-44 -109.5h-71z" />
    <glyph glyph-name="ograve" unicode="&#xf2;" horiz-adv-x="1201" 
d="M1082 545q0 -126 -31 -229.5t-92 -178.5t-151.5 -116t-210.5 -41q-114 0 -203 40.5t-150.5 115.5t-93.5 178.5t-32 230.5q0 175 58.5 301.5t168 194t262.5 67.5q158 0 263.5 -71.5t158.5 -198.5t53 -293zM222 545q0 -143 41 -250t124.5 -167t211.5 -60q131 0 215 60
t124 168t40 249q0 137 -38 244t-120 168.5t-214 61.5q-189 0 -286.5 -126t-97.5 -348zM461 1569q27 -45 70.5 -102.5t92 -113t89.5 -95.5v-17h-73q-39 32 -81 72t-83 83t-75.5 83.5t-58.5 72.5v17h119z" />
    <glyph glyph-name="oacute" unicode="&#xf3;" horiz-adv-x="1201" 
d="M1082 545q0 -126 -31 -229.5t-92 -178.5t-151.5 -116t-210.5 -41q-114 0 -203 40.5t-150.5 115.5t-93.5 178.5t-32 230.5q0 175 58.5 301.5t168 194t262.5 67.5q158 0 263.5 -71.5t158.5 -198.5t53 -293zM222 545q0 -143 41 -250t124.5 -167t211.5 -60q131 0 215 60
t124 168t40 249q0 137 -38 244t-120 168.5t-214 61.5q-189 0 -286.5 -126t-97.5 -348zM892 1569v-17q-24 -32 -59 -72.5t-76 -83.5t-83 -83t-81 -72h-72v17q40 40 88 95.5t91.5 113t71.5 102.5h120z" />
    <glyph glyph-name="ocircumflex" unicode="&#xf4;" horiz-adv-x="1201" 
d="M1082 545q0 -126 -31 -229.5t-92 -178.5t-151.5 -116t-210.5 -41q-114 0 -203 40.5t-150.5 115.5t-93.5 178.5t-32 230.5q0 175 58.5 301.5t168 194t262.5 67.5q158 0 263.5 -71.5t158.5 -198.5t53 -293zM222 545q0 -143 41 -250t124.5 -167t211.5 -60q131 0 215 60
t124 168t40 249q0 137 -38 244t-120 168.5t-214 61.5q-189 0 -286.5 -126t-97.5 -348zM649 1565q25 -43 67 -99.5t89.5 -112t85.5 -96.5v-16h-74q-56 48 -113 110t-104 119q-48 -57 -105 -119t-113 -110h-73v16q38 41 85 96.5t90 112t67 99.5h98z" />
    <glyph glyph-name="otilde" unicode="&#xf5;" horiz-adv-x="1201" 
d="M1082 545q0 -126 -31 -229.5t-92 -178.5t-151.5 -116t-210.5 -41q-114 0 -203 40.5t-150.5 115.5t-93.5 178.5t-32 230.5q0 175 58.5 301.5t168 194t262.5 67.5q158 0 263.5 -71.5t158.5 -198.5t53 -293zM222 545q0 -143 41 -250t124.5 -167t211.5 -60q131 0 215 60
t124 168t40 249q0 137 -38 244t-120 168.5t-214 61.5q-189 0 -286.5 -126t-97.5 -348zM220 1257q5 55 20 96.5t40.5 69.5t60.5 42.5t77 14.5q49 0 88.5 -21t74 -48.5t69 -49t72.5 -21.5q46 0 80 29.5t45 111.5h71q-10 -107 -63 -166t-137 -59q-49 0 -88 21t-73 48.5
t-68.5 49t-75.5 21.5q-45 0 -78 -29.5t-44 -109.5h-71z" />
    <glyph glyph-name="odieresis" unicode="&#xf6;" horiz-adv-x="1201" 
d="M1082 545q0 -126 -31 -229.5t-92 -178.5t-151.5 -116t-210.5 -41q-114 0 -203 40.5t-150.5 115.5t-93.5 178.5t-32 230.5q0 175 58.5 301.5t168 194t262.5 67.5q158 0 263.5 -71.5t158.5 -198.5t53 -293zM222 545q0 -143 41 -250t124.5 -167t211.5 -60q131 0 215 60
t124 168t40 249q0 137 -38 244t-120 168.5t-214 61.5q-189 0 -286.5 -126t-97.5 -348zM342 1391q0 35 16.5 56t48.5 21q36 0 52 -21t16 -56q0 -36 -16 -57t-52 -21q-32 0 -48.5 21t-16.5 57zM723 1391q0 35 16.5 56t48.5 21q35 0 51.5 -21t16.5 -56q0 -36 -16.5 -57
t-51.5 -21q-32 0 -48.5 21t-16.5 57z" />
    <glyph glyph-name="divide" unicode="&#xf7;" horiz-adv-x="1169" 
d="M109 679v87h951v-87h-951zM583 277q-37 0 -56.5 23t-19.5 63q0 42 19.5 64.5t56.5 22.5q40 0 58 -22.5t18 -64.5q0 -40 -18 -63t-58 -23zM583 995q-37 0 -56.5 23t-19.5 63q0 42 19.5 64t56.5 22q40 0 58 -22t18 -64q0 -40 -18 -63t-58 -23z" />
    <glyph glyph-name="oslash" unicode="&#xf8;" horiz-adv-x="1201" 
d="M1082 545q0 -168 -55 -295t-162.5 -198.5t-267.5 -71.5q-94 0 -169 28t-132 79l-116 -147l-68 50l122 157q-56 75 -86 175.5t-30 222.5q0 263 129.5 413t359.5 150q91 0 164 -25.5t127 -72.5l105 135l70 -49l-112 -144q60 -75 90.5 -179t30.5 -228zM222 545
q0 -96 18 -175.5t54 -139.5l548 706q-42 39 -101 61t-135 22q-189 0 -286.5 -126t-97.5 -348zM978 545q0 96 -18.5 178.5t-59.5 144.5l-549 -707q44 -45 106.5 -69t141.5 -24q131 0 215 60t124 168t40 249z" />
    <glyph glyph-name="ugrave" unicode="&#xf9;" horiz-adv-x="1209" 
d="M1025 1087v-1087h-82l-15 196h-6q-28 -60 -79 -109t-125 -78t-172 -29q-125 0 -209.5 43.5t-127.5 131.5t-43 220v712h101v-702q0 -163 73.5 -240t215.5 -77q120 0 201.5 46t124 139.5t42.5 233.5v600h101zM466 1569q27 -45 70.5 -102.5t92 -113t89.5 -95.5v-17h-73
q-39 32 -81 72t-83 83t-75.5 83.5t-58.5 72.5v17h119z" />
    <glyph glyph-name="uacute" unicode="&#xfa;" horiz-adv-x="1209" 
d="M1025 1087v-1087h-82l-15 196h-6q-28 -60 -79 -109t-125 -78t-172 -29q-125 0 -209.5 43.5t-127.5 131.5t-43 220v712h101v-702q0 -163 73.5 -240t215.5 -77q120 0 201.5 46t124 139.5t42.5 233.5v600h101zM897 1569v-17q-24 -32 -59 -72.5t-76 -83.5t-83 -83t-81 -72
h-72v17q40 40 88 95.5t91.5 113t71.5 102.5h120z" />
    <glyph glyph-name="ucircumflex" unicode="&#xfb;" horiz-adv-x="1209" 
d="M1025 1087v-1087h-82l-15 196h-6q-28 -60 -79 -109t-125 -78t-172 -29q-125 0 -209.5 43.5t-127.5 131.5t-43 220v712h101v-702q0 -163 73.5 -240t215.5 -77q120 0 201.5 46t124 139.5t42.5 233.5v600h101zM653 1565q25 -43 67 -99.5t89.5 -112t85.5 -96.5v-16h-74
q-56 48 -113 110t-104 119q-48 -57 -105 -119t-113 -110h-73v16q38 41 85 96.5t90 112t67 99.5h98z" />
    <glyph glyph-name="udieresis" unicode="&#xfc;" horiz-adv-x="1209" 
d="M1025 1087v-1087h-82l-15 196h-6q-28 -60 -79 -109t-125 -78t-172 -29q-125 0 -209.5 43.5t-127.5 131.5t-43 220v712h101v-702q0 -163 73.5 -240t215.5 -77q120 0 201.5 46t124 139.5t42.5 233.5v600h101zM347 1391q0 35 16.5 56t48.5 21q36 0 52 -21t16 -56
q0 -36 -16 -57t-52 -21q-32 0 -48.5 21t-16.5 57zM728 1391q0 35 16.5 56t48.5 21q35 0 51.5 -21t16.5 -56q0 -36 -16.5 -57t-51.5 -21q-32 0 -48.5 21t-16.5 57z" />
    <glyph glyph-name="yacute" unicode="&#xfd;" horiz-adv-x="940" 
d="M1 1087h107l264 -690q24 -61 42.5 -112.5t32.5 -94t23 -77.5h6q15 46 40 118.5t57 161.5l261 694h108l-496 -1291q-36 -94 -79 -159.5t-101 -99t-140 -33.5q-37 0 -67 5.5t-58 14.5v87q26 -8 53.5 -13.5t60.5 -5.5q57 0 98.5 23.5t74.5 72.5t62 125l74 193zM760 1569v-17
q-24 -32 -59 -72.5t-76 -83.5t-83 -83t-81 -72h-72v17q40 40 88 95.5t91.5 113t71.5 102.5h120z" />
    <glyph glyph-name="thorn" unicode="&#xfe;" horiz-adv-x="1219" 
d="M1103 551q0 -184 -55 -311.5t-156.5 -193.5t-242.5 -66q-99 0 -171.5 29.5t-120 79.5t-74.5 112h-7q2 -34 3.5 -75t2.5 -82t1 -76v-449h-102v2037h102v-473q0 -41 -1.5 -103.5t-3.5 -103.5h5q27 62 76.5 115t124.5 85t178 32q210 0 325.5 -141.5t115.5 -415.5zM999 552
q0 236 -87 351.5t-262 115.5q-186 0 -275.5 -119t-90.5 -339v-19q0 -239 89 -356.5t266 -117.5q116 0 196 55t122 162.5t42 266.5z" />
    <glyph glyph-name="ydieresis" unicode="&#xff;" horiz-adv-x="940" 
d="M1 1087h107l264 -690q24 -61 42.5 -112.5t32.5 -94t23 -77.5h6q15 46 40 118.5t57 161.5l261 694h108l-496 -1291q-36 -94 -79 -159.5t-101 -99t-140 -33.5q-37 0 -67 5.5t-58 14.5v87q26 -8 53.5 -13.5t60.5 -5.5q57 0 98.5 23.5t74.5 72.5t62 125l74 193zM211 1391
q0 35 16.5 56t48.5 21q36 0 52 -21t16 -56q0 -36 -16 -57t-52 -21q-32 0 -48.5 21t-16.5 57zM592 1391q0 35 16.5 56t48.5 21q35 0 51.5 -21t16.5 -56q0 -36 -16.5 -57t-51.5 -21q-32 0 -48.5 21t-16.5 57z" />
    <glyph glyph-name="Amacron" unicode="&#x100;" horiz-adv-x="1230" 
d="M1121 0l-199 517h-614l-203 -517h-105l575 1467h94l560 -1467h-108zM889 610l-202 548q-8 21 -19.5 54t-24 70t-24.5 70q-10 -35 -22 -70t-23 -67.5t-21 -58.5l-210 -546h546zM896 1711v-85h-554v85h554z" />
    <glyph glyph-name="amacron" unicode="&#x101;" horiz-adv-x="1085" 
d="M560 1106q179 0 268 -90t89 -287v-729h-78l-18 190h-6q-35 -61 -85 -108.5t-122.5 -74.5t-176.5 -27q-105 0 -179.5 35t-115 102t-40.5 163q0 162 134 246.5t385 95.5l202 10v79q0 167 -66 238t-195 71q-84 0 -161.5 -21.5t-157.5 -61.5l-32 84q78 37 167.5 61t187.5 24z
M816 553l-190 -8q-207 -10 -315 -74t-108 -192q0 -103 64.5 -158t179.5 -55q179 0 273.5 102t95.5 278v107zM812 1336v-85h-554v85h554z" />
    <glyph glyph-name="Abreve" unicode="&#x102;" horiz-adv-x="1230" 
d="M1121 0l-199 517h-614l-203 -517h-105l575 1467h94l560 -1467h-108zM889 610l-202 548q-8 21 -19.5 54t-24 70t-24.5 70q-10 -35 -22 -70t-23 -67.5t-21 -58.5l-210 -546h546zM896 1862q-9 -77 -43.5 -132t-93.5 -84.5t-142 -29.5q-127 0 -196 64.5t-78 181.5h73
q6 -55 30 -90.5t67 -53t105 -17.5t104.5 18t67 54t31.5 89h75z" />
    <glyph glyph-name="abreve" unicode="&#x103;" horiz-adv-x="1085" 
d="M560 1106q179 0 268 -90t89 -287v-729h-78l-18 190h-6q-35 -61 -85 -108.5t-122.5 -74.5t-176.5 -27q-105 0 -179.5 35t-115 102t-40.5 163q0 162 134 246.5t385 95.5l202 10v79q0 167 -66 238t-195 71q-84 0 -161.5 -21.5t-157.5 -61.5l-32 84q78 37 167.5 61t187.5 24z
M816 553l-190 -8q-207 -10 -315 -74t-108 -192q0 -103 64.5 -158t179.5 -55q179 0 273.5 102t95.5 278v107zM813 1487q-9 -77 -43.5 -132t-93.5 -84.5t-142 -29.5q-127 0 -196 64.5t-78 181.5h73q6 -55 30 -90.5t67 -53t105 -17.5t104.5 18t67 54t31.5 89h75z" />
    <glyph glyph-name="Aogonek" unicode="&#x104;" horiz-adv-x="1230" 
d="M1121 0l-199 517h-614l-203 -517h-105l575 1467h94l560 -1467h-108zM889 610l-202 548q-8 21 -19.5 54t-24 70t-24.5 70q-10 -35 -22 -70t-23 -67.5t-21 -58.5l-210 -546h546zM1019 -257q0 -54 28 -83t82 -29q30 0 55.5 4t42.5 9v-74q-21 -6 -49 -11.5t-63 -5.5
q-85 0 -134.5 45.5t-49.5 132.5q0 53 24.5 104t69 99t105.5 92l60 -26q-71 -59 -121 -121.5t-50 -135.5z" />
    <glyph glyph-name="aogonek" unicode="&#x105;" horiz-adv-x="1085" 
d="M560 1106q179 0 268 -90t89 -287v-729h-78l-18 190h-6q-35 -61 -85 -108.5t-122.5 -74.5t-176.5 -27q-105 0 -179.5 35t-115 102t-40.5 163q0 162 134 246.5t385 95.5l202 10v79q0 167 -66 238t-195 71q-84 0 -161.5 -21.5t-157.5 -61.5l-32 84q78 37 167.5 61t187.5 24z
M816 553l-190 -8q-207 -10 -315 -74t-108 -192q0 -103 64.5 -158t179.5 -55q179 0 273.5 102t95.5 278v107zM755 -257q0 -54 28 -83t82 -29q30 0 55.5 4t42.5 9v-74q-21 -6 -49 -11.5t-63 -5.5q-85 0 -134.5 45.5t-49.5 132.5q0 53 24.5 104t69 99t105.5 92l60 -26
q-71 -59 -121 -121.5t-50 -135.5z" />
    <glyph glyph-name="Cacute" unicode="&#x106;" horiz-adv-x="1271" 
d="M827 1390q-140 0 -250 -47.5t-186 -134.5t-116 -207.5t-40 -265.5q0 -200 63 -349.5t189.5 -231.5t315.5 -82q110 0 200 16.5t167 42.5v-90q-73 -27 -164.5 -44t-212.5 -17q-219 0 -367.5 94t-223.5 264t-75 397q0 163 47 299.5t137.5 237t220.5 156t296 55.5
q105 0 200.5 -20.5t179.5 -59.5l-40 -90q-81 40 -166 58.5t-175 18.5zM1062 1944v-17q-24 -32 -59 -72.5t-76 -83.5t-83 -83t-81 -72h-72v17q40 40 88 95.5t91.5 113t71.5 102.5h120z" />
    <glyph glyph-name="cacute" unicode="&#x107;" horiz-adv-x="973" 
d="M616 -20q-162 0 -273.5 67.5t-168 193t-56.5 297.5q0 179 65 306.5t183 195.5t277 68q78 0 145 -14t121 -39l-27 -89q-56 25 -119 38t-121 13q-134 0 -227.5 -58.5t-143 -166t-49.5 -253.5q0 -137 42 -242.5t129 -166t223 -60.5q79 0 150.5 16t130.5 41v-92
q-53 -24 -122.5 -39.5t-158.5 -15.5zM873 1569v-17q-24 -32 -59 -72.5t-76 -83.5t-83 -83t-81 -72h-72v17q40 40 88 95.5t91.5 113t71.5 102.5h120z" />
    <glyph glyph-name="Ccircumflex" unicode="&#x108;" horiz-adv-x="1271" 
d="M827 1390q-140 0 -250 -47.5t-186 -134.5t-116 -207.5t-40 -265.5q0 -200 63 -349.5t189.5 -231.5t315.5 -82q110 0 200 16.5t167 42.5v-90q-73 -27 -164.5 -44t-212.5 -17q-219 0 -367.5 94t-223.5 264t-75 397q0 163 47 299.5t137.5 237t220.5 156t296 55.5
q105 0 200.5 -20.5t179.5 -59.5l-40 -90q-81 40 -166 58.5t-175 18.5zM818 1940q25 -43 67 -99.5t89.5 -112t85.5 -96.5v-16h-74q-56 48 -113 110t-104 119q-48 -57 -105 -119t-113 -110h-73v16q38 41 85 96.5t90 112t67 99.5h98z" />
    <glyph glyph-name="ccircumflex" unicode="&#x109;" horiz-adv-x="973" 
d="M616 -20q-162 0 -273.5 67.5t-168 193t-56.5 297.5q0 179 65 306.5t183 195.5t277 68q78 0 145 -14t121 -39l-27 -89q-56 25 -119 38t-121 13q-134 0 -227.5 -58.5t-143 -166t-49.5 -253.5q0 -137 42 -242.5t129 -166t223 -60.5q79 0 150.5 16t130.5 41v-92
q-53 -24 -122.5 -39.5t-158.5 -15.5zM631 1565q25 -43 67 -99.5t89.5 -112t85.5 -96.5v-16h-74q-56 48 -113 110t-104 119q-48 -57 -105 -119t-113 -110h-73v16q38 41 85 96.5t90 112t67 99.5h98z" />
    <glyph glyph-name="Cdot" unicode="&#x10a;" horiz-adv-x="1271" 
d="M827 1390q-140 0 -250 -47.5t-186 -134.5t-116 -207.5t-40 -265.5q0 -200 63 -349.5t189.5 -231.5t315.5 -82q110 0 200 16.5t167 42.5v-90q-73 -27 -164.5 -44t-212.5 -17q-219 0 -367.5 94t-223.5 264t-75 397q0 163 47 299.5t137.5 237t220.5 156t296 55.5
q105 0 200.5 -20.5t179.5 -59.5l-40 -90q-81 40 -166 58.5t-175 18.5zM760 1864q38 0 56 -22.5t18 -60.5t-18 -60t-56 -22q-36 0 -54 22t-18 60t18 60.5t54 22.5z" />
    <glyph glyph-name="cdot" unicode="&#x10b;" horiz-adv-x="973" 
d="M616 -20q-162 0 -273.5 67.5t-168 193t-56.5 297.5q0 179 65 306.5t183 195.5t277 68q78 0 145 -14t121 -39l-27 -89q-56 25 -119 38t-121 13q-134 0 -227.5 -58.5t-143 -166t-49.5 -253.5q0 -137 42 -242.5t129 -166t223 -60.5q79 0 150.5 16t130.5 41v-92
q-53 -24 -122.5 -39.5t-158.5 -15.5zM572 1489q38 0 56 -22.5t18 -60.5t-18 -60t-56 -22q-36 0 -54 22t-18 60t18 60.5t54 22.5z" />
    <glyph glyph-name="Ccaron" unicode="&#x10c;" horiz-adv-x="1271" 
d="M827 1390q-140 0 -250 -47.5t-186 -134.5t-116 -207.5t-40 -265.5q0 -200 63 -349.5t189.5 -231.5t315.5 -82q110 0 200 16.5t167 42.5v-90q-73 -27 -164.5 -44t-212.5 -17q-219 0 -367.5 94t-223.5 264t-75 397q0 163 47 299.5t137.5 237t220.5 156t296 55.5
q105 0 200.5 -20.5t179.5 -59.5l-40 -90q-81 40 -166 58.5t-175 18.5zM717 1616q-25 44 -67 99.5t-88.5 110.5t-84.5 96v18h73q56 -48 112.5 -110.5t102.5 -120.5q48 58 106 120.5t114 110.5h74v-18q-38 -41 -86 -96t-91 -110.5t-68 -99.5h-97z" />
    <glyph glyph-name="ccaron" unicode="&#x10d;" horiz-adv-x="973" 
d="M616 -20q-162 0 -273.5 67.5t-168 193t-56.5 297.5q0 179 65 306.5t183 195.5t277 68q78 0 145 -14t121 -39l-27 -89q-56 25 -119 38t-121 13q-134 0 -227.5 -58.5t-143 -166t-49.5 -253.5q0 -137 42 -242.5t129 -166t223 -60.5q79 0 150.5 16t130.5 41v-92
q-53 -24 -122.5 -39.5t-158.5 -15.5zM530 1241q-25 44 -67 99.5t-88.5 110.5t-84.5 96v18h73q56 -48 112.5 -110.5t102.5 -120.5q48 58 106 120.5t114 110.5h74v-18q-38 -41 -86 -96t-91 -110.5t-68 -99.5h-97z" />
    <glyph glyph-name="Dcaron" unicode="&#x10e;" horiz-adv-x="1446" 
d="M1318 745q0 -245 -86.5 -411t-256 -250t-419.5 -84h-350v1462h396q234 0 393 -82t241 -241.5t82 -393.5zM1210 741q0 209 -68 349t-208 210.5t-355 70.5h-270v-1280h242q331 0 495 162.5t164 487.5zM671 1616q-25 44 -67 99.5t-88.5 110.5t-84.5 96v18h73
q56 -48 112.5 -110.5t102.5 -120.5q48 58 106 120.5t114 110.5h74v-18q-38 -41 -86 -96t-91 -110.5t-68 -99.5h-97z" />
    <glyph glyph-name="dcaron" unicode="&#x10f;" horiz-adv-x="1219" 
d="M574 -20q-223 0 -339.5 140.5t-116.5 409.5q0 282 123 430t343 148q94 0 163.5 -29t117 -78.5t73.5 -112.5h8q-4 53 -6 114t-2 112v442h101v-1556h-82l-13 199h-6q-27 -60 -74.5 -110t-118.5 -79.5t-171 -29.5zM585 68q192 0 273 119.5t81 341.5v16q0 230 -81 352.5
t-264 122.5q-181 0 -276.5 -126t-95.5 -366q0 -226 89.5 -343t273.5 -117zM1311 1556v-14q-11 -47 -31 -102t-45 -109.5t-55 -101.5h-59v17q12 25 25 64t25.5 83.5t22 87t13.5 75.5h104z" />
    <glyph glyph-name="Dcroat" unicode="&#x110;" horiz-adv-x="1446" 
d="M602 1462q233 0 392.5 -82t241.5 -241.5t82 -393.5q0 -245 -86.5 -411t-256 -250t-420.5 -84h-343v680h-167v93h167v689h390zM579 1371h-265v-598h401v-93h-401v-589h237q331 0 495 162.5t164 487.5q0 209 -68.5 349t-208 210.5t-354.5 70.5z" />
    <glyph glyph-name="dcroat" unicode="&#x111;" horiz-adv-x="1219" 
d="M574 -20q-223 0 -339.5 140t-116.5 408q0 284 123 431t343 147q94 0 163 -29t117 -79t74 -112h8q-4 53 -6 114t-2 113v158h-473v82h473v203h101v-203h153v-82h-153v-1271h-83l-12 199h-7q-27 -60 -74.5 -110t-118.5 -79.5t-170 -29.5zM585 68q192 0 272 119t80 340v17
q0 230 -80 352t-263 122q-181 0 -276 -125t-95 -365q0 -227 89 -343.5t273 -116.5z" />
    <glyph glyph-name="Emacron" unicode="&#x112;" horiz-adv-x="1131" 
d="M1005 0h-799v1462h799v-93h-696v-554h657v-93h-657v-629h696v-93zM906 1711v-85h-554v85h554z" />
    <glyph glyph-name="emacron" unicode="&#x113;" horiz-adv-x="1125" 
d="M592 1108q139 0 231.5 -65t138 -178t45.5 -259v-73h-785q0 -224 103.5 -344t296.5 -120q101 0 175.5 16.5t165.5 56.5v-93q-80 -36 -160 -52.5t-184 -16.5q-165 0 -276.5 68.5t-168 193.5t-56.5 292q0 163 54.5 293t160 205.5t259.5 75.5zM591 1021q-156 0 -252.5 -103.5
t-113.5 -298.5h677q0 119 -34 210t-102.5 141.5t-174.5 50.5zM853 1336v-85h-554v85h554z" />
    <glyph glyph-name="Ebreve" unicode="&#x114;" horiz-adv-x="1131" 
d="M1005 0h-799v1462h799v-93h-696v-554h657v-93h-657v-629h696v-93zM907 1862q-9 -77 -43.5 -132t-93.5 -84.5t-142 -29.5q-127 0 -196 64.5t-78 181.5h73q6 -55 30 -90.5t67 -53t105 -17.5t104.5 18t67 54t31.5 89h75z" />
    <glyph glyph-name="ebreve" unicode="&#x115;" horiz-adv-x="1125" 
d="M592 1108q139 0 231.5 -65t138 -178t45.5 -259v-73h-785q0 -224 103.5 -344t296.5 -120q101 0 175.5 16.5t165.5 56.5v-93q-80 -36 -160 -52.5t-184 -16.5q-165 0 -276.5 68.5t-168 193.5t-56.5 292q0 163 54.5 293t160 205.5t259.5 75.5zM591 1021q-156 0 -252.5 -103.5
t-113.5 -298.5h677q0 119 -34 210t-102.5 141.5t-174.5 50.5zM855 1487q-9 -77 -43.5 -132t-93.5 -84.5t-142 -29.5q-127 0 -196 64.5t-78 181.5h73q6 -55 30 -90.5t67 -53t105 -17.5t104.5 18t67 54t31.5 89h75z" />
    <glyph glyph-name="Edotaccent" unicode="&#x116;" horiz-adv-x="1131" 
d="M1005 0h-799v1462h799v-93h-696v-554h657v-93h-657v-629h696v-93zM620 1864q38 0 56 -22.5t18 -60.5t-18 -60t-56 -22q-36 0 -54 22t-18 60t18 60.5t54 22.5z" />
    <glyph glyph-name="edotaccent" unicode="&#x117;" horiz-adv-x="1125" 
d="M592 1108q139 0 231.5 -65t138 -178t45.5 -259v-73h-785q0 -224 103.5 -344t296.5 -120q101 0 175.5 16.5t165.5 56.5v-93q-80 -36 -160 -52.5t-184 -16.5q-165 0 -276.5 68.5t-168 193.5t-56.5 292q0 163 54.5 293t160 205.5t259.5 75.5zM591 1021q-156 0 -252.5 -103.5
t-113.5 -298.5h677q0 119 -34 210t-102.5 141.5t-174.5 50.5zM568 1489q38 0 56 -22.5t18 -60.5t-18 -60t-56 -22q-36 0 -54 22t-18 60t18 60.5t54 22.5z" />
    <glyph glyph-name="Eogonek" unicode="&#x118;" horiz-adv-x="1131" 
d="M1005 0h-799v1462h799v-93h-696v-554h657v-93h-657v-629h696v-93zM785 -257q0 -54 28 -83t82 -29q30 0 55.5 4t42.5 9v-74q-21 -6 -49 -11.5t-63 -5.5q-85 0 -134.5 45.5t-49.5 132.5q0 53 24.5 104t69 99t105.5 92l60 -26q-71 -59 -121 -121.5t-50 -135.5z" />
    <glyph glyph-name="eogonek" unicode="&#x119;" horiz-adv-x="1125" 
d="M747 -257q0 -54 27.5 -83t81.5 -29q30 0 55.5 4t42.5 9v-74q-22 -6 -49.5 -11.5t-62.5 -5.5q-85 0 -134 45.5t-49 132.5q0 53 24 105t68.5 103.5t105.5 100.5l93 5q-67 -58 -112.5 -108.5t-68 -97.5t-22.5 -96zM592 1108q139 0 231.5 -65t138 -178t45.5 -259v-73h-785
q0 -224 103.5 -344t296.5 -120q101 0 175.5 16.5t165.5 56.5v-93q-80 -36 -160 -52.5t-184 -16.5q-165 0 -276.5 68.5t-168 193.5t-56.5 292q0 163 54.5 293t160 205.5t259.5 75.5zM591 1021q-156 0 -252.5 -103.5t-113.5 -298.5h677q0 119 -34 210t-102.5 141.5
t-174.5 50.5z" />
    <glyph glyph-name="Ecaron" unicode="&#x11a;" horiz-adv-x="1131" 
d="M1005 0h-799v1462h799v-93h-696v-554h657v-93h-657v-629h696v-93zM579 1616q-25 44 -67 99.5t-88.5 110.5t-84.5 96v18h73q56 -48 112.5 -110.5t102.5 -120.5q48 58 106 120.5t114 110.5h74v-18q-38 -41 -86 -96t-91 -110.5t-68 -99.5h-97z" />
    <glyph glyph-name="ecaron" unicode="&#x11b;" horiz-adv-x="1125" 
d="M592 1108q139 0 231.5 -65t138 -178t45.5 -259v-73h-785q0 -224 103.5 -344t296.5 -120q101 0 175.5 16.5t165.5 56.5v-93q-80 -36 -160 -52.5t-184 -16.5q-165 0 -276.5 68.5t-168 193.5t-56.5 292q0 163 54.5 293t160 205.5t259.5 75.5zM591 1021q-156 0 -252.5 -103.5
t-113.5 -298.5h677q0 119 -34 210t-102.5 141.5t-174.5 50.5zM525 1241q-25 44 -67 99.5t-88.5 110.5t-84.5 96v18h73q56 -48 112.5 -110.5t102.5 -120.5q48 58 106 120.5t114 110.5h74v-18q-38 -41 -86 -96t-91 -110.5t-68 -99.5h-97z" />
    <glyph glyph-name="Gcircumflex" unicode="&#x11c;" horiz-adv-x="1481" 
d="M783 738h537v-671q-105 -44 -224 -65.5t-253 -21.5q-233 0 -392.5 88.5t-241.5 256.5t-82 404q0 220 89.5 391t256.5 268t400 97q120 0 226.5 -22t202.5 -66l-41 -92q-95 44 -193.5 66t-199.5 22q-198 0 -340.5 -84.5t-218 -234t-75.5 -344.5q0 -221 73 -367t213.5 -219
t341.5 -73q110 0 197.5 16t158.5 42v515h-435v94zM869 1940q25 -43 67 -99.5t89.5 -112t85.5 -96.5v-16h-74q-56 48 -113 110t-104 119q-48 -57 -105 -119t-113 -110h-73v16q38 41 85 96.5t90 112t67 99.5h98z" />
    <glyph glyph-name="gcircumflex" unicode="&#x11d;" horiz-adv-x="1064" 
d="M468 -492q-205 0 -318.5 79t-113.5 221q0 110 69 189.5t187 95.5q-47 22 -76.5 60t-29.5 88q0 56 35 104.5t105 89.5q-94 34 -148 115.5t-54 196.5q0 110 47 191t133.5 125.5t204.5 44.5q36 0 65.5 -2t54.5 -6.5t45 -11.5h351v-72l-224 -15q44 -53 66 -114.5t22 -129.5
q0 -162 -102 -257t-284 -95q-50 0 -98 9q-61 -36 -93 -72.5t-32 -90.5q0 -34 20 -55.5t58 -33t93 -11.5h191q177 0 271 -72t94 -212q0 -171 -140.5 -265t-398.5 -94zM475 -407q143 0 238.5 31t143.5 91.5t48 149.5q0 73 -35 113t-99 55.5t-151 15.5h-182q-87 0 -155 -23.5
t-105.5 -74.5t-37.5 -136q0 -109 85.5 -165.5t249.5 -56.5zM507 486q135 0 207 68t72 197q0 138 -74 207t-207 69q-129 0 -202.5 -73.5t-73.5 -206.5q0 -124 70 -192.5t208 -68.5zM556 1565q25 -43 67 -99.5t89.5 -112t85.5 -96.5v-16h-74q-56 48 -113 110t-104 119
q-48 -57 -105 -119t-113 -110h-73v16q38 41 85 96.5t90 112t67 99.5h98z" />
    <glyph glyph-name="Gbreve" unicode="&#x11e;" horiz-adv-x="1481" 
d="M783 738h537v-671q-105 -44 -224 -65.5t-253 -21.5q-233 0 -392.5 88.5t-241.5 256.5t-82 404q0 220 89.5 391t256.5 268t400 97q120 0 226.5 -22t202.5 -66l-41 -92q-95 44 -193.5 66t-199.5 22q-198 0 -340.5 -84.5t-218 -234t-75.5 -344.5q0 -221 73 -367t213.5 -219
t341.5 -73q110 0 197.5 16t158.5 42v515h-435v94zM1095 1862q-9 -77 -43.5 -132t-93.5 -84.5t-142 -29.5q-127 0 -196 64.5t-78 181.5h73q6 -55 30 -90.5t67 -53t105 -17.5t104.5 18t67 54t31.5 89h75z" />
    <glyph glyph-name="gbreve" unicode="&#x11f;" horiz-adv-x="1064" 
d="M468 -492q-205 0 -318.5 79t-113.5 221q0 110 69 189.5t187 95.5q-47 22 -76.5 60t-29.5 88q0 56 35 104.5t105 89.5q-94 34 -148 115.5t-54 196.5q0 110 47 191t133.5 125.5t204.5 44.5q36 0 65.5 -2t54.5 -6.5t45 -11.5h351v-72l-224 -15q44 -53 66 -114.5t22 -129.5
q0 -162 -102 -257t-284 -95q-50 0 -98 9q-61 -36 -93 -72.5t-32 -90.5q0 -34 20 -55.5t58 -33t93 -11.5h191q177 0 271 -72t94 -212q0 -171 -140.5 -265t-398.5 -94zM475 -407q143 0 238.5 31t143.5 91.5t48 149.5q0 73 -35 113t-99 55.5t-151 15.5h-182q-87 0 -155 -23.5
t-105.5 -74.5t-37.5 -136q0 -109 85.5 -165.5t249.5 -56.5zM507 486q135 0 207 68t72 197q0 138 -74 207t-207 69q-129 0 -202.5 -73.5t-73.5 -206.5q0 -124 70 -192.5t208 -68.5zM784 1487q-9 -77 -43.5 -132t-93.5 -84.5t-142 -29.5q-127 0 -196 64.5t-78 181.5h73
q6 -55 30 -90.5t67 -53t105 -17.5t104.5 18t67 54t31.5 89h75z" />
    <glyph glyph-name="Gdot" unicode="&#x120;" horiz-adv-x="1481" 
d="M783 738h537v-671q-105 -44 -224 -65.5t-253 -21.5q-233 0 -392.5 88.5t-241.5 256.5t-82 404q0 220 89.5 391t256.5 268t400 97q120 0 226.5 -22t202.5 -66l-41 -92q-95 44 -193.5 66t-199.5 22q-198 0 -340.5 -84.5t-218 -234t-75.5 -344.5q0 -221 73 -367t213.5 -219
t341.5 -73q110 0 197.5 16t158.5 42v515h-435v94zM811 1864q38 0 56 -22.5t18 -60.5t-18 -60t-56 -22q-36 0 -54 22t-18 60t18 60.5t54 22.5z" />
    <glyph glyph-name="gdot" unicode="&#x121;" horiz-adv-x="1064" 
d="M468 -492q-205 0 -318.5 79t-113.5 221q0 110 69 189.5t187 95.5q-47 22 -76.5 60t-29.5 88q0 56 35 104.5t105 89.5q-94 34 -148 115.5t-54 196.5q0 110 47 191t133.5 125.5t204.5 44.5q36 0 65.5 -2t54.5 -6.5t45 -11.5h351v-72l-224 -15q44 -53 66 -114.5t22 -129.5
q0 -162 -102 -257t-284 -95q-50 0 -98 9q-61 -36 -93 -72.5t-32 -90.5q0 -34 20 -55.5t58 -33t93 -11.5h191q177 0 271 -72t94 -212q0 -171 -140.5 -265t-398.5 -94zM475 -407q143 0 238.5 31t143.5 91.5t48 149.5q0 73 -35 113t-99 55.5t-151 15.5h-182q-87 0 -155 -23.5
t-105.5 -74.5t-37.5 -136q0 -109 85.5 -165.5t249.5 -56.5zM507 486q135 0 207 68t72 197q0 138 -74 207t-207 69q-129 0 -202.5 -73.5t-73.5 -206.5q0 -124 70 -192.5t208 -68.5zM507 1489q38 0 56 -22.5t18 -60.5t-18 -60t-56 -22q-36 0 -54 22t-18 60t18 60.5t54 22.5z
" />
    <glyph glyph-name="uni0122" unicode="&#x122;" horiz-adv-x="1481" 
d="M783 738h537v-671q-105 -44 -224 -65.5t-253 -21.5q-233 0 -392.5 88.5t-241.5 256.5t-82 404q0 220 89.5 391t256.5 268t400 97q120 0 226.5 -22t202.5 -66l-41 -92q-95 44 -193.5 66t-199.5 22q-198 0 -340.5 -84.5t-218 -234t-75.5 -344.5q0 -221 73 -367t213.5 -219
t341.5 -73q110 0 197.5 16t158.5 42v515h-435v94zM894 -125v-14q-11 -47 -31 -102t-47 -110t-59 -102h-58v18q16 32 34.5 88t35 117t21.5 105h104z" />
    <glyph glyph-name="uni0123" unicode="&#x123;" horiz-adv-x="1064" 
d="M623 1563v-17q-16 -32 -35.5 -88.5t-35 -117.5t-21.5 -105h-104v15q12 47 31.5 102t46.5 109.5t59 101.5h59zM468 -492q-205 0 -318.5 79t-113.5 221q0 110 69 189.5t187 95.5q-47 22 -76.5 60t-29.5 88q0 56 35 104.5t105 89.5q-94 34 -148 115.5t-54 196.5
q0 110 47 191t133.5 125.5t204.5 44.5q36 0 65.5 -2t54.5 -6.5t45 -11.5h351v-72l-224 -15q44 -53 66 -114.5t22 -129.5q0 -162 -102 -257t-284 -95q-50 0 -98 9q-61 -36 -93 -72.5t-32 -90.5q0 -34 20 -55.5t58 -33t93 -11.5h191q177 0 271 -72t94 -212q0 -171 -140.5 -265
t-398.5 -94zM475 -407q143 0 238.5 31t143.5 91.5t48 149.5q0 73 -35 113t-99 55.5t-151 15.5h-182q-87 0 -155 -23.5t-105.5 -74.5t-37.5 -136q0 -109 85.5 -165.5t249.5 -56.5zM507 486q135 0 207 68t72 197q0 138 -74 207t-207 69q-129 0 -202.5 -73.5t-73.5 -206.5
q0 -124 70 -192.5t208 -68.5z" />
    <glyph glyph-name="Hcircumflex" unicode="&#x124;" horiz-adv-x="1473" 
d="M1266 0h-103v720h-854v-720h-103v1462h103v-648h854v648h103v-1462zM795 1940q25 -43 67 -99.5t89.5 -112t85.5 -96.5v-16h-74q-56 48 -113 110t-104 119q-48 -57 -105 -119t-113 -110h-73v16q38 41 85 96.5t90 112t67 99.5h98z" />
    <glyph glyph-name="hcircumflex" unicode="&#x125;" horiz-adv-x="1209" 
d="M281 1556v-508q0 -44 -1.5 -82t-4.5 -77h7q27 62 77.5 111t125 78t172.5 29q124 0 208.5 -42.5t128.5 -129.5t44 -224v-711h-100v705q0 162 -74 238t-215 76q-120 0 -202 -46.5t-124 -140t-42 -233.5v-599h-101v1556h101zM279 2034q25 -43 67 -99.5t89.5 -112t85.5 -96.5
v-16h-74q-56 48 -113 110t-104 119q-48 -57 -105 -119t-113 -110h-73v16q38 41 85 96.5t90 112t67 99.5h98z" />
    <glyph glyph-name="Hbar" unicode="&#x126;" horiz-adv-x="1473" 
d="M206 0v1104h-206v88h206v270h103v-270h854v270h103v-270h206v-88h-206v-1104h-103v720h-854v-720h-103zM309 814h854v290h-854v-290z" />
    <glyph glyph-name="hbar" unicode="&#x127;" horiz-adv-x="1209" 
d="M281 1556v-203h473v-83h-473v-238q0 -43 -1.5 -80.5t-4.5 -77.5h7q27 62 77.5 111.5t125.5 78.5t173 29q123 0 207.5 -42.5t128.5 -130.5t44 -224v-696h-100v690q0 161 -74 237.5t-215 76.5q-120 0 -202 -46.5t-124 -139.5t-42 -234v-584h-101v1270h-152v83h152v203h101z
" />
    <glyph glyph-name="Itilde" unicode="&#x128;" horiz-adv-x="516" 
d="M206 0v1462h103v-1462h-103zM-89 1632q5 55 20 96.5t40.5 69.5t60.5 42.5t77 14.5q49 0 88.5 -21t74 -48.5t69 -49t72.5 -21.5q46 0 80 29.5t45 111.5h71q-10 -107 -63 -166t-137 -59q-49 0 -88 21t-73 48.5t-68.5 49t-75.5 21.5q-45 0 -78 -29.5t-44 -109.5h-71z" />
    <glyph glyph-name="itilde" unicode="&#x129;" horiz-adv-x="463" 
d="M281 0h-101v1087h101v-1087zM-150 1257q5 55 20 96.5t40.5 69.5t60.5 42.5t77 14.5q49 0 88.5 -21t74 -48.5t69 -49t72.5 -21.5q46 0 80 29.5t45 111.5h71q-10 -107 -63 -166t-137 -59q-49 0 -88 21t-73 48.5t-68.5 49t-75.5 21.5q-45 0 -78 -29.5t-44 -109.5h-71z" />
    <glyph glyph-name="Imacron" unicode="&#x12a;" horiz-adv-x="516" 
d="M206 0v1462h103v-1462h-103zM536 1711v-85h-554v85h554z" />
    <glyph glyph-name="imacron" unicode="&#x12b;" horiz-adv-x="463" 
d="M281 0h-101v1087h101v-1087zM507 1336v-85h-554v85h554z" />
    <glyph glyph-name="Ibreve" unicode="&#x12c;" horiz-adv-x="516" 
d="M206 0v1462h103v-1462h-103zM536 1862q-9 -77 -43.5 -132t-93.5 -84.5t-142 -29.5q-127 0 -196 64.5t-78 181.5h73q6 -55 30 -90.5t67 -53t105 -17.5t104.5 18t67 54t31.5 89h75z" />
    <glyph glyph-name="ibreve" unicode="&#x12d;" horiz-adv-x="463" 
d="M281 0h-101v1087h101v-1087zM508 1487q-9 -77 -43.5 -132t-93.5 -84.5t-142 -29.5q-127 0 -196 64.5t-78 181.5h73q6 -55 30 -90.5t67 -53t105 -17.5t104.5 18t67 54t31.5 89h75z" />
    <glyph glyph-name="Iogonek" unicode="&#x12e;" horiz-adv-x="516" 
d="M206 0v1462h103v-1462h-103zM138 -257q0 -54 28 -83t82 -29q30 0 55.5 4t42.5 9v-74q-21 -6 -49 -11.5t-63 -5.5q-85 0 -134.5 45.5t-49.5 132.5q0 53 24.5 104t69 99t105.5 92l60 -26q-71 -59 -121 -121.5t-50 -135.5z" />
    <glyph glyph-name="iogonek" unicode="&#x12f;" horiz-adv-x="463" 
d="M281 1087v-1087h-101v1087h101zM232 1489q38 0 56 -22.5t18 -60.5t-18 -60t-56 -22q-36 0 -54 22t-18 60t18 60.5t54 22.5zM106 -257q0 -54 28 -83t82 -29q30 0 55.5 4t42.5 9v-74q-21 -6 -49 -11.5t-63 -5.5q-85 0 -134.5 45.5t-49.5 132.5q0 53 24.5 104t69 99
t105.5 92l60 -26q-71 -59 -121 -121.5t-50 -135.5z" />
    <glyph glyph-name="Idotaccent" unicode="&#x130;" horiz-adv-x="516" 
d="M206 0v1462h103v-1462h-103zM259 1864q38 0 56 -22.5t18 -60.5t-18 -60t-56 -22q-36 0 -54 22t-18 60t18 60.5t54 22.5z" />
    <glyph glyph-name="dotlessi" unicode="&#x131;" horiz-adv-x="463" 
d="M281 0h-101v1087h101v-1087z" />
    <glyph glyph-name="IJ" unicode="&#x132;" horiz-adv-x="1021" 
d="M206 0v1462h103v-1462h-103zM489 -368q-54 0 -93 7t-65 18v94q29 -11 70 -18t86 -7q81 0 133 32t77 95t25 156v1453h103v-1451q0 -116 -36.5 -201.5t-110.5 -131.5t-189 -46z" />
    <glyph glyph-name="ij" unicode="&#x133;" horiz-adv-x="926" 
d="M281 1087v-1087h-101v1087h101zM232 1489q38 0 56 -22.5t18 -60.5t-18 -60t-56 -22q-36 0 -54 22t-18 60t18 60.5t54 22.5zM494 -492q-44 0 -78 6.5t-59 16.5v87q31 -12 62.5 -16.5t66.5 -4.5q76 0 116.5 47t40.5 144v1299h101v-1302q0 -90 -30.5 -152t-86.5 -93.5
t-133 -31.5zM623 1406q0 38 18 60.5t54 22.5q38 0 56 -22.5t18 -60.5t-18 -60t-56 -22q-36 0 -54 22t-18 60z" />
    <glyph glyph-name="Jcircumflex" unicode="&#x134;" horiz-adv-x="505" 
d="M-27 -368q-54 0 -93 7t-65 18v94q29 -11 70 -18t86 -7q81 0 133 32t77 95t25 156v1453h103v-1451q0 -116 -36.5 -201.5t-110.5 -131.5t-189 -46zM306 1940q25 -43 67 -99.5t89.5 -112t85.5 -96.5v-16h-74q-56 48 -113 110t-104 119q-48 -57 -105 -119t-113 -110h-73v16
q38 41 85 96.5t90 112t67 99.5h98z" />
    <glyph glyph-name="jcircumflex" unicode="&#x135;" horiz-adv-x="463" 
d="M31 -492q-44 0 -78 6.5t-59 16.5v87q31 -12 62.5 -16.5t66.5 -4.5q76 0 116.5 47t40.5 144v1299h101v-1302q0 -90 -30.5 -152t-86.5 -93.5t-133 -31.5zM280 1565q25 -43 67 -99.5t89.5 -112t85.5 -96.5v-16h-74q-56 48 -113 110t-104 119q-48 -57 -105 -119t-113 -110
h-73v16q38 41 85 96.5t90 112t67 99.5h98z" />
    <glyph glyph-name="uni0136" unicode="&#x136;" horiz-adv-x="1190" 
d="M1190 0h-125l-566 771l-190 -183v-588h-103v1462h103v-769q37 42 77.5 84.5t81.5 86.5l577 598h128l-598 -619zM726 -125v-14q-11 -47 -31 -102t-47 -110t-59 -102h-58v18q16 32 34.5 88t35 117t21.5 105h104z" />
    <glyph glyph-name="uni0137" unicode="&#x137;" horiz-adv-x="991" 
d="M281 1556v-785q0 -73 -1.5 -148.5t-3.5 -150.5h2q29 34 60.5 71.5t62.5 72.5l430 471h122l-429 -466l467 -621h-121l-415 554l-174 -183v-371h-101v1556h101zM602 -125v-14q-11 -47 -31 -102t-47 -110t-59 -102h-58v18q16 32 34.5 88t35 117t21.5 105h104z" />
    <glyph glyph-name="kgreenlandic" unicode="&#x138;" horiz-adv-x="991" 
d="M952 1087l-417 -473l456 -614h-120l-407 548l-178 -184v-364h-106v1087h106v-290q0 -91 -1.5 -175.5t-5.5 -160.5v0q30 34 53.5 62t51.5 60l443 504h125z" />
    <glyph glyph-name="Lacute" unicode="&#x139;" horiz-adv-x="1050" 
d="M206 0v1462h103v-1368h696v-94h-799zM554 1944v-17q-24 -32 -59 -72.5t-76 -83.5t-83 -83t-81 -72h-72v17q40 40 88 95.5t91.5 113t71.5 102.5h120z" />
    <glyph glyph-name="lacute" unicode="&#x13a;" horiz-adv-x="463" 
d="M283 0h-102v1556h102v-1556zM523 2038v-17q-24 -32 -59 -72.5t-76 -83.5t-83 -83t-81 -72h-72v17q40 40 88 95.5t91.5 113t71.5 102.5h120z" />
    <glyph glyph-name="uni013B" unicode="&#x13b;" horiz-adv-x="1050" 
d="M206 0v1462h103v-1368h696v-94h-799zM679 -125v-14q-11 -47 -31 -102t-47 -110t-59 -102h-58v18q16 32 34.5 88t35 117t21.5 105h104z" />
    <glyph glyph-name="uni013C" unicode="&#x13c;" horiz-adv-x="463" 
d="M283 0h-102v1556h102v-1556zM310 -125v-14q-11 -47 -31 -102t-47 -110t-59 -102h-58v18q16 32 34.5 88t35 117t21.5 105h104z" />
    <glyph glyph-name="Lcaron" unicode="&#x13d;" horiz-adv-x="1050" 
d="M206 0v1462h103v-1368h696v-94h-799zM987 1462v-14q-11 -47 -31 -102t-45 -109.5t-55 -101.5h-59v17q12 25 25 64t25.5 83.5t22 87t13.5 75.5h104z" />
    <glyph glyph-name="lcaron" unicode="&#x13e;" horiz-adv-x="463" 
d="M283 0h-102v1556h102v-1556zM551 1556v-14q-11 -47 -31 -102t-45 -109.5t-55 -101.5h-59v17q12 25 25 64t25.5 83.5t22 87t13.5 75.5h104z" />
    <glyph glyph-name="Ldot" unicode="&#x13f;" horiz-adv-x="1050" 
d="M206 0v1462h103v-1368h696v-94h-799zM751 861q38 0 56 -22.5t18 -60.5t-18 -60t-56 -22q-36 0 -54 22t-18 60t18 60.5t54 22.5z" />
    <glyph glyph-name="ldot" unicode="&#x140;" horiz-adv-x="471" 
d="M283 0h-102v1556h102v-1556zM467 873q38 0 56 -22.5t18 -60.5t-18 -60t-56 -22q-36 0 -54 22t-18 60t18 60.5t54 22.5z" />
    <glyph glyph-name="Lslash" unicode="&#x141;" horiz-adv-x="1050" 
d="M206 0v552l-137 -86l-46 73l183 116v807h103v-745l324 203l47 -76l-371 -230v-520h696v-94h-799z" />
    <glyph glyph-name="lslash" unicode="&#x142;" horiz-adv-x="463" 
d="M181 0v653l-130 -86l-45 72l175 115v802h100v-740l153 104l44 -70l-197 -132v-718h-100z" />
    <glyph glyph-name="Nacute" unicode="&#x143;" horiz-adv-x="1477" 
d="M1270 0h-105l-864 1293h-5q2 -54 3.5 -109.5t3 -114t1.5 -120.5v-949h-98v1462h106l861 -1289h5q-1 44 -2.5 102t-3 119t-1.5 115v953h99v-1462zM1032 1944v-17q-24 -32 -59 -72.5t-76 -83.5t-83 -83t-81 -72h-72v17q40 40 88 95.5t91.5 113t71.5 102.5h120z" />
    <glyph glyph-name="nacute" unicode="&#x144;" horiz-adv-x="1209" 
d="M659 1108q183 0 281 -96t98 -301v-711h-100v705q0 162 -74 238t-215 76q-179 0 -273.5 -104.5t-94.5 -315.5v-599h-101v1087h82l15 -198h6q29 61 79.5 110.5t124.5 79t172 29.5zM918 1569v-17q-24 -32 -59 -72.5t-76 -83.5t-83 -83t-81 -72h-72v17q40 40 88 95.5
t91.5 113t71.5 102.5h120z" />
    <glyph glyph-name="uni0145" unicode="&#x145;" horiz-adv-x="1477" 
d="M1270 0h-105l-864 1293h-5q2 -54 3.5 -109.5t3 -114t1.5 -120.5v-949h-98v1462h106l861 -1289h5q-1 44 -2.5 102t-3 119t-1.5 115v953h99v-1462zM819 -125v-14q-11 -47 -31 -102t-47 -110t-59 -102h-58v18q16 32 34.5 88t35 117t21.5 105h104z" />
    <glyph glyph-name="uni0146" unicode="&#x146;" horiz-adv-x="1209" 
d="M659 1108q183 0 281 -96t98 -301v-711h-100v705q0 162 -74 238t-215 76q-179 0 -273.5 -104.5t-94.5 -315.5v-599h-101v1087h82l15 -198h6q29 61 79.5 110.5t124.5 79t172 29.5zM691 -125v-14q-11 -47 -31 -102t-47 -110t-59 -102h-58v18q16 32 34.5 88t35 117t21.5 105
h104z" />
    <glyph glyph-name="Ncaron" unicode="&#x147;" horiz-adv-x="1477" 
d="M1270 0h-105l-864 1293h-5q2 -54 3.5 -109.5t3 -114t1.5 -120.5v-949h-98v1462h106l861 -1289h5q-1 44 -2.5 102t-3 119t-1.5 115v953h99v-1462zM687 1616q-25 44 -67 99.5t-88.5 110.5t-84.5 96v18h73q56 -48 112.5 -110.5t102.5 -120.5q48 58 106 120.5t114 110.5h74
v-18q-38 -41 -86 -96t-91 -110.5t-68 -99.5h-97z" />
    <glyph glyph-name="ncaron" unicode="&#x148;" horiz-adv-x="1209" 
d="M659 1108q183 0 281 -96t98 -301v-711h-100v705q0 162 -74 238t-215 76q-179 0 -273.5 -104.5t-94.5 -315.5v-599h-101v1087h82l15 -198h6q29 61 79.5 110.5t124.5 79t172 29.5zM574 1241q-25 44 -67 99.5t-88.5 110.5t-84.5 96v18h73q56 -48 112.5 -110.5t102.5 -120.5
q48 58 106 120.5t114 110.5h74v-18q-38 -41 -86 -96t-91 -110.5t-68 -99.5h-97z" />
    <glyph glyph-name="napostrophe" unicode="&#x149;" horiz-adv-x="1270" 
d="M720 1108q183 0 281 -96t98 -301v-711h-100v705q0 162 -74 238t-215 76q-179 0 -273.5 -104.5t-94.5 -315.5v-599h-101v1087h82l15 -198h6q29 61 79.5 110.5t124.5 79t172 29.5zM217 1462l14 -20q-15 -79 -40 -163t-55 -165t-63 -153h-72q20 55 39 119.5t34.5 131.5
t27 131t18.5 119h97z" />
    <glyph glyph-name="Eng" unicode="&#x14a;" horiz-adv-x="1477" 
d="M934 -368q-48 0 -91.5 8t-68.5 18v90q32 -10 73.5 -16t85.5 -6q73 0 126.5 28.5t82.5 91.5t29 166l-870 1281h-5q2 -51 3.5 -109.5t3 -120t1.5 -123.5v-940h-98v1462h106l861 -1275h5q-2 49 -3.5 107t-2.5 119.5t-1 119.5v929h99v-1454q0 -122 -39.5 -206t-114.5 -127
t-182 -43z" />
    <glyph glyph-name="eng" unicode="&#x14b;" horiz-adv-x="1209" 
d="M794 -492q-43 0 -75 6.5t-57 16.5v87q29 -12 59.5 -16.5t63.5 -4.5q74 0 113.5 47t39.5 144v918q0 161 -74 237t-214 76q-119 0 -201.5 -46.5t-125 -139t-42.5 -233.5v-600h-101v1087h82l16 -198h6q29 61 79 110.5t123.5 79t171.5 29.5q124 0 208.5 -42.5t128.5 -130
t44 -223.5v-927q0 -90 -30.5 -152t-85 -93.5t-129.5 -31.5z" />
    <glyph glyph-name="Omacron" unicode="&#x14c;" horiz-adv-x="1565" 
d="M1436 733q0 -167 -41 -305t-123 -238t-204.5 -155t-285.5 -55q-164 0 -287 55t-204.5 155.5t-122.5 239t-41 305.5q0 222 75.5 391t223 264t364.5 95q208 0 352.5 -90.5t219 -259t74.5 -402.5zM235 734q0 -196 59 -345.5t181 -233.5t308 -84q188 0 309 83t179 232t58 347
q0 313 -136.5 486t-402.5 173q-187 0 -310.5 -83t-184 -231t-60.5 -344zM1057 1711v-85h-554v85h554z" />
    <glyph glyph-name="omacron" unicode="&#x14d;" horiz-adv-x="1201" 
d="M1082 545q0 -126 -31 -229.5t-92 -178.5t-151.5 -116t-210.5 -41q-114 0 -203 40.5t-150.5 115.5t-93.5 178.5t-32 230.5q0 175 58.5 301.5t168 194t262.5 67.5q158 0 263.5 -71.5t158.5 -198.5t53 -293zM222 545q0 -143 41 -250t124.5 -167t211.5 -60q131 0 215 60
t124 168t40 249q0 137 -38 244t-120 168.5t-214 61.5q-189 0 -286.5 -126t-97.5 -348zM876 1336v-85h-554v85h554z" />
    <glyph glyph-name="Obreve" unicode="&#x14e;" horiz-adv-x="1565" 
d="M1436 733q0 -167 -41 -305t-123 -238t-204.5 -155t-285.5 -55q-164 0 -287 55t-204.5 155.5t-122.5 239t-41 305.5q0 222 75.5 391t223 264t364.5 95q208 0 352.5 -90.5t219 -259t74.5 -402.5zM235 734q0 -196 59 -345.5t181 -233.5t308 -84q188 0 309 83t179 232t58 347
q0 313 -136.5 486t-402.5 173q-187 0 -310.5 -83t-184 -231t-60.5 -344zM1059 1862q-9 -77 -43.5 -132t-93.5 -84.5t-142 -29.5q-127 0 -196 64.5t-78 181.5h73q6 -55 30 -90.5t67 -53t105 -17.5t104.5 18t67 54t31.5 89h75z" />
    <glyph glyph-name="obreve" unicode="&#x14f;" horiz-adv-x="1201" 
d="M1082 545q0 -126 -31 -229.5t-92 -178.5t-151.5 -116t-210.5 -41q-114 0 -203 40.5t-150.5 115.5t-93.5 178.5t-32 230.5q0 175 58.5 301.5t168 194t262.5 67.5q158 0 263.5 -71.5t158.5 -198.5t53 -293zM222 545q0 -143 41 -250t124.5 -167t211.5 -60q131 0 215 60
t124 168t40 249q0 137 -38 244t-120 168.5t-214 61.5q-189 0 -286.5 -126t-97.5 -348zM876 1487q-9 -77 -43.5 -132t-93.5 -84.5t-142 -29.5q-127 0 -196 64.5t-78 181.5h73q6 -55 30 -90.5t67 -53t105 -17.5t104.5 18t67 54t31.5 89h75z" />
    <glyph glyph-name="Ohungarumlaut" unicode="&#x150;" horiz-adv-x="1565" 
d="M1436 733q0 -167 -41 -305t-123 -238t-204.5 -155t-285.5 -55q-164 0 -287 55t-204.5 155.5t-122.5 239t-41 305.5q0 222 75.5 391t223 264t364.5 95q208 0 352.5 -90.5t219 -259t74.5 -402.5zM235 734q0 -196 59 -345.5t181 -233.5t308 -84q188 0 309 83t179 232t58 347
q0 313 -136.5 486t-402.5 173q-187 0 -310.5 -83t-184 -231t-60.5 -344zM1209 1944v-17q-20 -33 -49.5 -73.5t-64 -83t-70.5 -82.5t-68 -72h-66v17q34 40 73 95t75 112.5t58 103.5h112zM870 1944v-17q-20 -33 -49.5 -73.5t-64.5 -83t-71 -82.5t-69 -72h-65v17q34 40 73 95
t75 112.5t58 103.5h113z" />
    <glyph glyph-name="ohungarumlaut" unicode="&#x151;" horiz-adv-x="1201" 
d="M1082 545q0 -126 -31 -229.5t-92 -178.5t-151.5 -116t-210.5 -41q-114 0 -203 40.5t-150.5 115.5t-93.5 178.5t-32 230.5q0 175 58.5 301.5t168 194t262.5 67.5q158 0 263.5 -71.5t158.5 -198.5t53 -293zM222 545q0 -143 41 -250t124.5 -167t211.5 -60q131 0 215 60
t124 168t40 249q0 137 -38 244t-120 168.5t-214 61.5q-189 0 -286.5 -126t-97.5 -348zM1027 1569v-17q-20 -33 -49.5 -73.5t-64 -83t-70.5 -82.5t-68 -72h-66v17q34 40 73 95t75 112.5t58 103.5h112zM688 1569v-17q-20 -33 -49.5 -73.5t-64.5 -83t-71 -82.5t-69 -72h-65v17
q34 40 73 95t75 112.5t58 103.5h113z" />
    <glyph glyph-name="OE" unicode="&#x152;" horiz-adv-x="1863" 
d="M781 1474q52 0 94 -3t91 -9h772v-93h-680v-554h640v-93h-640v-629h680v-93h-780q-38 -4 -81.5 -7.5t-94.5 -3.5q-219 0 -364.5 93.5t-218 261.5t-72.5 391t75 389t221 258t358 92zM788 1382q-141 0 -245 -46t-172.5 -131.5t-102.5 -204.5t-34 -266q0 -197 59.5 -344.5
t181.5 -228.5t308 -81q53 0 97 5t77 13v1266q-31 8 -73.5 13t-95.5 5z" />
    <glyph glyph-name="oe" unicode="&#x153;" horiz-adv-x="1964" 
d="M1433 1107q139 0 230.5 -64.5t137 -177.5t45.5 -259v-73h-776q0 -228 101 -346t292 -118q102 0 176 16.5t164 56.5v-93q-81 -36 -159.5 -52.5t-181.5 -16.5q-177 0 -285.5 82.5t-156.5 225.5q-47 -142 -153.5 -225t-272.5 -83q-152 0 -258.5 70.5t-162.5 197.5t-56 297
q0 175 58 301t167 193.5t261 67.5q168 0 270.5 -85.5t146.5 -226.5q32 92 88 162.5t137.5 110t187.5 39.5zM600 1019q-187 0 -282.5 -124t-95.5 -350q0 -146 40.5 -253t122.5 -165.5t209 -58.5q130 0 212.5 58.5t121.5 165t39 250.5q0 141 -37.5 249t-118 168t-211.5 60z
M1433 1020q-154 0 -249 -102t-111 -299h667q1 120 -32 210.5t-101.5 140.5t-173.5 50z" />
    <glyph glyph-name="Racute" unicode="&#x154;" horiz-adv-x="1217" 
d="M561 1462q174 0 290.5 -38t175.5 -125t59 -235q0 -111 -40.5 -190.5t-111.5 -130.5t-164 -78l401 -665h-122l-377 636h-363v-636h-103v1462h355zM551 1371h-242v-644h291q179 0 279.5 86t100.5 247q0 177 -106 244t-323 67zM925 1944v-17q-24 -32 -59 -72.5t-76 -83.5
t-83 -83t-81 -72h-72v17q40 40 88 95.5t91.5 113t71.5 102.5h120z" />
    <glyph glyph-name="racute" unicode="&#x155;" horiz-adv-x="797" 
d="M613 1106q43 0 81 -5t71 -14l-16 -93q-33 9 -67 13.5t-73 4.5q-77 0 -137.5 -29t-102.5 -83t-64 -130t-22 -170v-600h-102v1087h87l10 -205h6q25 63 70.5 113.5t110.5 80.5t148 30zM752 1569v-17q-24 -32 -59 -72.5t-76 -83.5t-83 -83t-81 -72h-72v17q40 40 88 95.5
t91.5 113t71.5 102.5h120z" />
    <glyph glyph-name="uni0156" unicode="&#x156;" horiz-adv-x="1217" 
d="M561 1462q174 0 290.5 -38t175.5 -125t59 -235q0 -111 -40.5 -190.5t-111.5 -130.5t-164 -78l401 -665h-122l-377 636h-363v-636h-103v1462h355zM551 1371h-242v-644h291q179 0 279.5 86t100.5 247q0 177 -106 244t-323 67zM724 -125v-14q-11 -47 -31 -102t-47 -110
t-59 -102h-58v18q16 32 34.5 88t35 117t21.5 105h104z" />
    <glyph glyph-name="uni0157" unicode="&#x157;" horiz-adv-x="797" 
d="M613 1106q43 0 81 -5t71 -14l-16 -93q-33 9 -67 13.5t-73 4.5q-77 0 -137.5 -29t-102.5 -83t-64 -130t-22 -170v-600h-102v1087h87l10 -205h6q25 63 70.5 113.5t110.5 80.5t148 30zM310 -125v-14q-11 -47 -31 -102t-47 -110t-59 -102h-58v18q16 32 34.5 88t35 117
t21.5 105h104z" />
    <glyph glyph-name="Rcaron" unicode="&#x158;" horiz-adv-x="1217" 
d="M561 1462q174 0 290.5 -38t175.5 -125t59 -235q0 -111 -40.5 -190.5t-111.5 -130.5t-164 -78l401 -665h-122l-377 636h-363v-636h-103v1462h355zM551 1371h-242v-644h291q179 0 279.5 86t100.5 247q0 177 -106 244t-323 67zM581 1616q-25 44 -67 99.5t-88.5 110.5
t-84.5 96v18h73q56 -48 112.5 -110.5t102.5 -120.5q48 58 106 120.5t114 110.5h74v-18q-38 -41 -86 -96t-91 -110.5t-68 -99.5h-97z" />
    <glyph glyph-name="rcaron" unicode="&#x159;" horiz-adv-x="797" 
d="M613 1106q43 0 81 -5t71 -14l-16 -93q-33 9 -67 13.5t-73 4.5q-77 0 -137.5 -29t-102.5 -83t-64 -130t-22 -170v-600h-102v1087h87l10 -205h6q25 63 70.5 113.5t110.5 80.5t148 30zM408 1241q-25 44 -67 99.5t-88.5 110.5t-84.5 96v18h73q56 -48 112.5 -110.5
t102.5 -120.5q48 58 106 120.5t114 110.5h74v-18q-38 -41 -86 -96t-91 -110.5t-68 -99.5h-97z" />
    <glyph glyph-name="Sacute" unicode="&#x15a;" horiz-adv-x="1117" 
d="M1011 377q0 -131 -66 -219.5t-179 -133t-256 -44.5q-89 0 -161.5 8.5t-131 22.5t-106.5 32v103q78 -30 180.5 -52.5t223.5 -22.5q114 0 202.5 33t139.5 100t51 169q0 90 -42.5 147.5t-127.5 99t-214 84.5q-90 31 -163.5 65.5t-125.5 80t-79.5 110t-27.5 152.5
q0 121 61.5 203.5t167 125t237.5 42.5q105 0 199.5 -19.5t182.5 -58.5l-36 -89q-88 38 -176 56t-174 18q-103 0 -183.5 -30.5t-127.5 -91.5t-47 -154q0 -96 43.5 -155t124 -98t190.5 -76q130 -44 224 -92.5t145.5 -122.5t51.5 -193zM873 1944v-17q-24 -32 -59 -72.5
t-76 -83.5t-83 -83t-81 -72h-72v17q40 40 88 95.5t91.5 113t71.5 102.5h120z" />
    <glyph glyph-name="sacute" unicode="&#x15b;" horiz-adv-x="954" 
d="M860 285q0 -97 -48.5 -165.5t-141.5 -104t-229 -35.5q-113 0 -202 20t-149 49v100q75 -37 166 -60t187 -23q168 0 242 57t74 156q0 65 -36.5 107.5t-104.5 73.5t-164 63q-100 34 -177.5 67.5t-121.5 89t-44 151.5q0 131 105 204t282 73q98 0 182.5 -18.5t153.5 -47.5
l-36 -86q-62 29 -143 47t-162 18q-133 0 -208 -47t-75 -138q0 -70 36 -109.5t103 -66t159 -58.5q95 -33 175.5 -69t128.5 -93t48 -155zM769 1569v-17q-24 -32 -59 -72.5t-76 -83.5t-83 -83t-81 -72h-72v17q40 40 88 95.5t91.5 113t71.5 102.5h120z" />
    <glyph glyph-name="Scircumflex" unicode="&#x15c;" horiz-adv-x="1117" 
d="M1011 377q0 -131 -66 -219.5t-179 -133t-256 -44.5q-89 0 -161.5 8.5t-131 22.5t-106.5 32v103q78 -30 180.5 -52.5t223.5 -22.5q114 0 202.5 33t139.5 100t51 169q0 90 -42.5 147.5t-127.5 99t-214 84.5q-90 31 -163.5 65.5t-125.5 80t-79.5 110t-27.5 152.5
q0 121 61.5 203.5t167 125t237.5 42.5q105 0 199.5 -19.5t182.5 -58.5l-36 -89q-88 38 -176 56t-174 18q-103 0 -183.5 -30.5t-127.5 -91.5t-47 -154q0 -96 43.5 -155t124 -98t190.5 -76q130 -44 224 -92.5t145.5 -122.5t51.5 -193zM631 1940q25 -43 67 -99.5t89.5 -112
t85.5 -96.5v-16h-74q-56 48 -113 110t-104 119q-48 -57 -105 -119t-113 -110h-73v16q38 41 85 96.5t90 112t67 99.5h98z" />
    <glyph glyph-name="scircumflex" unicode="&#x15d;" horiz-adv-x="954" 
d="M860 285q0 -97 -48.5 -165.5t-141.5 -104t-229 -35.5q-113 0 -202 20t-149 49v100q75 -37 166 -60t187 -23q168 0 242 57t74 156q0 65 -36.5 107.5t-104.5 73.5t-164 63q-100 34 -177.5 67.5t-121.5 89t-44 151.5q0 131 105 204t282 73q98 0 182.5 -18.5t153.5 -47.5
l-36 -86q-62 29 -143 47t-162 18q-133 0 -208 -47t-75 -138q0 -70 36 -109.5t103 -66t159 -58.5q95 -33 175.5 -69t128.5 -93t48 -155zM527 1565q25 -43 67 -99.5t89.5 -112t85.5 -96.5v-16h-74q-56 48 -113 110t-104 119q-48 -57 -105 -119t-113 -110h-73v16q38 41 85 96.5
t90 112t67 99.5h98z" />
    <glyph glyph-name="Scedilla" unicode="&#x15e;" horiz-adv-x="1117" 
d="M1011 377q0 -131 -66 -219.5t-179 -133t-256 -44.5q-89 0 -161.5 8.5t-131 22.5t-106.5 32v103q78 -30 180.5 -52.5t223.5 -22.5q114 0 202.5 33t139.5 100t51 169q0 90 -42.5 147.5t-127.5 99t-214 84.5q-90 31 -163.5 65.5t-125.5 80t-79.5 110t-27.5 152.5
q0 121 61.5 203.5t167 125t237.5 42.5q105 0 199.5 -19.5t182.5 -58.5l-36 -89q-88 38 -176 56t-174 18q-103 0 -183.5 -30.5t-127.5 -91.5t-47 -154q0 -96 43.5 -155t124 -98t190.5 -76q130 -44 224 -92.5t145.5 -122.5t51.5 -193zM716 -292q0 -93 -69.5 -146.5
t-188.5 -53.5q-35 0 -63 3.5t-49 8.5v73q23 -6 51 -8.5t63 -2.5q77 0 123 30.5t46 92.5q0 61 -51.5 88.5t-150.5 31.5l90 175h77l-62 -124q55 -6 96.5 -27t64.5 -56t23 -85z" />
    <glyph glyph-name="scedilla" unicode="&#x15f;" horiz-adv-x="954" 
d="M860 285q0 -97 -48.5 -165.5t-141.5 -104t-229 -35.5q-113 0 -202 20t-149 49v100q75 -37 166 -60t187 -23q168 0 242 57t74 156q0 65 -36.5 107.5t-104.5 73.5t-164 63q-100 34 -177.5 67.5t-121.5 89t-44 151.5q0 131 105 204t282 73q98 0 182.5 -18.5t153.5 -47.5
l-36 -86q-62 29 -143 47t-162 18q-133 0 -208 -47t-75 -138q0 -70 36 -109.5t103 -66t159 -58.5q95 -33 175.5 -69t128.5 -93t48 -155zM653 -292q0 -93 -69.5 -146.5t-188.5 -53.5q-35 0 -63 3.5t-49 8.5v73q23 -6 51 -8.5t63 -2.5q77 0 123 30.5t46 92.5q0 61 -51.5 88.5
t-150.5 31.5l90 175h77l-62 -124q55 -6 96.5 -27t64.5 -56t23 -85z" />
    <glyph glyph-name="Scaron" unicode="&#x160;" horiz-adv-x="1117" 
d="M1011 377q0 -131 -66 -219.5t-179 -133t-256 -44.5q-89 0 -161.5 8.5t-131 22.5t-106.5 32v103q78 -30 180.5 -52.5t223.5 -22.5q114 0 202.5 33t139.5 100t51 169q0 90 -42.5 147.5t-127.5 99t-214 84.5q-90 31 -163.5 65.5t-125.5 80t-79.5 110t-27.5 152.5
q0 121 61.5 203.5t167 125t237.5 42.5q105 0 199.5 -19.5t182.5 -58.5l-36 -89q-88 38 -176 56t-174 18q-103 0 -183.5 -30.5t-127.5 -91.5t-47 -154q0 -96 43.5 -155t124 -98t190.5 -76q130 -44 224 -92.5t145.5 -122.5t51.5 -193zM529 1616q-25 44 -67 99.5t-88.5 110.5
t-84.5 96v18h73q56 -48 112.5 -110.5t102.5 -120.5q48 58 106 120.5t114 110.5h74v-18q-38 -41 -86 -96t-91 -110.5t-68 -99.5h-97z" />
    <glyph glyph-name="scaron" unicode="&#x161;" horiz-adv-x="954" 
d="M860 285q0 -97 -48.5 -165.5t-141.5 -104t-229 -35.5q-113 0 -202 20t-149 49v100q75 -37 166 -60t187 -23q168 0 242 57t74 156q0 65 -36.5 107.5t-104.5 73.5t-164 63q-100 34 -177.5 67.5t-121.5 89t-44 151.5q0 131 105 204t282 73q98 0 182.5 -18.5t153.5 -47.5
l-36 -86q-62 29 -143 47t-162 18q-133 0 -208 -47t-75 -138q0 -70 36 -109.5t103 -66t159 -58.5q95 -33 175.5 -69t128.5 -93t48 -155zM425 1241q-25 44 -67 99.5t-88.5 110.5t-84.5 96v18h73q56 -48 112.5 -110.5t102.5 -120.5q48 58 106 120.5t114 110.5h74v-18
q-38 -41 -86 -96t-91 -110.5t-68 -99.5h-97z" />
    <glyph glyph-name="uni0162" unicode="&#x162;" horiz-adv-x="1074" 
d="M588 0h-104v1369h-474v93h1052v-93h-474v-1369zM706 -292q0 -93 -69.5 -146.5t-188.5 -53.5q-35 0 -63 3.5t-49 8.5v73q23 -6 51 -8.5t63 -2.5q77 0 123 30.5t46 92.5q0 61 -51.5 88.5t-150.5 31.5l90 175h77l-62 -124q55 -6 96.5 -27t64.5 -56t23 -85z" />
    <glyph glyph-name="uni0163" unicode="&#x163;" horiz-adv-x="685" 
d="M474 67q47 0 87.5 7t71.5 18v-84q-32 -11 -75 -19.5t-95 -8.5q-92 0 -153 34.5t-92 105t-31 179.5v704h-162v60l161 31l35 256h67v-263h339v-84h-339v-698q0 -117 43.5 -177.5t142.5 -60.5zM580 -292q0 -93 -69.5 -146.5t-188.5 -53.5q-35 0 -63 3.5t-49 8.5v73
q23 -6 51 -8.5t63 -2.5q77 0 123 30.5t46 92.5q0 61 -51.5 88.5t-150.5 31.5l90 175h77l-62 -124q55 -6 96.5 -27t64.5 -56t23 -85z" />
    <glyph glyph-name="Tcaron" unicode="&#x164;" horiz-adv-x="1074" 
d="M588 0h-104v1369h-474v93h1052v-93h-474v-1369zM484 1616q-25 44 -67 99.5t-88.5 110.5t-84.5 96v18h73q56 -48 112.5 -110.5t102.5 -120.5q48 58 106 120.5t114 110.5h74v-18q-38 -41 -86 -96t-91 -110.5t-68 -99.5h-97z" />
    <glyph glyph-name="tcaron" unicode="&#x165;" horiz-adv-x="685" 
d="M474 67q47 0 87.5 7t71.5 18v-84q-32 -11 -75 -19.5t-95 -8.5q-92 0 -153 34.5t-92 105t-31 179.5v704h-162v60l161 31l35 256h67v-263h339v-84h-339v-698q0 -117 43.5 -177.5t142.5 -60.5zM830 1556v-14q-11 -47 -31 -102t-45 -109.5t-55 -101.5h-59v17q12 25 25 64
t25.5 83.5t22 87t13.5 75.5h104z" />
    <glyph glyph-name="Tbar" unicode="&#x166;" horiz-adv-x="1074" 
d="M484 0v704h-358v89h358v575h-474v94h1052v-94h-476v-575h356v-89h-356v-704h-102z" />
    <glyph glyph-name="tbar" unicode="&#x167;" horiz-adv-x="685" 
d="M42 580v83h554v-83h-554zM474 67q47 0 87.5 7t71.5 18v-84q-32 -11 -75 -19.5t-95 -8.5q-92 0 -153 34.5t-92 105t-31 179.5v704h-162v60l161 31l35 256h67v-263h339v-84h-339v-698q0 -117 43.5 -177.5t142.5 -60.5z" />
    <glyph glyph-name="Utilde" unicode="&#x168;" horiz-adv-x="1473" 
d="M1283 1462v-946q0 -171 -66 -290.5t-189.5 -182.5t-295.5 -63q-261 0 -401 141.5t-140 398.5v942h102v-942q0 -220 114.5 -334.5t329.5 -114.5q141 0 240 50.5t151 148t52 236.5v956h103zM389 1632q5 55 20 96.5t40.5 69.5t60.5 42.5t77 14.5q49 0 88.5 -21t74 -48.5
t69 -49t72.5 -21.5q46 0 80 29.5t45 111.5h71q-10 -107 -63 -166t-137 -59q-49 0 -88 21t-73 48.5t-68.5 49t-75.5 21.5q-45 0 -78 -29.5t-44 -109.5h-71z" />
    <glyph glyph-name="utilde" unicode="&#x169;" horiz-adv-x="1209" 
d="M1025 1087v-1087h-82l-15 196h-6q-28 -60 -79 -109t-125 -78t-172 -29q-125 0 -209.5 43.5t-127.5 131.5t-43 220v712h101v-702q0 -163 73.5 -240t215.5 -77q120 0 201.5 46t124 139.5t42.5 233.5v600h101zM249 1257q5 55 20 96.5t40.5 69.5t60.5 42.5t77 14.5
q49 0 88.5 -21t74 -48.5t69 -49t72.5 -21.5q46 0 80 29.5t45 111.5h71q-10 -107 -63 -166t-137 -59q-49 0 -88 21t-73 48.5t-68.5 49t-75.5 21.5q-45 0 -78 -29.5t-44 -109.5h-71z" />
    <glyph glyph-name="Umacron" unicode="&#x16a;" horiz-adv-x="1473" 
d="M1283 1462v-946q0 -171 -66 -290.5t-189.5 -182.5t-295.5 -63q-261 0 -401 141.5t-140 398.5v942h102v-942q0 -220 114.5 -334.5t329.5 -114.5q141 0 240 50.5t151 148t52 236.5v956h103zM1013 1711v-85h-554v85h554z" />
    <glyph glyph-name="umacron" unicode="&#x16b;" horiz-adv-x="1209" 
d="M1025 1087v-1087h-82l-15 196h-6q-28 -60 -79 -109t-125 -78t-172 -29q-125 0 -209.5 43.5t-127.5 131.5t-43 220v712h101v-702q0 -163 73.5 -240t215.5 -77q120 0 201.5 46t124 139.5t42.5 233.5v600h101zM880 1336v-85h-554v85h554z" />
    <glyph glyph-name="Ubreve" unicode="&#x16c;" horiz-adv-x="1473" 
d="M1283 1462v-946q0 -171 -66 -290.5t-189.5 -182.5t-295.5 -63q-261 0 -401 141.5t-140 398.5v942h102v-942q0 -220 114.5 -334.5t329.5 -114.5q141 0 240 50.5t151 148t52 236.5v956h103zM1014 1862q-9 -77 -43.5 -132t-93.5 -84.5t-142 -29.5q-127 0 -196 64.5
t-78 181.5h73q6 -55 30 -90.5t67 -53t105 -17.5t104.5 18t67 54t31.5 89h75z" />
    <glyph glyph-name="ubreve" unicode="&#x16d;" horiz-adv-x="1209" 
d="M1025 1087v-1087h-82l-15 196h-6q-28 -60 -79 -109t-125 -78t-172 -29q-125 0 -209.5 43.5t-127.5 131.5t-43 220v712h101v-702q0 -163 73.5 -240t215.5 -77q120 0 201.5 46t124 139.5t42.5 233.5v600h101zM881 1487q-9 -77 -43.5 -132t-93.5 -84.5t-142 -29.5
q-127 0 -196 64.5t-78 181.5h73q6 -55 30 -90.5t67 -53t105 -17.5t104.5 18t67 54t31.5 89h75z" />
    <glyph glyph-name="Uring" unicode="&#x16e;" horiz-adv-x="1473" 
d="M1283 1462v-946q0 -171 -66 -290.5t-189.5 -182.5t-295.5 -63q-261 0 -401 141.5t-140 398.5v942h102v-942q0 -220 114.5 -334.5t329.5 -114.5q141 0 240 50.5t151 148t52 236.5v956h103zM736 1622q-89 0 -151 57t-62 153q0 93 61 151t152 58q89 0 151 -59t62 -149
q0 -96 -62 -153.5t-151 -57.5zM736 1691q62 0 101 40.5t39 100.5q0 61 -41 100.5t-99 39.5q-60 0 -101 -39.5t-41 -100.5q0 -60 39 -100.5t103 -40.5z" />
    <glyph glyph-name="uring" unicode="&#x16f;" horiz-adv-x="1209" 
d="M1025 1087v-1087h-82l-15 196h-6q-28 -60 -79 -109t-125 -78t-172 -29q-125 0 -209.5 43.5t-127.5 131.5t-43 220v712h101v-702q0 -163 73.5 -240t215.5 -77q120 0 201.5 46t124 139.5t42.5 233.5v600h101zM603 1247q-89 0 -151 57t-62 153q0 93 61 151t152 58
q89 0 151 -59t62 -149q0 -96 -62 -153.5t-151 -57.5zM603 1316q62 0 101 40.5t39 100.5q0 61 -41 100.5t-99 39.5q-60 0 -101 -39.5t-41 -100.5q0 -60 39 -100.5t103 -40.5z" />
    <glyph glyph-name="Uhungarumlaut" unicode="&#x170;" horiz-adv-x="1473" 
d="M1283 1462v-946q0 -171 -66 -290.5t-189.5 -182.5t-295.5 -63q-261 0 -401 141.5t-140 398.5v942h102v-942q0 -220 114.5 -334.5t329.5 -114.5q141 0 240 50.5t151 148t52 236.5v956h103zM1164 1944v-17q-20 -33 -49.5 -73.5t-64 -83t-70.5 -82.5t-68 -72h-66v17
q34 40 73 95t75 112.5t58 103.5h112zM825 1944v-17q-20 -33 -49.5 -73.5t-64.5 -83t-71 -82.5t-69 -72h-65v17q34 40 73 95t75 112.5t58 103.5h113z" />
    <glyph glyph-name="uhungarumlaut" unicode="&#x171;" horiz-adv-x="1209" 
d="M1025 1087v-1087h-82l-15 196h-6q-28 -60 -79 -109t-125 -78t-172 -29q-125 0 -209.5 43.5t-127.5 131.5t-43 220v712h101v-702q0 -163 73.5 -240t215.5 -77q120 0 201.5 46t124 139.5t42.5 233.5v600h101zM1031 1569v-17q-20 -33 -49.5 -73.5t-64 -83t-70.5 -82.5
t-68 -72h-66v17q34 40 73 95t75 112.5t58 103.5h112zM692 1569v-17q-20 -33 -49.5 -73.5t-64.5 -83t-71 -82.5t-69 -72h-65v17q34 40 73 95t75 112.5t58 103.5h113z" />
    <glyph glyph-name="Uogonek" unicode="&#x172;" horiz-adv-x="1473" 
d="M910 -238q0 -70 27.5 -100.5t80.5 -30.5q31 0 56.5 4t42.5 9v-74q-22 -6 -49.5 -11.5t-62.5 -5.5q-85 0 -134 47t-49 149q0 68 30 130t77.5 117t101.5 98l65 -4q-47 -49 -89.5 -100.5t-69.5 -107.5t-27 -120zM1283 1462v-946q0 -171 -66 -290.5t-189.5 -182.5t-295.5 -63
q-261 0 -401 141.5t-140 398.5v942h102v-942q0 -220 114.5 -334.5t329.5 -114.5q141 0 240 50.5t151 148t52 236.5v956h103z" />
    <glyph glyph-name="uogonek" unicode="&#x173;" horiz-adv-x="1209" 
d="M1025 1087v-1087h-82l-15 196h-6q-28 -60 -79 -109t-125 -78t-172 -29q-125 0 -209.5 43.5t-127.5 131.5t-43 220v712h101v-702q0 -163 73.5 -240t215.5 -77q120 0 201.5 46t124 139.5t42.5 233.5v600h101zM842 -257q0 -54 28 -83t82 -29q30 0 55.5 4t42.5 9v-74
q-21 -6 -49 -11.5t-63 -5.5q-85 0 -134.5 45.5t-49.5 132.5q0 53 24.5 104t69 99t105.5 92l60 -26q-71 -59 -121 -121.5t-50 -135.5z" />
    <glyph glyph-name="Wcircumflex" unicode="&#x174;" horiz-adv-x="1827" 
d="M1778 1462l-399 -1462h-100l-313 1104q-11 35 -19.5 66.5t-16 60t-14 54t-10.5 46.5q-4 -21 -8.5 -44.5t-10.5 -48.5t-13 -52t-15 -56l-312 -1130h-101l-394 1462h106l275 -1031q11 -41 20.5 -78t17.5 -71.5t15.5 -67t13.5 -65.5q7 33 14 67t15.5 69t18 72.5t21.5 78.5
l287 1026h103l298 -1032q12 -43 22 -81t18 -72.5t15 -67t14 -65.5q8 45 16.5 88.5t20.5 91.5t27 105l281 1033h107zM962 1940q25 -43 67 -99.5t89.5 -112t85.5 -96.5v-16h-74q-56 48 -113 110t-104 119q-48 -57 -105 -119t-113 -110h-73v16q38 41 85 96.5t90 112t67 99.5h98
z" />
    <glyph glyph-name="wcircumflex" unicode="&#x175;" horiz-adv-x="1480" 
d="M1049 0l-231 730q-11 33 -20 63t-17 58t-15 54.5t-14 52.5h-5q-7 -26 -14 -53t-15 -56t-17 -59t-20 -62l-239 -728h-104l-309 1087h107l191 -695q17 -61 29 -109t21 -87t16 -74h5q6 25 13 52.5t15 59.5t19 68t24 78l233 707h100l224 -705q16 -51 29.5 -97.5t24 -86.5
t17.5 -75h6q4 33 12.5 72.5t21 88.5t28.5 108l184 695h102l-295 -1087h-107zM803 1565q25 -43 67 -99.5t89.5 -112t85.5 -96.5v-16h-74q-56 48 -113 110t-104 119q-48 -57 -105 -119t-113 -110h-73v16q38 41 85 96.5t90 112t67 99.5h98z" />
    <glyph glyph-name="Ycircumflex" unicode="&#x176;" horiz-adv-x="1081" 
d="M541 664l427 798h113l-487 -897v-565h-103v557l-491 905h114zM589 1940q25 -43 67 -99.5t89.5 -112t85.5 -96.5v-16h-74q-56 48 -113 110t-104 119q-48 -57 -105 -119t-113 -110h-73v16q38 41 85 96.5t90 112t67 99.5h98z" />
    <glyph glyph-name="ycircumflex" unicode="&#x177;" horiz-adv-x="940" 
d="M1 1087h107l264 -690q24 -61 42.5 -112.5t32.5 -94t23 -77.5h6q15 46 40 118.5t57 161.5l261 694h108l-496 -1291q-36 -94 -79 -159.5t-101 -99t-140 -33.5q-37 0 -67 5.5t-58 14.5v87q26 -8 53.5 -13.5t60.5 -5.5q57 0 98.5 23.5t74.5 72.5t62 125l74 193zM518 1565
q25 -43 67 -99.5t89.5 -112t85.5 -96.5v-16h-74q-56 48 -113 110t-104 119q-48 -57 -105 -119t-113 -110h-73v16q38 41 85 96.5t90 112t67 99.5h98z" />
    <glyph glyph-name="Ydieresis" unicode="&#x178;" horiz-adv-x="1081" 
d="M541 664l427 798h113l-487 -897v-565h-103v557l-491 905h114zM283 1766q0 35 16.5 56t48.5 21q36 0 52 -21t16 -56q0 -36 -16 -57t-52 -21q-32 0 -48.5 21t-16.5 57zM664 1766q0 35 16.5 56t48.5 21q35 0 51.5 -21t16.5 -56q0 -36 -16.5 -57t-51.5 -21q-32 0 -48.5 21
t-16.5 57z" />
    <glyph glyph-name="Zacute" unicode="&#x179;" horiz-adv-x="1179" 
d="M1098 0h-1022v75l868 1293h-824v94h955v-75l-869 -1293h892v-94zM886 1944v-17q-24 -32 -59 -72.5t-76 -83.5t-83 -83t-81 -72h-72v17q40 40 88 95.5t91.5 113t71.5 102.5h120z" />
    <glyph glyph-name="zacute" unicode="&#x17a;" horiz-adv-x="945" 
d="M859 0h-777v67l652 936h-604v84h727v-69l-651 -934h653v-84zM763 1569v-17q-24 -32 -59 -72.5t-76 -83.5t-83 -83t-81 -72h-72v17q40 40 88 95.5t91.5 113t71.5 102.5h120z" />
    <glyph glyph-name="Zdotaccent" unicode="&#x17b;" horiz-adv-x="1179" 
d="M1098 0h-1022v75l868 1293h-824v94h955v-75l-869 -1293h892v-94zM585 1864q38 0 56 -22.5t18 -60.5t-18 -60t-56 -22q-36 0 -54 22t-18 60t18 60.5t54 22.5z" />
    <glyph glyph-name="zdotaccent" unicode="&#x17c;" horiz-adv-x="945" 
d="M859 0h-777v67l652 936h-604v84h727v-69l-651 -934h653v-84zM462 1489q38 0 56 -22.5t18 -60.5t-18 -60t-56 -22q-36 0 -54 22t-18 60t18 60.5t54 22.5z" />
    <glyph glyph-name="Zcaron" unicode="&#x17d;" horiz-adv-x="1179" 
d="M1098 0h-1022v75l868 1293h-824v94h955v-75l-869 -1293h892v-94zM542 1616q-25 44 -67 99.5t-88.5 110.5t-84.5 96v18h73q56 -48 112.5 -110.5t102.5 -120.5q48 58 106 120.5t114 110.5h74v-18q-38 -41 -86 -96t-91 -110.5t-68 -99.5h-97z" />
    <glyph glyph-name="zcaron" unicode="&#x17e;" horiz-adv-x="945" 
d="M859 0h-777v67l652 936h-604v84h727v-69l-651 -934h653v-84zM419 1241q-25 44 -67 99.5t-88.5 110.5t-84.5 96v18h73q56 -48 112.5 -110.5t102.5 -120.5q48 58 106 120.5t114 110.5h74v-18q-38 -41 -86 -96t-91 -110.5t-68 -99.5h-97z" />
    <glyph glyph-name="longs" unicode="&#x17f;" horiz-adv-x="627" 
d="M508 1479q-111 0 -168 -72t-57 -219v-1188h-102v1192q0 123 38.5 206t112 126t177.5 43q49 0 89 -7.5t77 -19.5l-22 -86q-32 11 -67 18t-78 7z" />
    <glyph glyph-name="florin" unicode="&#x192;" horiz-adv-x="1169" 
d="M827 1483q52 0 96.5 -8.5t86.5 -22.5l-25 -85q-34 12 -74 20t-86 8q-112 0 -165 -67t-53 -223v-166h282v-85h-280v-1029q0 -103 -32 -173.5t-94 -107t-153 -36.5q-45 0 -80 6.5t-60 12.5v89q32 -8 65 -13.5t70 -5.5q93 0 137 57t44 178v1022h-203v60l203 27v167
q0 128 35.5 211t107 123.5t178.5 40.5z" />
    <glyph glyph-name="Ohorn" unicode="&#x1a0;" horiz-adv-x="1565" 
d="M1435 733q0 -167 -40.5 -305t-123 -238t-204.5 -155t-285 -55q-165 0 -287.5 55t-204.5 155.5t-122.5 239t-40.5 305.5q0 222 75.5 391t222.5 264t365 95q167 0 292.5 -59.5t207.5 -169.5q51 16 86.5 51.5t55 96.5t19.5 152h101l12 -15q-9 -145 -68 -231t-162 -124
q49 -89 75 -203t26 -250zM235 734q0 -196 59 -345.5t180.5 -233.5t308.5 -84q188 0 309 83t178.5 232t57.5 347q0 312 -136 485.5t-402 173.5q-188 0 -311 -83t-183.5 -231.5t-60.5 -343.5z" />
    <glyph glyph-name="ohorn" unicode="&#x1a1;" horiz-adv-x="1200" 
d="M1082 545q0 -168 -55 -295t-162.5 -198.5t-267.5 -71.5q-151 0 -258.5 70.5t-164 198t-56.5 296.5q0 263 129.5 413t359.5 150q115 0 202 -39t146 -109q49 18 82 54.5t49 96t16 144.5h101l11 -14q-7 -96 -33.5 -165.5t-71.5 -114t-106 -70.5q39 -69 59 -157t20 -189z
M222 545q0 -146 40.5 -253t124.5 -165.5t212 -58.5q132 0 215.5 59t123.5 166.5t40 251.5q0 140 -38 247t-119.5 167t-214.5 60q-190 0 -287 -124t-97 -350z" />
    <glyph glyph-name="Uhorn" unicode="&#x1af;" horiz-adv-x="1510" 
d="M1283 1462v-208q56 14 94 49t58 97t20 156h100l11 -15q-5 -76 -23 -137t-51.5 -107t-85 -76t-123.5 -46v-659q0 -171 -64.5 -290.5t-186 -182.5t-294.5 -63q-263 0 -405 141.5t-142 398.5v942h102v-943q0 -219 115.5 -333.5t332.5 -114.5q141 0 239 50.5t149 148
t51 235.5v957h103z" />
    <glyph glyph-name="uhorn" unicode="&#x1b0;" horiz-adv-x="1251" 
d="M1282 1256l12 -15q-5 -72 -22.5 -132t-49.5 -106.5t-80.5 -77.5t-116.5 -44v-881h-82l-15 196h-6q-28 -60 -78.5 -109t-124 -78t-171.5 -29q-126 0 -211 43.5t-128 131.5t-43 220v711h101v-701q0 -163 73.5 -240t215.5 -77q178 0 273 104.5t95 314.5v599h101v-126
q54 15 88.5 51t51.5 96.5t17 148.5h100z" />
    <glyph glyph-name="uni01EA" unicode="&#x1ea;" horiz-adv-x="1565" 
d="M1436 733q0 -167 -41 -305t-123 -238t-204.5 -155t-285.5 -55q-164 0 -287 55t-204.5 155.5t-122.5 239t-41 305.5q0 222 75.5 391t223 264t364.5 95q208 0 352.5 -90.5t219 -259t74.5 -402.5zM235 734q0 -196 59 -345.5t181 -233.5t308 -84q188 0 309 83t179 232t58 347
q0 313 -136.5 486t-402.5 173q-187 0 -310.5 -83t-184 -231t-60.5 -344zM719 -257q0 -54 28 -83t82 -29q30 0 55.5 4t42.5 9v-74q-21 -6 -49 -11.5t-63 -5.5q-85 0 -134.5 45.5t-49.5 132.5q0 53 24.5 104t69 99t105.5 92l60 -26q-71 -59 -121 -121.5t-50 -135.5z" />
    <glyph glyph-name="uni01EB" unicode="&#x1eb;" horiz-adv-x="1201" 
d="M1082 545q0 -126 -31 -229.5t-92 -178.5t-151.5 -116t-210.5 -41q-114 0 -203 40.5t-150.5 115.5t-93.5 178.5t-32 230.5q0 175 58.5 301.5t168 194t262.5 67.5q158 0 263.5 -71.5t158.5 -198.5t53 -293zM222 545q0 -143 41 -250t124.5 -167t211.5 -60q131 0 215 60
t124 168t40 249q0 137 -38 244t-120 168.5t-214 61.5q-189 0 -286.5 -126t-97.5 -348zM564 -257q0 -54 28 -83t82 -29q30 0 55.5 4t42.5 9v-74q-21 -6 -49 -11.5t-63 -5.5q-85 0 -134.5 45.5t-49.5 132.5q0 53 24.5 104t69 99t105.5 92l60 -26q-71 -59 -121 -121.5
t-50 -135.5z" />
    <glyph glyph-name="uni01EC" unicode="&#x1ec;" horiz-adv-x="1565" 
d="M1436 733q0 -167 -41 -305t-123 -238t-204.5 -155t-285.5 -55q-164 0 -287 55t-204.5 155.5t-122.5 239t-41 305.5q0 222 75.5 391t223 264t364.5 95q208 0 352.5 -90.5t219 -259t74.5 -402.5zM235 734q0 -196 59 -345.5t181 -233.5t308 -84q188 0 309 83t179 232t58 347
q0 313 -136.5 486t-402.5 173q-187 0 -310.5 -83t-184 -231t-60.5 -344zM1057 1711v-85h-554v85h554zM760 -257q0 -54 28 -83t82 -29q30 0 55.5 4t42.5 9v-74q-21 -6 -49 -11.5t-63 -5.5q-85 0 -134.5 45.5t-49.5 132.5q0 53 24.5 104t69 99t105.5 92l60 -26
q-71 -59 -121 -121.5t-50 -135.5z" />
    <glyph glyph-name="uni01ED" unicode="&#x1ed;" horiz-adv-x="1201" 
d="M1082 545q0 -126 -31 -229.5t-92 -178.5t-151.5 -116t-210.5 -41q-114 0 -203 40.5t-150.5 115.5t-93.5 178.5t-32 230.5q0 175 58.5 301.5t168 194t262.5 67.5q158 0 263.5 -71.5t158.5 -198.5t53 -293zM222 545q0 -143 41 -250t124.5 -167t211.5 -60q131 0 215 60
t124 168t40 249q0 137 -38 244t-120 168.5t-214 61.5q-189 0 -286.5 -126t-97.5 -348zM876 1336v-85h-554v85h554zM564 -257q0 -54 28 -83t82 -29q30 0 55.5 4t42.5 9v-74q-21 -6 -49 -11.5t-63 -5.5q-85 0 -134.5 45.5t-49.5 132.5q0 53 24.5 104t69 99t105.5 92l60 -26
q-71 -59 -121 -121.5t-50 -135.5z" />
    <glyph glyph-name="uni01F0" unicode="&#x1f0;" horiz-adv-x="463" 
d="M31 -492q-44 0 -78 6.5t-59 16.5v87q31 -12 62.5 -16.5t66.5 -4.5q76 0 116.5 47t40.5 144v1299h101v-1302q0 -90 -30.5 -152t-86.5 -93.5t-133 -31.5zM179 1241q-25 44 -67 99.5t-88.5 110.5t-84.5 96v18h73q56 -48 112.5 -110.5t102.5 -120.5q48 58 106 120.5
t114 110.5h74v-18q-38 -41 -86 -96t-91 -110.5t-68 -99.5h-97z" />
    <glyph glyph-name="Aringacute" unicode="&#x1fa;" horiz-adv-x="1229" 
d="M-10 0l563 1207q-66 17 -108 68.5t-42 136.5q0 95 60.5 153t155.5 58q96 0 156.5 -57.5t60.5 -154.5q0 -81 -41 -132.5t-109 -72.5l551 -1206h-111l-202 445h-619l-207 -445h-108zM344 539h544l-208 466l-19.5 45.5t-21.5 52t-20 55.5q-8 -22 -15.5 -42.5t-15 -40
t-15 -37t-14.5 -33.5zM618 1260q66 0 107 39.5t41 111.5q0 67 -40.5 106.5t-107.5 39.5q-66 0 -107 -39.5t-41 -106.5q0 -72 41.5 -111.5t106.5 -39.5zM565 1688v16q38 38 78 83.5t76 93t61 90.5h120v-15q-22 -31 -52 -65.5t-64.5 -69.5t-72 -69t-74.5 -64h-72z" />
    <glyph glyph-name="aringacute" unicode="&#x1fb;" horiz-adv-x="1085" 
d="M560 1106q179 0 268 -90t89 -287v-729h-78l-18 190h-6q-35 -61 -85 -108.5t-122.5 -74.5t-176.5 -27q-105 0 -179.5 35t-115 102t-40.5 163q0 162 134 246.5t385 95.5l202 10v79q0 167 -66 238t-195 71q-84 0 -161.5 -21.5t-157.5 -61.5l-32 84q78 37 167.5 61t187.5 24z
M816 553l-190 -8q-207 -10 -315 -74t-108 -192q0 -103 64.5 -158t179.5 -55q179 0 273.5 102t95.5 278v107zM560 1551q-61 0 -101.5 -40t-40.5 -100q0 -61 39 -101t103 -40q62 0 100.5 40t38.5 101q0 60 -41 100t-98 40zM560 1619q59 0 107 -26.5t77 -73.5t29 -108
q0 -95 -62 -152t-151 -57q-90 0 -152 56.5t-62 152.5q0 93 61.5 150.5t152.5 57.5zM820 1952v-14q-30 -38 -78 -82t-102.5 -87.5t-102.5 -79.5h-75v14q36 34 77 77t78.5 88t63.5 84h139z" />
    <glyph glyph-name="AEacute" unicode="&#x1fc;" horiz-adv-x="1654" 
d="M1590 0h-778v516h-474l-229 -516h-111l653 1462h939v-93h-675v-554h635v-93h-635v-629h675v-93zM379 609h433v759h-98zM1186 1944v-17q-24 -32 -59 -72.5t-76 -83.5t-83 -83t-81 -72h-72v17q40 40 88 95.5t91.5 113t71.5 102.5h120z" />
    <glyph glyph-name="aeacute" unicode="&#x1fd;" horiz-adv-x="1752" 
d="M1236 1108q132 0 222.5 -65t135 -178t41.5 -257v-74h-739q0 -228 97 -346.5t271 -118.5q93 0 165 16.5t162 56.5v-93q-81 -36 -158 -52.5t-171 -16.5q-106 0 -189 35.5t-140 99t-89 150.5q-33 -86 -86 -150t-132.5 -99.5t-190.5 -35.5q-106 0 -182 35t-116.5 102
t-40.5 163q0 108 59 181t172 113t274 48l193 10v81q0 166 -66 236.5t-188 70.5q-79 0 -156 -21.5t-158 -61.5l-32 84q78 38 169 61.5t183 23.5q137 0 216.5 -62.5t104.5 -199.5q48 118 140.5 191t228.5 73zM792 553l-178 -8q-199 -10 -305 -74t-106 -192q0 -103 63.5 -158
t179.5 -55q111 0 188 46.5t117 131.5t41 202v107zM1235 1021q-137 0 -229 -102.5t-107 -299.5h630q1 120 -31.5 210.5t-98 141t-164.5 50.5zM1170 1569v-17q-24 -32 -59 -72.5t-76 -83.5t-83 -83t-81 -72h-72v17q40 40 88 95.5t91.5 113t71.5 102.5h120z" />
    <glyph glyph-name="Oslashacute" unicode="&#x1fe;" horiz-adv-x="1565" 
d="M1436 733q0 -167 -41 -305t-123 -238t-204.5 -155t-285.5 -55q-126 0 -227.5 33t-177.5 96l-121 -166l-73 50l127 175q-90 100 -136.5 245t-46.5 322q0 222 75.5 391t223 264t364.5 95q117 0 215 -30.5t174 -88.5l112 155l72 -52l-117 -160q92 -98 141 -243.5t49 -332.5z
M1329 733q0 159 -36.5 283t-106.5 208l-753 -1035q65 -56 152.5 -87t197.5 -31q188 0 309 83t179 232t58 347zM235 734q0 -149 34 -271t102 -209l752 1032q-64 52 -147 79t-186 27q-187 0 -310.5 -83t-184 -231t-60.5 -344zM1074 1944v-17q-24 -32 -59 -72.5t-76 -83.5
t-83 -83t-81 -72h-72v17q40 40 88 95.5t91.5 113t71.5 102.5h120z" />
    <glyph glyph-name="oslashacute" unicode="&#x1ff;" horiz-adv-x="1201" 
d="M1082 545q0 -168 -55 -295t-162.5 -198.5t-267.5 -71.5q-94 0 -169 28t-132 79l-116 -147l-68 50l122 157q-56 75 -86 175.5t-30 222.5q0 263 129.5 413t359.5 150q91 0 164 -25.5t127 -72.5l105 135l70 -49l-112 -144q60 -75 90.5 -179t30.5 -228zM222 545
q0 -96 18 -175.5t54 -139.5l548 706q-42 39 -101 61t-135 22q-189 0 -286.5 -126t-97.5 -348zM978 545q0 96 -18.5 178.5t-59.5 144.5l-549 -707q44 -45 106.5 -69t141.5 -24q131 0 215 60t124 168t40 249zM892 1569v-17q-24 -32 -59 -72.5t-76 -83.5t-83 -83t-81 -72h-72
v17q40 40 88 95.5t91.5 113t71.5 102.5h120z" />
    <glyph glyph-name="uni0218" unicode="&#x218;" horiz-adv-x="1117" 
d="M1011 377q0 -131 -66 -219.5t-179 -133t-256 -44.5q-89 0 -161.5 8.5t-131 22.5t-106.5 32v103q78 -30 180.5 -52.5t223.5 -22.5q114 0 202.5 33t139.5 100t51 169q0 90 -42.5 147.5t-127.5 99t-214 84.5q-90 31 -163.5 65.5t-125.5 80t-79.5 110t-27.5 152.5
q0 121 61.5 203.5t167 125t237.5 42.5q105 0 199.5 -19.5t182.5 -58.5l-36 -89q-88 38 -176 56t-174 18q-103 0 -183.5 -30.5t-127.5 -91.5t-47 -154q0 -96 43.5 -155t124 -98t190.5 -76q130 -44 224 -92.5t145.5 -122.5t51.5 -193zM618 -125v-14q-11 -47 -31 -102t-47 -110
t-59 -102h-58v18q16 32 34.5 88t35 117t21.5 105h104z" />
    <glyph glyph-name="uni0219" unicode="&#x219;" horiz-adv-x="954" 
d="M860 285q0 -97 -48.5 -165.5t-141.5 -104t-229 -35.5q-113 0 -202 20t-149 49v100q75 -37 166 -60t187 -23q168 0 242 57t74 156q0 65 -36.5 107.5t-104.5 73.5t-164 63q-100 34 -177.5 67.5t-121.5 89t-44 151.5q0 131 105 204t282 73q98 0 182.5 -18.5t153.5 -47.5
l-36 -86q-62 29 -143 47t-162 18q-133 0 -208 -47t-75 -138q0 -70 36 -109.5t103 -66t159 -58.5q95 -33 175.5 -69t128.5 -93t48 -155zM556 -125v-14q-11 -47 -31 -102t-47 -110t-59 -102h-58v18q16 32 34.5 88t35 117t21.5 105h104z" />
    <glyph glyph-name="uni021A" unicode="&#x21a;" horiz-adv-x="1074" 
d="M588 0h-104v1369h-474v93h1052v-93h-474v-1369zM615 -125v-14q-11 -47 -31 -102t-47 -110t-59 -102h-58v18q16 32 34.5 88t35 117t21.5 105h104z" />
    <glyph glyph-name="uni021B" unicode="&#x21b;" horiz-adv-x="685" 
d="M474 67q47 0 87.5 7t71.5 18v-84q-32 -11 -75 -19.5t-95 -8.5q-92 0 -153 34.5t-92 105t-31 179.5v704h-162v60l161 31l35 256h67v-263h339v-84h-339v-698q0 -117 43.5 -177.5t142.5 -60.5zM483 -125v-14q-11 -47 -31 -102t-47 -110t-59 -102h-58v18q16 32 34.5 88
t35 117t21.5 105h104z" />
    <glyph glyph-name="uni0237" unicode="&#x237;" horiz-adv-x="463" 
d="M31 -492q-44 0 -78 6.5t-59 16.5v87q31 -12 62.5 -16.5t66.5 -4.5q76 0 116.5 47t40.5 144v1299h101v-1302q0 -90 -30.5 -152t-86.5 -93.5t-133 -31.5z" />
    <glyph glyph-name="uni0259" unicode="&#x259;" horiz-adv-x="1125" 
d="M505 1108q165 0 276.5 -68.5t168 -193.5t56.5 -293q0 -162 -54.5 -292t-160 -205.5t-258.5 -75.5q-139 0 -231.5 65t-138.5 178.5t-46 257.5v74h785q0 224 -103.5 344t-296.5 120q-100 0 -174.5 -16.5t-166.5 -57.5v94q80 35 160.5 52t183.5 17zM899 468h-676
q-1 -119 33 -209.5t103 -141t175 -50.5q156 0 252.5 103.5t112.5 297.5z" />
    <glyph glyph-name="uni02BC" unicode="&#x2bc;" horiz-adv-x="297" 
d="M246 1462l14 -20q-15 -79 -40 -163t-55 -165t-63 -153h-72q20 55 39 119.5t34.5 131.5t27 131t18.5 119h97z" />
    <glyph glyph-name="circumflex" unicode="&#x2c6;" horiz-adv-x="746" 
d="M422 1565q25 -43 67 -99.5t89.5 -112t85.5 -96.5v-16h-74q-56 48 -113 110t-104 119q-48 -57 -105 -119t-113 -110h-73v16q38 41 85 96.5t90 112t67 99.5h98z" />
    <glyph glyph-name="caron" unicode="&#x2c7;" horiz-adv-x="746" 
d="M322 1241q-25 44 -67 99.5t-88.5 110.5t-84.5 96v18h73q56 -48 112.5 -110.5t102.5 -120.5q48 58 106 120.5t114 110.5h74v-18q-38 -41 -86 -96t-91 -110.5t-68 -99.5h-97z" />
    <glyph glyph-name="macron" unicode="&#x2c9;" horiz-adv-x="718" 
d="M636 1336v-85h-554v85h554z" />
    <glyph glyph-name="breve" unicode="&#x2d8;" horiz-adv-x="717" 
d="M635 1487q-9 -77 -43.5 -132t-93.5 -84.5t-142 -29.5q-127 0 -196 64.5t-78 181.5h73q6 -55 30 -90.5t67 -53t105 -17.5t104.5 18t67 54t31.5 89h75z" />
    <glyph glyph-name="dotaccent" unicode="&#x2d9;" horiz-adv-x="310" 
d="M154 1489q38 0 56 -22.5t18 -60.5t-18 -60t-56 -22q-36 0 -54 22t-18 60t18 60.5t54 22.5z" />
    <glyph glyph-name="ring" unicode="&#x2da;" horiz-adv-x="590" 
d="M295 1247q-89 0 -151 57t-62 153q0 93 61 151t152 58q89 0 151 -59t62 -149q0 -96 -62 -153.5t-151 -57.5zM295 1316q62 0 101 40.5t39 100.5q0 61 -41 100.5t-99 39.5q-60 0 -101 -39.5t-41 -100.5q0 -60 39 -100.5t103 -40.5z" />
    <glyph glyph-name="ogonek" unicode="&#x2db;" horiz-adv-x="460" 
d="M170 -257q0 -54 28 -83t82 -29q30 0 55.5 4t42.5 9v-74q-21 -6 -49 -11.5t-63 -5.5q-85 0 -134.5 45.5t-49.5 132.5q0 53 24.5 104t69 99t105.5 92l60 -26q-71 -59 -121 -121.5t-50 -135.5z" />
    <glyph glyph-name="tilde" unicode="&#x2dc;" horiz-adv-x="861" 
d="M82 1257q5 55 20 96.5t40.5 69.5t60.5 42.5t77 14.5q49 0 88.5 -21t74 -48.5t69 -49t72.5 -21.5q46 0 80 29.5t45 111.5h71q-10 -107 -63 -166t-137 -59q-49 0 -88 21t-73 48.5t-68.5 49t-75.5 21.5q-45 0 -78 -29.5t-44 -109.5h-71z" />
    <glyph glyph-name="hungarumlaut" unicode="&#x2dd;" horiz-adv-x="822" 
d="M740 1569v-17q-20 -33 -49.5 -73.5t-64 -83t-70.5 -82.5t-68 -72h-66v17q34 40 73 95t75 112.5t58 103.5h112zM401 1569v-17q-20 -33 -49.5 -73.5t-64.5 -83t-71 -82.5t-69 -72h-65v17q34 40 73 95t75 112.5t58 103.5h113z" />
    <glyph glyph-name="uni02F3" unicode="&#x2f3;" horiz-adv-x="682" 
d="M339 -549q-89 0 -151 57t-62 152q0 93 61.5 151.5t151.5 58.5q89 0 151.5 -59t62.5 -150q0 -96 -62 -153t-152 -57zM339 -480q62 0 101.5 40t39.5 100q0 62 -41.5 101.5t-99.5 39.5q-61 0 -101 -39.5t-40 -101.5q0 -60 38.5 -100t102.5 -40z" />
    <glyph glyph-name="gravecomb" unicode="&#x300;" 
d="M-830 1569q27 -45 70.5 -102.5t92 -113t89.5 -95.5v-17h-73q-39 32 -81 72t-83 83t-75.5 83.5t-58.5 72.5v17h119z" />
    <glyph glyph-name="acutecomb" unicode="&#x301;" 
d="M-147 1569v-17q-24 -32 -59 -72.5t-76 -83.5t-83 -83t-81 -72h-72v17q40 40 88 95.5t91.5 113t71.5 102.5h120z" />
    <glyph glyph-name="uni0302" unicode="&#x302;" 
d="M32 1565q25 -43 67 -99.5t89.5 -112t85.5 -96.5v-16h-74q-56 48 -113 110t-104 119q-48 -57 -105 -119t-113 -110h-73v16q38 41 85 96.5t90 112t67 99.5h98z" />
    <glyph glyph-name="tildecomb" unicode="&#x303;" 
d="M-975 1257q5 55 20 96.5t40.5 69.5t60.5 42.5t77 14.5q49 0 88.5 -21t74 -48.5t69 -49t72.5 -21.5q46 0 80 29.5t45 111.5h71q-10 -107 -63 -166t-137 -59q-49 0 -88 21t-73 48.5t-68.5 49t-75.5 21.5q-45 0 -78 -29.5t-44 -109.5h-71z" />
    <glyph glyph-name="uni0304" unicode="&#x304;" 
d="M275 1336v-85h-554v85h554z" />
    <glyph glyph-name="uni0306" unicode="&#x306;" 
d="M277 1487q-9 -77 -43.5 -132t-93.5 -84.5t-142 -29.5q-127 0 -196 64.5t-78 181.5h73q6 -55 30 -90.5t67 -53t105 -17.5t104.5 18t67 54t31.5 89h75z" />
    <glyph glyph-name="uni0307" unicode="&#x307;" 
d="M0 1489q38 0 56 -22.5t18 -60.5t-18 -60t-56 -22q-36 0 -54 22t-18 60t18 60.5t54 22.5z" />
    <glyph glyph-name="uni0308" unicode="&#x308;" 
d="M-258 1391q0 35 16.5 56t48.5 21q36 0 52 -21t16 -56q0 -36 -16 -57t-52 -21q-32 0 -48.5 21t-16.5 57zM123 1391q0 35 16.5 56t48.5 21q35 0 51.5 -21t16.5 -56q0 -36 -16.5 -57t-51.5 -21q-32 0 -48.5 21t-16.5 57z" />
    <glyph glyph-name="hookabovecomb" unicode="&#x309;" 
d="M-415 1511q0 -74 -45.5 -118t-128.5 -62l-5 -123h-71l-7 170q91 13 132 45t41 83t-36.5 76t-105.5 25q-38 0 -66.5 -5t-49.5 -11v71q22 6 51.5 11.5t73.5 5.5q108 0 162.5 -45.5t54.5 -122.5z" />
    <glyph glyph-name="uni030A" unicode="&#x30a;" 
d="M4 1247q-89 0 -151 57t-62 153q0 93 61 151t152 58q89 0 151 -59t62 -149q0 -96 -62 -153.5t-151 -57.5zM4 1316q62 0 101 40.5t39 100.5q0 61 -41 100.5t-99 39.5q-60 0 -101 -39.5t-41 -100.5q0 -60 39 -100.5t103 -40.5z" />
    <glyph glyph-name="uni030B" unicode="&#x30b;" 
d="M444 1569v-17q-20 -33 -49.5 -73.5t-64 -83t-70.5 -82.5t-68 -72h-66v17q34 40 73 95t75 112.5t58 103.5h112zM105 1569v-17q-20 -33 -49.5 -73.5t-64.5 -83t-71 -82.5t-69 -72h-65v17q34 40 73 95t75 112.5t58 103.5h113z" />
    <glyph glyph-name="uni030C" unicode="&#x30c;" 
d="M-52 1241q-25 44 -67 99.5t-88.5 110.5t-84.5 96v18h73q56 -48 112.5 -110.5t102.5 -120.5q48 58 106 120.5t114 110.5h74v-18q-38 -41 -86 -96t-91 -110.5t-68 -99.5h-97z" />
    <glyph glyph-name="uni030F" unicode="&#x30f;" 
d="M-551 1569q23 -46 58.5 -103.5t75 -112.5t72.5 -95v-17h-65q-33 32 -69 72t-70.5 82.5t-64 83t-49.5 73.5v17h112zM-890 1569q23 -46 58 -103.5t74.5 -112.5t72.5 -95v-17h-65q-33 32 -69 72t-71 82.5t-64 83t-50 73.5v17h114z" />
    <glyph glyph-name="uni0312" unicode="&#x312;" 
d="M-137 961l-12 20q16 79 40.5 163t55 165.5t63.5 152.5h71q-26 -74 -50 -163t-42 -177t-27 -161h-99z" />
    <glyph glyph-name="dotbelowcomb" unicode="&#x323;" 
d="M-598 -308q-36 0 -54 22.5t-18 60.5t18 60t54 22q39 0 56.5 -22t17.5 -60t-17.5 -60.5t-56.5 -22.5z" />
    <glyph glyph-name="uni0326" unicode="&#x326;" 
d="M95 -125v-14q-11 -47 -31 -102t-47 -110t-59 -102h-58v18q16 32 34.5 88t35 117t21.5 105h104z" />
    <glyph glyph-name="uni0327" unicode="&#x327;" 
d="M166 -292q0 -93 -69.5 -146.5t-188.5 -53.5q-35 0 -63 3.5t-49 8.5v73q23 -6 51 -8.5t63 -2.5q77 0 123 30.5t46 92.5q0 61 -51.5 88.5t-150.5 31.5l90 175h77l-62 -124q55 -6 96.5 -27t64.5 -56t23 -85z" />
    <glyph glyph-name="uni0328" unicode="&#x328;" 
d="M-61 -257q0 -54 28 -83t82 -29q30 0 55.5 4t42.5 9v-74q-21 -6 -49 -11.5t-63 -5.5q-85 0 -134.5 45.5t-49.5 132.5q0 53 24.5 104t69 99t105.5 92l60 -26q-71 -59 -121 -121.5t-50 -135.5z" />
    <glyph glyph-name="tonos" unicode="&#x384;" horiz-adv-x="1182" 
d="M531 1241v19q15 39 31 87.5t30 101t25 104.5t17 98h109v-20q-10 -56 -34.5 -126.5t-54 -139.5t-57.5 -124h-66z" />
    <glyph glyph-name="dieresistonos" unicode="&#x385;" horiz-adv-x="1182" 
d="M745 1717v-19q-14 -45 -39 -101.5t-54 -114t-58 -105.5h-57v18q19 46 37.5 102t33.5 113.5t23 106.5h114zM376 1468q36 0 51.5 -21t15.5 -56q0 -36 -15.5 -57t-51.5 -21q-32 0 -48.5 21t-16.5 57q0 35 16.5 56t48.5 21zM806 1468q35 0 51.5 -21t16.5 -56q0 -36 -16.5 -57
t-51.5 -21q-33 0 -48.5 21t-15.5 57q0 35 15.5 56t48.5 21z" />
    <glyph glyph-name="Alphatonos" unicode="&#x386;" horiz-adv-x="1230" 
d="M1121 0l-199 517h-614l-203 -517h-105l575 1467h94l560 -1467h-108zM889 610l-202 548q-8 21 -19.5 54t-24 70t-24.5 70q-10 -35 -22 -70t-23 -67.5t-21 -58.5l-210 -546h546zM69 1130v19q15 39 31 87.5t30 101t25 104.5t17 98h109v-20q-10 -56 -34.5 -126.5t-54 -139.5
t-57.5 -124h-66z" />
    <glyph glyph-name="anoteleia" unicode="&#x387;" horiz-adv-x="488" 
d="M164 1012q0 44 20 67.5t59 23.5q43 0 63 -23.5t20 -67.5t-20 -68t-63 -24q-39 0 -59 24t-20 68z" />
    <glyph glyph-name="Epsilontonos" unicode="&#x388;" horiz-adv-x="1244" 
d="M1118 0h-799v1462h799v-93h-696v-554h657v-93h-657v-629h696v-93zM0 1130v19q15 39 31 87.5t30 101t25 104.5t17 98h109v-20q-10 -56 -34.5 -126.5t-54 -139.5t-57.5 -124h-66z" />
    <glyph glyph-name="Etatonos" unicode="&#x389;" horiz-adv-x="1586" 
d="M1379 0h-103v720h-854v-720h-103v1462h103v-648h854v648h103v-1462zM0 1130v19q15 39 31 87.5t30 101t25 104.5t17 98h109v-20q-10 -56 -34.5 -126.5t-54 -139.5t-57.5 -124h-66z" />
    <glyph glyph-name="Iotatonos" unicode="&#x38a;" horiz-adv-x="615" 
d="M305 0v1462h103v-1462h-103zM-2 1130v19q15 39 31 87.5t30 101t25 104.5t17 98h109v-20q-10 -56 -34.5 -126.5t-54 -139.5t-57.5 -124h-66z" />
    <glyph glyph-name="Omicrontonos" unicode="&#x38c;" horiz-adv-x="1608" 
d="M1479 733q0 -167 -41 -305t-123 -238t-204.5 -155t-285.5 -55q-164 0 -287 55t-204.5 155.5t-122.5 239t-41 305.5q0 222 75.5 391t223 264t364.5 95q208 0 352.5 -90.5t219 -259t74.5 -402.5zM278 734q0 -196 59 -345.5t181 -233.5t308 -84q188 0 309 83t179 232t58 347
q0 313 -136.5 486t-402.5 173q-187 0 -310.5 -83t-184 -231t-60.5 -344zM0 1130v19q15 39 31 87.5t30 101t25 104.5t17 98h109v-20q-10 -56 -34.5 -126.5t-54 -139.5t-57.5 -124h-66z" />
    <glyph glyph-name="Upsilontonos" unicode="&#x38e;" horiz-adv-x="1354" 
d="M814 664l427 798h113l-487 -897v-565h-103v557l-491 905h114zM0 1130v19q15 39 31 87.5t30 101t25 104.5t17 98h109v-20q-10 -56 -34.5 -126.5t-54 -139.5t-57.5 -124h-66z" />
    <glyph glyph-name="Omegatonos" unicode="&#x38f;" horiz-adv-x="1628" 
d="M832 1392q-169 0 -292.5 -72t-190.5 -205t-67 -315q0 -171 48 -300t139.5 -229.5t220.5 -186.5v-84h-567v93h427q-106 71 -191 169t-135 231.5t-50 309.5q0 204 81.5 357.5t229.5 239t347 85.5q204 0 353 -81.5t229.5 -233.5t80.5 -366q0 -177 -48 -311t-132.5 -232
t-193.5 -168h425v-93h-568v84q138 85 228.5 187.5t135.5 232.5t45 296q0 187 -67 319.5t-191.5 202.5t-296.5 70zM0 1131v19q15 39 31 87.5t30 101t25 104.5t17 98h109v-20q-10 -56 -34.5 -126.5t-54 -139.5t-57.5 -124h-66z" />
    <glyph glyph-name="iotadieresistonos" unicode="&#x390;" horiz-adv-x="630" 
d="M265 1087v-782q0 -126 48 -182t147 -56q36 0 73 5.5t62 12.5v-84q-24 -9 -65 -15t-81 -6q-89 0 -152.5 30.5t-97 100t-33.5 184.5v792h99zM389 1717v-19q-14 -45 -39 -101.5t-54 -114t-58 -105.5h-57v18q19 46 37.5 102t33.5 113.5t23 106.5h114zM20 1468q36 0 51.5 -21
t15.5 -56q0 -36 -15.5 -57t-51.5 -21q-32 0 -48.5 21t-16.5 57q0 35 16.5 56t48.5 21zM450 1468q35 0 51.5 -21t16.5 -56q0 -36 -16.5 -57t-51.5 -21q-33 0 -48.5 21t-15.5 57q0 35 15.5 56t48.5 21z" />
    <glyph glyph-name="Alpha" unicode="&#x391;" horiz-adv-x="1230" 
d="M1121 0l-199 517h-614l-203 -517h-105l575 1467h94l560 -1467h-108zM889 610l-202 548q-8 21 -19.5 54t-24 70t-24.5 70q-10 -35 -22 -70t-23 -67.5t-21 -58.5l-210 -546h546z" />
    <glyph glyph-name="Beta" unicode="&#x392;" horiz-adv-x="1284" 
d="M206 1462h401q271 0 396.5 -85t125.5 -271q0 -84 -32.5 -153t-96 -115.5t-156.5 -63.5v-7q111 -17 183.5 -61.5t108 -117t35.5 -172.5q0 -144 -65.5 -236t-181.5 -136t-268 -44h-450v1462zM309 812h324q206 0 298 72t92 213q0 146 -99 210t-317 64h-298v-559zM309 722
v-631h344q203 0 306 82.5t103 246.5q0 108 -48 174.5t-143.5 97t-237.5 30.5h-324z" />
    <glyph glyph-name="Gamma" unicode="&#x393;" horiz-adv-x="1028" 
d="M1007 1462v-94h-698v-1368h-103v1462h801z" />
    <glyph glyph-name="uni0394" unicode="&#x394;" horiz-adv-x="1169" 
d="M635 1462l514 -1405v-57h-1129v59l514 1403h101zM1029 93l-355 979q-19 51 -36 101.5t-31.5 95t-23.5 77.5q-10 -33 -23 -75.5t-28.5 -89.5t-33.5 -98l-361 -990h892z" />
    <glyph glyph-name="Epsilon" unicode="&#x395;" horiz-adv-x="1131" 
d="M1005 0h-799v1462h799v-93h-696v-554h657v-93h-657v-629h696v-93z" />
    <glyph glyph-name="Zeta" unicode="&#x396;" horiz-adv-x="1179" 
d="M1098 0h-1022v75l868 1293h-824v94h955v-75l-869 -1293h892v-94z" />
    <glyph glyph-name="Eta" unicode="&#x397;" horiz-adv-x="1473" 
d="M1266 0h-103v720h-854v-720h-103v1462h103v-648h854v648h103v-1462z" />
    <glyph glyph-name="Theta" unicode="&#x398;" horiz-adv-x="1565" 
d="M1114 786v-92h-666v92h666zM1436 733q0 -167 -41 -305t-123 -238t-204.5 -155t-285.5 -55q-164 0 -287 55t-204.5 155.5t-122.5 239t-41 305.5q0 222 75.5 391t223 264t364.5 95q208 0 352.5 -90.5t219 -259t74.5 -402.5zM235 734q0 -196 59 -345.5t181 -233.5t308 -84
q188 0 309 83t179 232t58 347q0 313 -136.5 486t-402.5 173q-187 0 -310.5 -83t-184 -231t-60.5 -344z" />
    <glyph glyph-name="Iota" unicode="&#x399;" horiz-adv-x="516" 
d="M206 0v1462h103v-1462h-103z" />
    <glyph glyph-name="Kappa" unicode="&#x39a;" horiz-adv-x="1190" 
d="M1190 0h-125l-566 771l-190 -183v-588h-103v1462h103v-769q37 42 77.5 84.5t81.5 86.5l577 598h128l-598 -619z" />
    <glyph glyph-name="Lambda" unicode="&#x39b;" horiz-adv-x="1188" 
d="M645 1462l542 -1462h-109l-398 1076q-17 49 -33 95t-30 89t-26 80q-10 -37 -23 -78t-29 -86.5t-34 -98.5l-396 -1077h-109l541 1462h104z" />
    <glyph glyph-name="Mu" unicode="&#x39c;" horiz-adv-x="1768" 
d="M839 0l-537 1350h-5q2 -37 3.5 -77.5t2.5 -84.5t1 -92v-1096h-98v1462h156l518 -1302h6l522 1302h152v-1462h-101v1108q0 39 1 80t2.5 81.5t3.5 78.5h-6l-539 -1348h-82z" />
    <glyph glyph-name="Nu" unicode="&#x39d;" horiz-adv-x="1477" 
d="M1270 0h-105l-864 1293h-5q2 -54 3.5 -109.5t3 -114t1.5 -120.5v-949h-98v1462h106l861 -1289h5q-1 44 -2.5 102t-3 119t-1.5 115v953h99v-1462z" />
    <glyph glyph-name="Xi" unicode="&#x39e;" horiz-adv-x="1088" 
d="M42 0v93h1004v-93h-1004zM164 721v93h759v-93h-759zM82 1369v93h923v-93h-923z" />
    <glyph glyph-name="Omicron" unicode="&#x39f;" horiz-adv-x="1565" 
d="M1436 733q0 -167 -41 -305t-123 -238t-204.5 -155t-285.5 -55q-164 0 -287 55t-204.5 155.5t-122.5 239t-41 305.5q0 222 75.5 391t223 264t364.5 95q208 0 352.5 -90.5t219 -259t74.5 -402.5zM235 734q0 -196 59 -345.5t181 -233.5t308 -84q188 0 309 83t179 232t58 347
q0 313 -136.5 486t-402.5 173q-187 0 -310.5 -83t-184 -231t-60.5 -344z" />
    <glyph glyph-name="Pi" unicode="&#x3a0;" horiz-adv-x="1463" 
d="M206 0v1462h1049v-1462h-101v1369h-845v-1369h-103z" />
    <glyph glyph-name="Rho" unicode="&#x3a1;" horiz-adv-x="1198" 
d="M565 1462q261 0 391 -100t130 -311q0 -108 -34.5 -191.5t-103.5 -140.5t-172.5 -86t-241.5 -29h-225v-604h-103v1462h359zM554 1371h-245v-676h215q142 0 244 32.5t157 109.5t55 210q0 169 -104 246.5t-322 77.5z" />
    <glyph glyph-name="Sigma" unicode="&#x3a3;" horiz-adv-x="1129" 
d="M61 0v84l541 679l-528 617v82h964v-95h-618h-71.5t-72.5 0.5t-73 0.5l519 -602l-537 -673q65 0 128.5 0.5t127.5 0.5h656v-94h-1036z" />
    <glyph glyph-name="Tau" unicode="&#x3a4;" horiz-adv-x="1074" 
d="M588 0h-104v1369h-474v93h1052v-93h-474v-1369z" />
    <glyph glyph-name="Upsilon" unicode="&#x3a5;" horiz-adv-x="1081" 
d="M541 664l427 798h113l-487 -897v-565h-103v557l-491 905h114z" />
    <glyph glyph-name="Phi" unicode="&#x3a6;" horiz-adv-x="1561" 
d="M831 1483v-179q204 -3 342 -64.5t208.5 -179t70.5 -292.5q0 -128 -40 -230.5t-118 -176.5t-194 -114.5t-269 -42.5v-224h-101v224q-154 2 -270 42t-194 112.5t-117 174t-39 227.5q0 124 37.5 223t114.5 169.5t193.5 109.5t274.5 42v179h101zM730 1213
q-171 -3 -285.5 -54.5t-172.5 -151t-58 -246.5q0 -154 60 -256.5t175 -155.5t281 -57v921zM831 1213v-921q167 4 282 58.5t174.5 159t59.5 259.5q0 149 -56 246t-170 146t-290 52z" />
    <glyph glyph-name="Chi" unicode="&#x3a7;" horiz-adv-x="1101" 
d="M1102 0h-118l-433 686l-439 -686h-113l492 760l-448 702h117l395 -629l398 629h113l-451 -701z" />
    <glyph glyph-name="Psi" unicode="&#x3a8;" horiz-adv-x="1565" 
d="M1422 1462v-483q0 -135 -36.5 -233.5t-111.5 -163t-187.5 -96.5t-265.5 -34v-452h-100v452q-154 2 -266.5 34t-186 96.5t-109.5 163.5t-36 233v483h102v-479q0 -155 52 -251t161.5 -141t282.5 -48v919h100v-919q174 3 283.5 48t161 141t51.5 251v479h105z" />
    <glyph glyph-name="uni03A9" unicode="&#x3a9;" horiz-adv-x="1587" 
d="M791 1392q-169 0 -292.5 -72t-190.5 -205t-67 -315q0 -171 48 -300t139.5 -229.5t220.5 -186.5v-84h-567v93h427q-106 71 -191 169t-135 231.5t-50 309.5q0 204 81.5 357.5t229.5 239t347 85.5q204 0 353 -81.5t229.5 -233.5t80.5 -366q0 -177 -48 -311t-132.5 -232
t-193.5 -168h425v-93h-568v84q138 85 228.5 187.5t135.5 232.5t45 296q0 187 -67 319.5t-191.5 202.5t-296.5 70z" />
    <glyph glyph-name="Iotadieresis" unicode="&#x3aa;" horiz-adv-x="516" 
d="M206 0v1462h103v-1462h-103zM3 1766q0 35 16.5 56t48.5 21q36 0 52 -21t16 -56q0 -36 -16 -57t-52 -21q-32 0 -48.5 21t-16.5 57zM384 1766q0 35 16.5 56t48.5 21q35 0 51.5 -21t16.5 -56q0 -36 -16.5 -57t-51.5 -21q-32 0 -48.5 21t-16.5 57z" />
    <glyph glyph-name="Upsilondieresis" unicode="&#x3ab;" horiz-adv-x="1081" 
d="M541 664l427 798h113l-487 -897v-565h-103v557l-491 905h114zM283 1766q0 35 16.5 56t48.5 21q36 0 52 -21t16 -56q0 -36 -16 -57t-52 -21q-32 0 -48.5 21t-16.5 57zM664 1766q0 35 16.5 56t48.5 21q35 0 51.5 -21t16.5 -56q0 -36 -16.5 -57t-51.5 -21q-32 0 -48.5 21
t-16.5 57z" />
    <glyph glyph-name="alphatonos" unicode="&#x3ac;" horiz-adv-x="1209" 
d="M579 68q124 0 201 54.5t112.5 158t35.5 250.5v33q0 238 -83 346.5t-257 108.5q-178 0 -272 -124.5t-94 -355.5t88 -351t269 -120zM568 -20q-217 0 -333.5 142.5t-116.5 417.5q0 274 123.5 421t342.5 147q131 0 217 -52t129 -153h7q3 48 17 96t32 88h84
q-13 -45 -22.5 -103.5t-14.5 -130t-5 -157.5v-453q0 -101 25 -138.5t72 -37.5q19 0 38 3t33 8v-79q-10 -5 -25 -9t-32.5 -7t-34.5 -3q-84 0 -123 49.5t-47 167.5h-8q-27 -59 -73 -108.5t-116 -79t-169 -29.5zM547 1241v19q15 39 31 87.5t30 101t25 104.5t17 98h109v-20
q-10 -56 -34.5 -126.5t-54 -139.5t-57.5 -124h-66z" />
    <glyph glyph-name="epsilontonos" unicode="&#x3ad;" horiz-adv-x="928" 
d="M677 618v-87h-133q-112 0 -190 -25.5t-118.5 -78t-40.5 -134.5q0 -71 37 -121.5t108.5 -77.5t173.5 -27q100 0 182.5 20t154.5 50v-91q-57 -27 -142.5 -46.5t-198.5 -19.5q-212 0 -314.5 86.5t-102.5 222.5q0 114 64 184t177 99v7q-107 32 -155 94t-48 150q0 99 52.5 162
t140 93t192.5 30q107 0 183 -18t153 -50l-37 -84q-63 28 -137.5 46t-160.5 18q-142 0 -214.5 -52t-72.5 -150q0 -101 85.5 -150.5t249.5 -49.5h112zM453 1241v19q15 39 31 87.5t30 101t25 104.5t17 98h109v-20q-10 -56 -34.5 -126.5t-54 -139.5t-57.5 -124h-66z" />
    <glyph glyph-name="etatonos" unicode="&#x3ae;" horiz-adv-x="1209" 
d="M659 1108q122 0 206.5 -42.5t128.5 -130t44 -224.5v-1203h-100v1197q0 162 -74 238t-215 76q-119 0 -201 -46.5t-124.5 -139.5t-42.5 -234v-599h-101v1087h82l15 -198h6q29 61 79.5 110.5t124.5 79t172 29.5zM577 1241v19q15 39 31 87.5t30 101t25 104.5t17 98h109v-20
q-10 -56 -34.5 -126.5t-54 -139.5t-57.5 -124h-66z" />
    <glyph glyph-name="iotatonos" unicode="&#x3af;" horiz-adv-x="630" 
d="M265 1087v-782q0 -126 48 -182t147 -56q36 0 73 5.5t62 12.5v-84q-24 -9 -65 -15t-81 -6q-89 0 -152.5 30.5t-97 100t-33.5 184.5v792h99zM172 1241v19q15 39 31 87.5t30 101t25 104.5t17 98h109v-20q-10 -56 -34.5 -126.5t-54 -139.5t-57.5 -124h-66z" />
    <glyph glyph-name="upsilondieresistonos" unicode="&#x3b0;" horiz-adv-x="1218" 
d="M602 -20q-152 0 -248 59.5t-142 172t-46 270.5v605h100v-598q0 -212 86.5 -317t257.5 -105q186 0 280 132t94 402q0 130 -14.5 249t-47.5 237h103q21 -79 35 -156.5t21 -159.5t7 -173q0 -310 -122.5 -464t-363.5 -154zM760 1717v-19q-14 -45 -39 -101.5t-54 -114
t-58 -105.5h-57v18q19 46 37.5 102t33.5 113.5t23 106.5h114zM391 1468q36 0 51.5 -21t15.5 -56q0 -36 -15.5 -57t-51.5 -21q-32 0 -48.5 21t-16.5 57q0 35 16.5 56t48.5 21zM821 1468q35 0 51.5 -21t16.5 -56q0 -36 -16.5 -57t-51.5 -21q-33 0 -48.5 21t-15.5 57
q0 35 15.5 56t48.5 21z" />
    <glyph glyph-name="alpha" unicode="&#x3b1;" horiz-adv-x="1209" 
d="M579 68q124 0 201 54.5t112.5 158t35.5 250.5v33q0 238 -83 346.5t-257 108.5q-178 0 -272 -124.5t-94 -355.5t88 -351t269 -120zM568 -20q-217 0 -333.5 142.5t-116.5 417.5q0 274 123.5 421t342.5 147q131 0 217 -52t129 -153h7q3 48 17 96t32 88h84
q-13 -45 -22.5 -103.5t-14.5 -130t-5 -157.5v-453q0 -101 25 -138.5t72 -37.5q19 0 38 3t33 8v-79q-10 -5 -25 -9t-32.5 -7t-34.5 -3q-84 0 -123 49.5t-47 167.5h-8q-27 -59 -73 -108.5t-116 -79t-169 -29.5z" />
    <glyph glyph-name="beta" unicode="&#x3b2;" horiz-adv-x="1245" 
d="M653 1567q132 0 229 -44t150 -129t53 -209q0 -142 -74 -236.5t-211 -119.5v-6q164 -22 254 -120.5t90 -279.5q0 -134 -58.5 -232t-167.5 -151t-262 -53q-109 0 -198.5 25.5t-174.5 75.5v-580h-102v1594q0 148 57.5 252t163.5 158.5t251 54.5zM652 1479q-113 0 -196 -42
t-128 -127.5t-45 -215.5v-911q83 -52 170.5 -80t196.5 -28q190 0 291 94t101 259q0 111 -43 188.5t-130 118t-222 40.5h-116v89h108q163 0 252 81t89 237q0 141 -85 219t-243 78z" />
    <glyph glyph-name="gamma" unicode="&#x3b3;" horiz-adv-x="983" 
d="M961 1087l-394 -1023q-36 -93 -60 -190.5t-36 -191t-13 -174.5h-107q0 77 14 169.5t36 183.5t46 163l-443 1063h106l294 -709q18 -43 34.5 -86.5t30.5 -84.5t25 -79h6q10 35 23.5 77t29 85.5t30.5 82.5l272 714h106z" />
    <glyph glyph-name="delta" unicode="&#x3b4;" horiz-adv-x="1190" 
d="M642 1567q106 0 198.5 -26t187.5 -74l-45 -81q-84 45 -166 69t-178 24q-122 0 -184 -53.5t-62 -140.5q0 -64 30.5 -110.5t93.5 -89.5t159 -98q115 -64 204.5 -135t140.5 -163.5t51 -224.5q0 -148 -56 -257t-163 -168t-258 -59q-143 0 -251 54t-168 155.5t-60 244.5
q0 125 50 225t149 173t245 117q-86 50 -146.5 97t-92 104t-31.5 136q0 132 99 206.5t253 74.5zM646 898q-120 -31 -216.5 -87.5t-152.5 -148.5t-56 -228q0 -113 46 -195.5t130 -126.5t198 -44q120 0 203 46.5t126.5 135.5t43.5 214q0 156 -87 257.5t-235 176.5z" />
    <glyph glyph-name="epsilon" unicode="&#x3b5;" horiz-adv-x="928" 
d="M677 618v-87h-133q-112 0 -190 -25.5t-118.5 -78t-40.5 -134.5q0 -71 37 -121.5t108.5 -77.5t173.5 -27q100 0 182.5 20t154.5 50v-91q-57 -27 -142.5 -46.5t-198.5 -19.5q-212 0 -314.5 86.5t-102.5 222.5q0 114 64 184t177 99v7q-107 32 -155 94t-48 150q0 99 52.5 162
t140 93t192.5 30q107 0 183 -18t153 -50l-37 -84q-63 28 -137.5 46t-160.5 18q-142 0 -214.5 -52t-72.5 -150q0 -101 85.5 -150.5t249.5 -49.5h112z" />
    <glyph glyph-name="zeta" unicode="&#x3b6;" horiz-adv-x="957" 
d="M890 -129q0 -73 -32 -140t-83 -132h-105q35 44 62.5 89.5t42 88t13.5 76.5q-2 49 -25.5 80t-79.5 50.5t-156 36.5q-139 23 -230 77t-135 143.5t-44 218.5q0 143 43.5 264.5t127 237t205.5 239.5t278 272q-28 -1 -69 -1.5t-89 -1.5t-99 -1h-332v88h716v-79
q-197 -181 -328 -319.5t-207.5 -252.5t-109 -220t-32.5 -221t41 -187t122.5 -112t204.5 -62q99 -17 166 -43.5t100.5 -71t33.5 -117.5z" />
    <glyph glyph-name="eta" unicode="&#x3b7;" horiz-adv-x="1209" 
d="M659 1108q122 0 206.5 -42.5t128.5 -130t44 -224.5v-1203h-100v1197q0 162 -74 238t-215 76q-119 0 -201 -46.5t-124.5 -139.5t-42.5 -234v-599h-101v1087h82l15 -198h6q29 61 79.5 110.5t124.5 79t172 29.5z" />
    <glyph glyph-name="theta" unicode="&#x3b8;" horiz-adv-x="1168" 
d="M1054 794q0 -271 -52 -452t-157 -271.5t-264 -90.5q-232 0 -349.5 203.5t-117.5 607.5q0 260 52 435.5t156.5 264t260.5 88.5q234 0 352.5 -198t118.5 -587zM581 67q184 0 274.5 172.5t95.5 518.5h-734q5 -344 93.5 -517.5t270.5 -173.5zM583 1492q-179 0 -269 -161
t-97 -484h732q-6 323 -95.5 484t-270.5 161z" />
    <glyph glyph-name="iota" unicode="&#x3b9;" horiz-adv-x="630" 
d="M265 1087v-782q0 -126 48 -182t147 -56q36 0 73 5.5t62 12.5v-84q-24 -9 -65 -15t-81 -6q-89 0 -152.5 30.5t-97 100t-33.5 184.5v792h99z" />
    <glyph glyph-name="kappa" unicode="&#x3ba;" horiz-adv-x="991" 
d="M952 1087l-417 -473l456 -614h-120l-407 548l-178 -184v-364h-106v1087h106v-290q0 -91 -1.5 -175.5t-5.5 -160.5v0q30 34 53.5 62t51.5 60l443 504h125z" />
    <glyph glyph-name="lambda" unicode="&#x3bb;" horiz-adv-x="1031" 
d="M-12 0l472 1092l-67 196q-36 106 -78.5 149.5t-119.5 43.5q-31 0 -55 -5t-44 -10v87q16 5 33 8.5t37.5 5.5t44.5 2q76 0 126 -25.5t86 -83.5t69 -156l394 -1133q14 -38 28.5 -60.5t32 -31.5t38.5 -9q16 0 30.5 2.5t24.5 5.5v-80q-10 -4 -22 -7.5t-26 -6t-32 -2.5
q-42 0 -72 15.5t-51.5 47t-38.5 80.5l-219 632q-10 30 -20 59.5t-20 58t-18 55t-14 49.5h-5q-15 -50 -35.5 -103.5t-42.5 -105.5l-328 -770h-108z" />
    <glyph glyph-name="uni03BC" unicode="&#x3bc;" horiz-adv-x="1221" 
d="M1039 1087v-1087h-84l-15 176h-6q-29 -56 -73 -100.5t-111 -70t-168 -25.5q-115 0 -188.5 37.5t-111.5 100.5h-6q2 -26 2.5 -58.5t1 -69.5t0.5 -78v-404h-100v1579h100v-704q0 -157 75.5 -236t230.5 -79q132 0 209 49t110.5 143t33.5 228v599h100z" />
    <glyph glyph-name="nu" unicode="&#x3bd;" horiz-adv-x="1051" 
d="M-1 1087h106l302 -813q10 -25 21 -57.5t22 -64.5t18 -57h5q134 123 222.5 271t133.5 326.5t45 394.5h99q0 -228 -49 -419t-151.5 -355t-264.5 -313h-102z" />
    <glyph glyph-name="xi" unicode="&#x3be;" horiz-adv-x="940" 
d="M117 427q0 109 42.5 187t114.5 128.5t161 72.5v7q-79 17 -135 54t-86 96.5t-30 142.5q0 106 44.5 177.5t119 116t162.5 66.5q-33 -2 -68.5 -3.5t-77 -2.5t-94.5 -1h-89v88h672v-84h-65q-90 0 -179.5 -19.5t-163 -62t-117.5 -110t-44 -164.5q0 -129 91.5 -190.5
t284.5 -61.5h148v-84h-150q-129 0 -227.5 -40t-153.5 -117.5t-55 -190.5q0 -111 44 -173.5t125 -94.5t193 -56q107 -23 173 -52t96.5 -73t30.5 -112q0 -69 -31.5 -137t-77.5 -135h-103q38 52 63.5 97.5t38 85t12.5 72.5q0 45 -20.5 74.5t-78.5 52.5t-171 45
q-128 24 -217 71.5t-135.5 127.5t-46.5 202z" />
    <glyph glyph-name="omicron" unicode="&#x3bf;" horiz-adv-x="1201" 
d="M1082 545q0 -126 -31 -229.5t-92 -178.5t-151.5 -116t-210.5 -41q-114 0 -203 40.5t-150.5 115.5t-93.5 178.5t-32 230.5q0 175 58.5 301.5t168 194t262.5 67.5q158 0 263.5 -71.5t158.5 -198.5t53 -293zM222 545q0 -143 41 -250t124.5 -167t211.5 -60q131 0 215 60
t124 168t40 249q0 137 -38 244t-120 168.5t-214 61.5q-189 0 -286.5 -126t-97.5 -348z" />
    <glyph glyph-name="pi" unicode="&#x3c0;" horiz-adv-x="1254" 
d="M1092 67q30 0 50 5t34 10v-85q-15 -6 -42.5 -11.5t-64.5 -5.5q-94 0 -144.5 57.5t-50.5 170.5v794h-529v-1002h-99v1002h-221v57l165 28h1006v-85h-222v-778q0 -80 29 -118.5t89 -38.5z" />
    <glyph glyph-name="rho" unicode="&#x3c1;" horiz-adv-x="1195" 
d="M1078 547q0 -182 -54.5 -308.5t-158.5 -192.5t-253 -66q-106 0 -190.5 29.5t-143.5 76.5h-7q4 -55 5.5 -112.5t1.5 -129.5v-336h-102v1067q0 176 52 294.5t153.5 178.5t248.5 60q144 0 244 -63.5t152 -188.5t52 -309zM627 1018q-181 0 -265 -116t-84 -339v-380
q64 -54 150 -84.5t186 -30.5q176 0 268 120.5t92 358.5q0 232 -82.5 351.5t-264.5 119.5z" />
    <glyph glyph-name="uni03C2" unicode="&#x3c2;" horiz-adv-x="974" 
d="M631 1108q77 0 146 -13.5t124 -35.5l-27 -88q-55 21 -117.5 33.5t-129.5 12.5q-203 0 -304 -124t-101 -355q0 -125 33.5 -210t114.5 -138t222 -82q101 -20 166 -48t96.5 -72t31.5 -115q0 -79 -35 -148t-77 -126h-103q36 47 62 91.5t40.5 86.5t14.5 79q0 48 -23.5 78.5
t-80.5 52t-158 40.5t-177.5 59t-127.5 102.5t-77 149t-26 199.5q0 187 61 314t176 192t276 65z" />
    <glyph glyph-name="sigma" unicode="&#x3c3;" horiz-adv-x="1202" 
d="M1074 511q0 -159 -56.5 -278.5t-164.5 -186t-265 -66.5q-151 0 -256 66t-159.5 186t-54.5 282q0 187 65.5 315t196.5 193t325 65h448v-88h-257q82 -100 130 -217t48 -271zM222 514q0 -130 39.5 -230.5t121.5 -158t209 -57.5q190 0 284 120t94 322q0 101 -21 186
t-61.5 160t-98.5 143h-84q-249 0 -366 -122.5t-117 -362.5z" />
    <glyph glyph-name="tau" unicode="&#x3c4;" horiz-adv-x="913" 
d="M848 1087v-89h-428v-675q0 -131 49.5 -194t163.5 -63q42 0 85.5 6.5t76.5 16.5v-81q-29 -11 -76.5 -19.5t-99.5 -8.5q-98 0 -165.5 35t-102 108t-34.5 187v688h-297v60l150 29h678z" />
    <glyph glyph-name="upsilon" unicode="&#x3c5;" horiz-adv-x="1218" 
d="M602 -20q-152 0 -248 59.5t-142 172t-46 270.5v605h100v-598q0 -212 86.5 -317t257.5 -105q186 0 280 132t94 402q0 130 -14.5 249t-47.5 237h103q21 -79 35 -156.5t21 -159.5t7 -173q0 -310 -122.5 -464t-363.5 -154z" />
    <glyph glyph-name="phi" unicode="&#x3c6;" horiz-adv-x="1389" 
d="M326 1101l79 -53q-85 -104 -135 -220.5t-50 -274.5q0 -155 47.5 -261t140.5 -162t228 -64v684q0 173 70 265.5t211 92.5q113 0 192 -64.5t120.5 -182.5t41.5 -279q0 -180 -66 -312.5t-186.5 -207t-282.5 -83.5v-471h-100v471q-170 9 -285 77t-174 193.5t-59 303.5
q0 171 57.5 304t150.5 244zM918 1020q-96 0 -139.5 -69t-43.5 -199v-686q133 7 230 70.5t150 176.5t53 267q0 137 -30 235.5t-86 151.5t-134 53z" />
    <glyph glyph-name="chi" unicode="&#x3c7;" horiz-adv-x="1053" 
d="M138 1102q49 0 82 -20.5t57.5 -59.5t46.5 -96l199 -502l343 663h108l-402 -761l213 -542q28 -70 51.5 -111.5t52 -59t69.5 -17.5q23 0 42 3t34 6v-82q-17 -5 -39.5 -10t-52.5 -5q-67 0 -110.5 25.5t-74.5 76.5t-61 127l-193 497l-377 -726h-109l437 828l-217 547
q-27 69 -56 100.5t-71 31.5q-20 0 -37.5 -4t-34.5 -10v84q17 7 42 12t58 5z" />
    <glyph glyph-name="psi" unicode="&#x3c8;" horiz-adv-x="1477" 
d="M789 1554v-1478q153 7 254 70t150.5 178.5t49.5 278.5q0 137 -17.5 249.5t-49.5 234.5h102q32 -117 49 -230t17 -252q0 -191 -62.5 -326t-185.5 -209t-307 -83v-479h-99v479q-173 6 -289.5 71t-175.5 188t-59 303v538h98v-536q0 -154 49 -257.5t143.5 -158t233.5 -60.5
v1479h99z" />
    <glyph glyph-name="omega" unicode="&#x3c9;" horiz-adv-x="1503" 
d="M1258 1087q41 -90 69.5 -179.5t43.5 -184.5t15 -202q0 -149 -36 -272t-115 -196t-209 -73q-112 0 -178.5 53t-93.5 146h-6q-26 -93 -96.5 -146t-175.5 -53q-113 0 -193.5 62.5t-123 183.5t-42.5 295q0 109 15 203t43 182.5t70 180.5h103q-63 -141 -96 -274.5t-33 -292.5
q0 -227 69 -339.5t196 -112.5q73 0 121.5 35.5t73 102.5t24.5 161v330h98v-330q0 -98 24.5 -164.5t72.5 -100.5t120 -34q89 0 147.5 52.5t88.5 153.5t30 246q0 158 -32.5 293t-96.5 274h103z" />
    <glyph glyph-name="iotadieresis" unicode="&#x3ca;" horiz-adv-x="630" 
d="M265 1087v-782q0 -126 48 -182t147 -56q36 0 73 5.5t62 12.5v-84q-24 -9 -65 -15t-81 -6q-89 0 -152.5 30.5t-97 100t-33.5 184.5v792h99zM-23 1391q0 35 16.5 56t48.5 21q36 0 52 -21t16 -56q0 -36 -16 -57t-52 -21q-32 0 -48.5 21t-16.5 57zM358 1391q0 35 16.5 56
t48.5 21q35 0 51.5 -21t16.5 -56q0 -36 -16.5 -57t-51.5 -21q-32 0 -48.5 21t-16.5 57z" />
    <glyph glyph-name="upsilondieresis" unicode="&#x3cb;" horiz-adv-x="1218" 
d="M602 -20q-152 0 -248 59.5t-142 172t-46 270.5v605h100v-598q0 -212 86.5 -317t257.5 -105q186 0 280 132t94 402q0 130 -14.5 249t-47.5 237h103q21 -79 35 -156.5t21 -159.5t7 -173q0 -310 -122.5 -464t-363.5 -154zM348 1391q0 35 16.5 56t48.5 21q36 0 52 -21t16 -56
q0 -36 -16 -57t-52 -21q-32 0 -48.5 21t-16.5 57zM729 1391q0 35 16.5 56t48.5 21q35 0 51.5 -21t16.5 -56q0 -36 -16.5 -57t-51.5 -21q-32 0 -48.5 21t-16.5 57z" />
    <glyph glyph-name="omicrontonos" unicode="&#x3cc;" horiz-adv-x="1201" 
d="M1082 545q0 -126 -31 -229.5t-92 -178.5t-151.5 -116t-210.5 -41q-114 0 -203 40.5t-150.5 115.5t-93.5 178.5t-32 230.5q0 175 58.5 301.5t168 194t262.5 67.5q158 0 263.5 -71.5t158.5 -198.5t53 -293zM222 545q0 -143 41 -250t124.5 -167t211.5 -60q131 0 215 60
t124 168t40 249q0 137 -38 244t-120 168.5t-214 61.5q-189 0 -286.5 -126t-97.5 -348zM537 1241v19q15 39 31 87.5t30 101t25 104.5t17 98h109v-20q-10 -56 -34.5 -126.5t-54 -139.5t-57.5 -124h-66z" />
    <glyph glyph-name="upsilontonos" unicode="&#x3cd;" horiz-adv-x="1218" 
d="M602 -20q-152 0 -248 59.5t-142 172t-46 270.5v605h100v-598q0 -212 86.5 -317t257.5 -105q186 0 280 132t94 402q0 130 -14.5 249t-47.5 237h103q21 -79 35 -156.5t21 -159.5t7 -173q0 -310 -122.5 -464t-363.5 -154zM543 1241v19q15 39 31 87.5t30 101t25 104.5t17 98
h109v-20q-10 -56 -34.5 -126.5t-54 -139.5t-57.5 -124h-66z" />
    <glyph glyph-name="omegatonos" unicode="&#x3ce;" horiz-adv-x="1503" 
d="M1258 1087q41 -90 69.5 -179.5t43.5 -184.5t15 -202q0 -149 -36 -272t-115 -196t-209 -73q-112 0 -178.5 53t-93.5 146h-6q-26 -93 -96.5 -146t-175.5 -53q-113 0 -193.5 62.5t-123 183.5t-42.5 295q0 109 15 203t43 182.5t70 180.5h103q-63 -141 -96 -274.5t-33 -292.5
q0 -227 69 -339.5t196 -112.5q73 0 121.5 35.5t73 102.5t24.5 161v330h98v-330q0 -98 24.5 -164.5t72.5 -100.5t120 -34q89 0 147.5 52.5t88.5 153.5t30 246q0 158 -32.5 293t-96.5 274h103zM689 1241v19q15 39 31 87.5t30 101t25 104.5t17 98h109v-20q-10 -56 -34.5 -126.5
t-54 -139.5t-57.5 -124h-66z" />
    <glyph glyph-name="uni03D1" unicode="&#x3d1;" horiz-adv-x="1188" 
d="M533 1579q97 0 177.5 -37t142.5 -113.5t103.5 -195t59.5 -280.5h142v-88h-135q2 -24 3 -53t1 -55q0 -161 -27.5 -302t-87.5 -247.5t-157 -167t-234 -60.5q-82 0 -145.5 24t-107.5 69t-66 108t-22 140q0 61 8 124t16 120t8 98q0 60 -24.5 84t-63.5 24q-25 0 -48.5 -6.5
t-41.5 -15.5l-24 75q29 15 64.5 23.5t76.5 8.5q77 0 119 -45.5t42 -130.5q0 -53 -8 -112.5t-16.5 -121t-8.5 -121.5q0 -125 66.5 -192t180.5 -67q134 0 222 77.5t131.5 231t43.5 381.5q0 28 -1 56.5t-3 52.5q-236 1 -392 51.5t-233 146t-77 227.5q0 82 33.5 147t104 103.5
t178.5 38.5zM530 1492q-107 0 -160 -56t-53 -150q0 -105 65 -179.5t197.5 -113.5t332.5 -40q-13 127 -45 227t-81 169.5t-113.5 106t-142.5 36.5z" />
    <glyph glyph-name="uni03D2" unicode="&#x3d2;" horiz-adv-x="1103" 
d="M542 658q42 107 88 214.5t90.5 204t83 170t64.5 113.5q23 35 48 60.5t57 40t73 14.5q15 0 31 -2.5t30 -8.5v-85q-12 3 -25 4.5t-24 1.5q-32 0 -59 -19.5t-56 -66.5q-30 -48 -69.5 -122t-85.5 -171t-95.5 -212t-98.5 -244v-550h-104v557l-490 905h114z" />
    <glyph glyph-name="uni03D6" unicode="&#x3d6;" horiz-adv-x="1587" 
d="M1520 1087v-88h-238q34 -72 63 -154.5t46.5 -175t17.5 -197.5q0 -140 -35 -251.5t-113.5 -176t-208.5 -64.5q-111 0 -179.5 53t-96.5 146h-5q-27 -93 -98.5 -146t-176.5 -53q-169 0 -262.5 121.5t-93.5 370.5q0 106 18.5 198.5t49 174t66.5 154.5h-254v56l156 32h1344z
M1180 999h-805q-33 -72 -63.5 -154t-50 -174t-19.5 -195q0 -214 67.5 -311t194.5 -97q108 0 165 79t57 220v282h99v-282q0 -98 25.5 -164.5t75 -100.5t121.5 -34q132 0 196 102t64 306q0 103 -17.5 195t-46.5 174t-63 154z" />
    <glyph glyph-name="uni0400" unicode="&#x400;" horiz-adv-x="1131" 
d="M1005 0h-799v1462h799v-93h-696v-554h657v-93h-657v-629h696v-93zM492 1944q27 -45 70.5 -102.5t92 -113t89.5 -95.5v-17h-73q-39 32 -81 72t-83 83t-75.5 83.5t-58.5 72.5v17h119z" />
    <glyph glyph-name="uni0401" unicode="&#x401;" horiz-adv-x="1131" 
d="M1005 0h-799v1462h799v-93h-696v-554h657v-93h-657v-629h696v-93zM373 1766q0 35 16.5 56t48.5 21q36 0 52 -21t16 -56q0 -36 -16 -57t-52 -21q-32 0 -48.5 21t-16.5 57zM754 1766q0 35 16.5 56t48.5 21q35 0 51.5 -21t16.5 -56q0 -36 -16.5 -57t-51.5 -21
q-32 0 -48.5 21t-16.5 57z" />
    <glyph glyph-name="uni0402" unicode="&#x402;" horiz-adv-x="1426" 
d="M914 -20q-47 0 -82 5t-58 13v94q29 -9 63 -14t76 -5q73 0 127 32t84.5 95.5t30.5 155.5v151q0 145 -68 212t-226 67h-413v-786h-102v1369h-336v93h954v-93h-516v-490h430q189 0 283.5 -90t94.5 -272v-157q0 -178 -92 -279t-250 -101z" />
    <glyph glyph-name="uni0403" unicode="&#x403;" horiz-adv-x="1028" 
d="M1007 1462v-94h-698v-1368h-103v1462h801zM896 1944v-17q-24 -32 -59 -72.5t-76 -83.5t-83 -83t-81 -72h-72v17q40 40 88 95.5t91.5 113t71.5 102.5h120z" />
    <glyph glyph-name="uni0404" unicode="&#x404;" horiz-adv-x="1272" 
d="M831 1390q-134 0 -240 -41.5t-182 -119.5t-120 -186.5t-52 -241.5h780v-92h-782q3 -147 40 -264.5t108.5 -200.5t177.5 -127.5t246 -44.5q111 0 202.5 16.5t169.5 42.5v-90q-72 -27 -167 -44t-214 -17q-225 0 -374 94.5t-223 264.5t-74 396q0 164 47 301t137.5 237.5
t222 155.5t298.5 55q113 0 207 -21t179 -61l-41 -91q-82 43 -168 61t-178 18z" />
    <glyph glyph-name="uni0405" unicode="&#x405;" horiz-adv-x="1117" 
d="M1011 377q0 -131 -66 -219.5t-179 -133t-256 -44.5q-89 0 -161.5 8.5t-131 22.5t-106.5 32v103q78 -30 180.5 -52.5t223.5 -22.5q114 0 202.5 33t139.5 100t51 169q0 90 -42.5 147.5t-127.5 99t-214 84.5q-90 31 -163.5 65.5t-125.5 80t-79.5 110t-27.5 152.5
q0 121 61.5 203.5t167 125t237.5 42.5q105 0 199.5 -19.5t182.5 -58.5l-36 -89q-88 38 -176 56t-174 18q-103 0 -183.5 -30.5t-127.5 -91.5t-47 -154q0 -96 43.5 -155t124 -98t190.5 -76q130 -44 224 -92.5t145.5 -122.5t51.5 -193z" />
    <glyph glyph-name="uni0406" unicode="&#x406;" horiz-adv-x="516" 
d="M206 0v1462h103v-1462h-103z" />
    <glyph glyph-name="uni0407" unicode="&#x407;" horiz-adv-x="516" 
d="M206 0v1462h103v-1462h-103zM3 1766q0 35 16.5 56t48.5 21q36 0 52 -21t16 -56q0 -36 -16 -57t-52 -21q-32 0 -48.5 21t-16.5 57zM384 1766q0 35 16.5 56t48.5 21q35 0 51.5 -21t16.5 -56q0 -36 -16.5 -57t-51.5 -21q-32 0 -48.5 21t-16.5 57z" />
    <glyph glyph-name="uni0408" unicode="&#x408;" horiz-adv-x="505" 
d="M-27 -368q-54 0 -93 7t-65 18v94q29 -11 70 -18t86 -7q81 0 133 32t77 95t25 156v1453h103v-1451q0 -116 -36.5 -201.5t-110.5 -131.5t-189 -46z" />
    <glyph glyph-name="uni0409" unicode="&#x409;" horiz-adv-x="1907" 
d="M111 -23q-36 0 -64 6t-51 15v91q23 -9 48.5 -15.5t58.5 -6.5q70 0 112.5 54t69 147t47.5 209q21 115 40.5 240t36.5 253t32.5 253t28.5 239h601v-642h224q173 0 286.5 -42.5t169.5 -131t56 -225.5q0 -204 -122.5 -312.5t-363.5 -108.5h-352v1369h-411q-9 -82 -20 -174
t-23 -188.5t-26 -192.5t-29 -188t-31 -174q-26 -141 -62 -248t-96 -167t-160 -60zM1071 91h232q203 0 300.5 79.5t97.5 250.5q0 119 -49 186t-143 94t-229 27h-209v-637z" />
    <glyph glyph-name="uni040A" unicode="&#x40a;" horiz-adv-x="1961" 
d="M206 0v1462h103v-642h713v642h104v-642h223q173 0 286.5 -42.5t169.5 -131t56 -225.5q0 -204 -122.5 -312.5t-362.5 -108.5h-354v727h-713v-727h-103zM1126 91h232q202 0 299.5 79.5t97.5 250.5q0 119 -49 186t-143 94t-228 27h-209v-637z" />
    <glyph glyph-name="uni040B" unicode="&#x40b;" horiz-adv-x="1429" 
d="M990 1462v-94h-542v-490h451q182 0 270.5 -85t88.5 -273v-520h-102v509q0 147 -62 211.5t-210 64.5h-436v-785h-102v1368h-336v94h980z" />
    <glyph glyph-name="uni040C" unicode="&#x40c;" horiz-adv-x="1171" 
d="M1163 0h-131l-723 745v-745h-103v1462h103v-708l702 708h130l-705 -710zM919 1944v-17q-24 -32 -59 -72.5t-76 -83.5t-83 -83t-81 -72h-72v17q40 40 88 95.5t91.5 113t71.5 102.5h120z" />
    <glyph glyph-name="uni040D" unicode="&#x40d;" horiz-adv-x="1477" 
d="M207 1462h98v-1042q0 -35 -0.5 -70.5t-1.5 -69t-2 -64t-3 -56.5h6l861 1302h105v-1462h-98v1025q0 41 1 80t2 75t2.5 67.5t2.5 57.5h-6l-860 -1305h-107v1462zM609 1944q27 -45 70.5 -102.5t92 -113t89.5 -95.5v-17h-73q-39 32 -81 72t-83 83t-75.5 83.5t-58.5 72.5v17
h119z" />
    <glyph glyph-name="uni040E" unicode="&#x40e;" horiz-adv-x="1204" 
d="M1201 1462l-514 -1128q-49 -107 -103.5 -187t-130.5 -123.5t-190 -43.5q-60 0 -103 9t-76 21v104q37 -18 80 -28t93 -10q85 0 143.5 34t102.5 99.5t85 160.5l-571 1092h113l453 -873q12 -22 21.5 -42.5t18.5 -41t18 -43.5h4q8 19 17 40.5t18 42.5t17 38l394 879h110z
M941 1897q-6 -96 -45.5 -158t-111.5 -92.5t-174 -30.5q-103 0 -172.5 29.5t-107 92t-42.5 159.5h96q10 -110 63.5 -157.5t163.5 -47.5q107 0 165.5 47t67.5 158h97z" />
    <glyph glyph-name="uni040F" unicode="&#x40f;" horiz-adv-x="1463" 
d="M1254 0h-472v-368h-105v368h-471v1462h103v-1368h844v1368h101v-1462z" />
    <glyph glyph-name="uni0410" unicode="&#x410;" horiz-adv-x="1230" 
d="M1121 0l-199 517h-614l-203 -517h-105l575 1467h94l560 -1467h-108zM889 610l-202 548q-8 21 -19.5 54t-24 70t-24.5 70q-10 -35 -22 -70t-23 -67.5t-21 -58.5l-210 -546h546z" />
    <glyph glyph-name="uni0411" unicode="&#x411;" horiz-adv-x="1219" 
d="M206 0v1462h817v-93h-714v-549h273q174 0 286 -42.5t166.5 -130.5t54.5 -226q0 -206 -119.5 -313.5t-363.5 -107.5h-400zM309 91h282q204 0 297.5 79.5t93.5 250.5q0 119 -47 186t-139.5 94t-228.5 27h-258v-637z" />
    <glyph glyph-name="uni0412" unicode="&#x412;" horiz-adv-x="1284" 
d="M206 1462h401q271 0 396.5 -85t125.5 -271q0 -84 -32.5 -153t-96 -115.5t-156.5 -63.5v-7q111 -17 183.5 -61.5t108 -117t35.5 -172.5q0 -144 -65.5 -236t-181.5 -136t-268 -44h-450v1462zM309 812h324q206 0 298 72t92 213q0 146 -99 210t-317 64h-298v-559zM309 722
v-631h344q203 0 306 82.5t103 246.5q0 108 -48 174.5t-143.5 97t-237.5 30.5h-324z" />
    <glyph glyph-name="uni0413" unicode="&#x413;" horiz-adv-x="1028" 
d="M1007 1462v-94h-698v-1368h-103v1462h801z" />
    <glyph glyph-name="uni0414" unicode="&#x414;" horiz-adv-x="1337" 
d="M1128 1462v-1368h149v-462h-100v368h-1063v-368h-100v462h106q77 132 142.5 299.5t116.5 351.5t82.5 368t39.5 349h627zM1025 1368h-432q-9 -148 -40 -317.5t-79.5 -343t-110.5 -331.5t-132 -282h794v1274z" />
    <glyph glyph-name="uni0415" unicode="&#x415;" horiz-adv-x="1131" 
d="M1005 0h-799v1462h799v-93h-696v-554h657v-93h-657v-629h696v-93z" />
    <glyph glyph-name="uni0416" unicode="&#x416;" horiz-adv-x="1598" 
d="M635 750l-595 712h121l587 -708v708h99v-708l589 708h120l-596 -712l623 -750h-123l-613 741v-741h-99v741l-612 -741h-123z" />
    <glyph glyph-name="uni0417" unicode="&#x417;" horiz-adv-x="1145" 
d="M1003 1116q0 -152 -82.5 -236t-214.5 -113v-5q157 -31 241 -118t84 -240q0 -129 -60 -224t-178 -147.5t-290 -52.5q-122 0 -230.5 21.5t-190.5 64.5v101q57 -30 127 -52t145 -34.5t148 -12.5q204 0 313 88.5t109 247.5q0 161 -114.5 235.5t-339.5 74.5h-217v90h225
q141 0 233.5 36t138.5 104.5t46 164.5q0 134 -92 209.5t-245 75.5q-136 0 -229 -38.5t-181 -98.5l-53 73q60 43 129 78t152 55t182 20q140 0 239.5 -46t152 -128.5t52.5 -192.5z" />
    <glyph glyph-name="uni0418" unicode="&#x418;" horiz-adv-x="1477" 
d="M207 1462h98v-1042q0 -35 -0.5 -70.5t-1.5 -69t-2 -64t-3 -56.5h6l861 1302h105v-1462h-98v1025q0 41 1 80t2 75t2.5 67.5t2.5 57.5h-6l-860 -1305h-107v1462z" />
    <glyph glyph-name="uni0419" unicode="&#x419;" horiz-adv-x="1477" 
d="M207 1462h98v-1042q0 -35 -0.5 -70.5t-1.5 -69t-2 -64t-3 -56.5h6l861 1302h105v-1462h-98v1025q0 41 1 80t2 75t2.5 67.5t2.5 57.5h-6l-860 -1305h-107v1462zM1079 1897q-6 -96 -45.5 -158t-111.5 -92.5t-174 -30.5q-103 0 -172.5 29.5t-107 92t-42.5 159.5h96
q10 -110 63.5 -157.5t163.5 -47.5q107 0 165.5 47t67.5 158h97z" />
    <glyph glyph-name="uni041A" unicode="&#x41a;" horiz-adv-x="1171" 
d="M1163 0h-131l-723 745v-745h-103v1462h103v-708l702 708h130l-705 -710z" />
    <glyph glyph-name="uni041B" unicode="&#x41b;" horiz-adv-x="1395" 
d="M1188 0h-102v1369h-529q-11 -103 -25 -220t-30.5 -238.5t-34 -238.5t-38.5 -220q-26 -141 -62 -248t-96 -167t-160 -60q-36 0 -64.5 6t-50.5 15v91q23 -9 48.5 -15.5t58.5 -6.5q70 0 112.5 54.5t69.5 147t47 207.5q21 114 40 238.5t36 253.5t33 254.5t29 239.5h718v-1462
z" />
    <glyph glyph-name="uni041C" unicode="&#x41c;" horiz-adv-x="1768" 
d="M839 0l-537 1350h-5q2 -37 3.5 -77.5t2.5 -84.5t1 -92v-1096h-98v1462h156l518 -1302h6l522 1302h152v-1462h-101v1108q0 39 1 80t2.5 81.5t3.5 78.5h-6l-539 -1348h-82z" />
    <glyph glyph-name="uni041D" unicode="&#x41d;" horiz-adv-x="1473" 
d="M1266 0h-103v720h-854v-720h-103v1462h103v-648h854v648h103v-1462z" />
    <glyph glyph-name="uni041E" unicode="&#x41e;" horiz-adv-x="1565" 
d="M1436 733q0 -167 -41 -305t-123 -238t-204.5 -155t-285.5 -55q-164 0 -287 55t-204.5 155.5t-122.5 239t-41 305.5q0 222 75.5 391t223 264t364.5 95q208 0 352.5 -90.5t219 -259t74.5 -402.5zM235 734q0 -196 59 -345.5t181 -233.5t308 -84q188 0 309 83t179 232t58 347
q0 313 -136.5 486t-402.5 173q-187 0 -310.5 -83t-184 -231t-60.5 -344z" />
    <glyph glyph-name="uni041F" unicode="&#x41f;" horiz-adv-x="1463" 
d="M206 0v1462h1049v-1462h-101v1369h-845v-1369h-103z" />
    <glyph glyph-name="uni0420" unicode="&#x420;" horiz-adv-x="1198" 
d="M565 1462q261 0 391 -100t130 -311q0 -108 -34.5 -191.5t-103.5 -140.5t-172.5 -86t-241.5 -29h-225v-604h-103v1462h359zM554 1371h-245v-676h215q142 0 244 32.5t157 109.5t55 210q0 169 -104 246.5t-322 77.5z" />
    <glyph glyph-name="uni0421" unicode="&#x421;" horiz-adv-x="1271" 
d="M827 1390q-140 0 -250 -47.5t-186 -134.5t-116 -207.5t-40 -265.5q0 -200 63 -349.5t189.5 -231.5t315.5 -82q110 0 200 16.5t167 42.5v-90q-73 -27 -164.5 -44t-212.5 -17q-219 0 -367.5 94t-223.5 264t-75 397q0 163 47 299.5t137.5 237t220.5 156t296 55.5
q105 0 200.5 -20.5t179.5 -59.5l-40 -90q-81 40 -166 58.5t-175 18.5z" />
    <glyph glyph-name="uni0422" unicode="&#x422;" horiz-adv-x="1074" 
d="M588 0h-104v1369h-474v93h1052v-93h-474v-1369z" />
    <glyph glyph-name="uni0423" unicode="&#x423;" horiz-adv-x="1204" 
d="M1201 1462l-514 -1128q-49 -107 -103.5 -187t-130.5 -123.5t-190 -43.5q-60 0 -103 9t-76 21v104q37 -18 80 -28t93 -10q85 0 143.5 34t102.5 99.5t85 160.5l-571 1092h113l453 -873q12 -22 21.5 -42.5t18.5 -41t18 -43.5h4q8 19 17 40.5t18 42.5t17 38l394 879h110z" />
    <glyph glyph-name="uni0424" unicode="&#x424;" horiz-adv-x="1561" 
d="M831 1483v-179q204 -3 342 -64.5t208.5 -179t70.5 -292.5q0 -128 -40 -230.5t-118 -176.5t-194 -114.5t-269 -42.5v-224h-101v224q-154 2 -270 42t-194 112.5t-117 174t-39 227.5q0 124 37.5 223t114.5 169.5t193.5 109.5t274.5 42v179h101zM730 1213
q-171 -3 -285.5 -54.5t-172.5 -151t-58 -246.5q0 -154 60 -256.5t175 -155.5t281 -57v921zM831 1213v-921q167 4 282 58.5t174.5 159t59.5 259.5q0 149 -56 246t-170 146t-290 52z" />
    <glyph glyph-name="uni0425" unicode="&#x425;" horiz-adv-x="1101" 
d="M1102 0h-118l-433 686l-439 -686h-113l492 760l-448 702h117l395 -629l398 629h113l-451 -701z" />
    <glyph glyph-name="uni0426" unicode="&#x426;" horiz-adv-x="1473" 
d="M1411 93v-461h-98v368h-1107v1462h103v-1368h845v1368h101v-1369h156z" />
    <glyph glyph-name="uni0427" unicode="&#x427;" horiz-adv-x="1372" 
d="M1164 0h-102v634q-107 -45 -214.5 -73.5t-246.5 -28.5q-210 0 -314.5 94.5t-104.5 269.5v566h102v-549q0 -139 75.5 -213.5t250.5 -74.5q132 0 237 26t215 73v738h102v-1462z" />
    <glyph glyph-name="uni0428" unicode="&#x428;" horiz-adv-x="2060" 
d="M1854 0h-1648v1462h103v-1368h669v1368h103v-1368h670v1368h103v-1462z" />
    <glyph glyph-name="uni0429" unicode="&#x429;" horiz-adv-x="2078" 
d="M2009 93v-461h-99v368h-1704v1462h103v-1368h664v1368h103v-1368h664v1368h103v-1369h166z" />
    <glyph glyph-name="uni042A" unicode="&#x42a;" horiz-adv-x="1347" 
d="M355 0v1369h-345v93h447v-642h279q169 0 280 -43t166 -131t55 -225q0 -204 -120.5 -312.5t-357.5 -108.5h-404zM457 91h286q197 0 293 79.5t96 250.5q0 119 -48.5 186t-140 94t-222.5 27h-264v-637z" />
    <glyph glyph-name="uni042B" unicode="&#x42b;" horiz-adv-x="1642" 
d="M206 0v1462h103v-642h276q168 0 279.5 -43t166.5 -131t55 -225q0 -204 -120.5 -312.5t-357.5 -108.5h-402zM309 91h284q197 0 292 79.5t95 250.5q0 119 -48 186t-139 93.5t-222 26.5h-262v-636zM1292 0v1462h103v-1462h-103z" />
    <glyph glyph-name="uni042C" unicode="&#x42c;" horiz-adv-x="1219" 
d="M206 0v1462h103v-642h294q169 0 281 -43t168.5 -131t56.5 -225q0 -204 -123 -312.5t-360 -108.5h-420zM309 91h302q197 0 294.5 79.5t97.5 250.5q0 119 -49.5 186t-142 94t-222.5 27h-280v-637z" />
    <glyph glyph-name="uni042D" unicode="&#x42d;" horiz-adv-x="1266" 
d="M470 1390q-94 0 -186 -20t-172 -57l-41 90q84 38 188 59t212 21q168 0 293.5 -51t208.5 -147t124.5 -231.5t41.5 -305.5q0 -231 -80 -403.5t-234.5 -268.5t-379.5 -96q-124 0 -215.5 15.5t-166.5 43.5v93q79 -25 170 -42.5t201 -17.5q143 0 253.5 44.5t186.5 129
t115.5 202.5t41.5 265h-779v93h778q-5 137 -43.5 245t-109 184t-172.5 115.5t-235 39.5z" />
    <glyph glyph-name="uni042E" unicode="&#x42e;" horiz-adv-x="2106" 
d="M1978 733q0 -166 -38 -303.5t-116.5 -238.5t-196.5 -156t-278 -55q-208 0 -345.5 94t-207 260.5t-73.5 384.5h-414v-719h-103v1462h103v-650h415q9 201 82 352.5t209.5 236t335.5 84.5q208 0 347 -94.5t209.5 -263.5t70.5 -394zM830 751q0 -201 54.5 -354t169.5 -239.5
t295 -86.5q182 0 297.5 84t170 233.5t54.5 344.5q0 194 -54.5 342.5t-169 232.5t-296.5 84q-178 0 -293.5 -80t-171.5 -224.5t-56 -336.5z" />
    <glyph glyph-name="uni042F" unicode="&#x42f;" horiz-adv-x="1230" 
d="M560 636l-387 -636h-123l404 656q-90 20 -162 65t-114 124.5t-42 201.5q0 211 136.5 313t394.5 102h356v-1462h-102v636h-361zM921 1371h-246q-142 0 -238.5 -33t-146 -104.5t-49.5 -187.5q0 -161 101 -239.5t290 -78.5h289v643z" />
    <glyph glyph-name="uni0430" unicode="&#x430;" horiz-adv-x="1085" 
d="M560 1106q179 0 268 -90t89 -287v-729h-78l-18 190h-6q-35 -61 -85 -108.5t-122.5 -74.5t-176.5 -27q-105 0 -179.5 35t-115 102t-40.5 163q0 162 134 246.5t385 95.5l202 10v79q0 167 -66 238t-195 71q-84 0 -161.5 -21.5t-157.5 -61.5l-32 84q78 37 167.5 61t187.5 24z
M816 553l-190 -8q-207 -10 -315 -74t-108 -192q0 -103 64.5 -158t179.5 -55q179 0 273.5 102t95.5 278v107z" />
    <glyph glyph-name="uni0431" unicode="&#x431;" horiz-adv-x="1176" 
d="M121 653q0 205 32.5 353t97 244.5t160.5 146.5q107 69 257.5 106t349.5 60l16 -90q-104 -12 -192.5 -27t-161.5 -33.5t-130.5 -41.5t-99.5 -52q-66 -40 -113 -112.5t-75 -178.5t-35 -248h8q37 67 96.5 119t137.5 82.5t171 30.5q137 0 230.5 -57.5t141.5 -168t48 -268.5
q0 -162 -52 -283.5t-155.5 -188t-258.5 -66.5q-126 0 -216 51.5t-146.5 143t-83.5 214t-27 264.5zM602 68q120 0 198 53.5t116 153t38 236.5q0 203 -83 307.5t-243 104.5q-93 0 -169 -34t-134.5 -93.5t-100.5 -136.5q0 -111 17 -216.5t59 -190.5t115.5 -134.5t186.5 -49.5z
" />
    <glyph glyph-name="uni0432" unicode="&#x432;" horiz-adv-x="1159" 
d="M995 822q0 -103 -53.5 -162t-141.5 -80v-6q107 -16 172.5 -80.5t65.5 -184.5q0 -95 -42 -164t-128.5 -107t-221.5 -38h-465v1087h453q120 0 200 -30.5t120.5 -89t40.5 -145.5zM933 309q0 117 -79 168t-232 51h-339v-442h345q153 0 229 54.5t76 168.5zM892 814
q0 86 -61 135.5t-207 49.5h-341v-382h331q144 0 211 49.5t67 147.5z" />
    <glyph glyph-name="uni0433" unicode="&#x433;" horiz-adv-x="863" 
d="M821 1087v-89h-538v-998h-102v1087h640z" />
    <glyph glyph-name="uni0434" unicode="&#x434;" horiz-adv-x="1118" 
d="M924 1087v-998h146v-457h-99v368h-832v-368h-98v457h73q92 127 154 283t94.5 336.5t34.5 378.5h527zM825 1002h-336q-8 -179 -40 -342.5t-88 -307t-136 -263.5h600v913z" />
    <glyph glyph-name="uni0435" unicode="&#x435;" horiz-adv-x="1125" 
d="M592 1108q139 0 231.5 -65t138 -178t45.5 -259v-73h-785q0 -224 103.5 -344t296.5 -120q101 0 175.5 16.5t165.5 56.5v-93q-80 -36 -160 -52.5t-184 -16.5q-165 0 -276.5 68.5t-168 193.5t-56.5 292q0 163 54.5 293t160 205.5t259.5 75.5zM591 1021q-156 0 -252.5 -103.5
t-113.5 -298.5h677q0 119 -34 210t-102.5 141.5t-174.5 50.5z" />
    <glyph glyph-name="uni0436" unicode="&#x436;" horiz-adv-x="1361" 
d="M1310 1087l-473 -531l510 -556h-122l-498 551v-551h-96v551l-498 -551h-122l510 556l-475 531h118l467 -528v528h96v-528l467 528h116z" />
    <glyph glyph-name="uni0437" unicode="&#x437;" horiz-adv-x="926" 
d="M430 1108q112 0 191 -33t120.5 -95.5t41.5 -151.5q0 -94 -50 -155.5t-141 -87.5v-6q76 -17 127.5 -54t77.5 -92.5t26 -127.5q0 -100 -50.5 -173t-143.5 -112.5t-223 -39.5q-72 0 -136 9t-115.5 25.5t-89.5 36.5v99q73 -39 158.5 -61t182.5 -22q92 0 163 27t112 81t41 136
q0 78 -37 126.5t-109 71t-178 22.5h-146v87h135q136 0 217 49.5t81 154.5q0 97 -66.5 147.5t-192.5 50.5q-89 0 -159 -20.5t-144 -54.5l-37 85q76 35 159.5 56.5t184.5 21.5z" />
    <glyph glyph-name="uni0438" unicode="&#x438;" horiz-adv-x="1229" 
d="M279 1087v-781q0 -23 -0.5 -47t-1 -49t-1.5 -49t-3 -47l649 973h124v-1087h-96v788q0 30 0.5 62.5t1.5 65t2 61.5l-652 -977h-121v1087h98z" />
    <glyph glyph-name="uni0439" unicode="&#x439;" horiz-adv-x="1229" 
d="M279 1087v-781q0 -23 -0.5 -47t-1 -49t-1.5 -49t-3 -47l649 973h124v-1087h-96v788q0 30 0.5 62.5t1.5 65t2 61.5l-652 -977h-121v1087h98zM943 1522q-6 -96 -45.5 -158t-111.5 -92.5t-174 -30.5q-103 0 -172.5 29.5t-107 92t-42.5 159.5h96q10 -110 63.5 -157.5
t163.5 -47.5q107 0 165.5 47t67.5 158h97z" />
    <glyph glyph-name="uni043A" unicode="&#x43a;" horiz-adv-x="940" 
d="M773 1087h117l-492 -528l522 -559h-125l-512 551v-551h-102v1087h102v-528z" />
    <glyph glyph-name="uni043B" unicode="&#x43b;" horiz-adv-x="1116" 
d="M934 0h-101v999h-380q-19 -257 -45 -447.5t-67 -315t-102 -185.5t-151 -61q-26 0 -46 2.5t-32 6.5v82q12 -3 27 -4.5t37 -1.5q51 0 91 38.5t71.5 117.5t54.5 199.5t40.5 284.5t31.5 372h571v-1087z" />
    <glyph glyph-name="uni043C" unicode="&#x43c;" horiz-adv-x="1382" 
d="M1239 1087v-1087h-94v782q0 44 1.5 84t3.5 86h-5l-394 -952h-88l-391 953h-5q2 -46 3 -86.5t1 -90.5v-776h-95v1087h139l393 -960l395 960h136z" />
    <glyph glyph-name="uni043D" unicode="&#x43d;" horiz-adv-x="1251" 
d="M283 1087v-476h685v476h101v-1087h-101v522h-685v-522h-102v1087h102z" />
    <glyph glyph-name="uni043E" unicode="&#x43e;" horiz-adv-x="1201" 
d="M1082 545q0 -126 -31 -229.5t-92 -178.5t-151.5 -116t-210.5 -41q-114 0 -203 40.5t-150.5 115.5t-93.5 178.5t-32 230.5q0 175 58.5 301.5t168 194t262.5 67.5q158 0 263.5 -71.5t158.5 -198.5t53 -293zM222 545q0 -143 41 -250t124.5 -167t211.5 -60q131 0 215 60
t124 168t40 249q0 137 -38 244t-120 168.5t-214 61.5q-189 0 -286.5 -126t-97.5 -348z" />
    <glyph glyph-name="uni043F" unicode="&#x43f;" horiz-adv-x="1231" 
d="M1048 1087v-1087h-101v998h-664v-998h-102v1087h867z" />
    <glyph glyph-name="uni0440" unicode="&#x440;" horiz-adv-x="1219" 
d="M662 1108q210 0 325.5 -141t115.5 -416q0 -184 -55 -311.5t-156.5 -193.5t-243.5 -66q-98 0 -170.5 29.5t-120.5 80t-74 111.5h-7q3 -57 5 -119t2 -117v-446h-102v1568h84l12 -217h6q27 62 76 117t124 88t179 33zM649 1019q-123 0 -204.5 -53.5t-121 -156t-40.5 -250.5
v-17q0 -159 39.5 -264.5t119 -157.5t197.5 -52q116 0 196 57t122 165t42 262q0 229 -87.5 348t-262.5 119z" />
    <glyph glyph-name="uni0441" unicode="&#x441;" horiz-adv-x="973" 
d="M616 -20q-162 0 -273.5 67.5t-168 193t-56.5 297.5q0 179 65 306.5t183 195.5t277 68q78 0 145 -14t121 -39l-27 -89q-56 25 -119 38t-121 13q-134 0 -227.5 -58.5t-143 -166t-49.5 -253.5q0 -137 42 -242.5t129 -166t223 -60.5q79 0 150.5 16t130.5 41v-92
q-53 -24 -122.5 -39.5t-158.5 -15.5z" />
    <glyph glyph-name="uni0442" unicode="&#x442;" horiz-adv-x="914" 
d="M873 998h-368v-998h-99v998h-366v89h833v-89z" />
    <glyph glyph-name="uni0443" unicode="&#x443;" horiz-adv-x="940" 
d="M1 1087h107l264 -690q24 -61 42.5 -112.5t32.5 -94t23 -77.5h6q15 46 40 118.5t57 161.5l261 694h108l-496 -1291q-36 -94 -79 -159.5t-101 -99t-140 -33.5q-37 0 -67 5.5t-58 14.5v87q26 -8 53.5 -13.5t60.5 -5.5q57 0 98.5 23.5t74.5 72.5t62 125l74 193z" />
    <glyph glyph-name="uni0444" unicode="&#x444;" horiz-adv-x="1372" 
d="M734 1556v-452q163 -10 279.5 -79.5t178.5 -191t62 -288.5q0 -159 -61 -281.5t-177.5 -195.5t-281.5 -84v-476h-98v476q-163 8 -279.5 78t-178.5 193t-62 290q0 166 61.5 287.5t178 191.5t282.5 80v452h96zM638 1016q-138 -7 -231 -66t-139.5 -162t-46.5 -243
q0 -144 47 -247.5t140 -161.5t230 -65v945zM734 1015v-944q136 9 228.5 70t140 164.5t47.5 239.5q0 213 -104.5 335t-311.5 135z" />
    <glyph glyph-name="uni0445" unicode="&#x445;" horiz-adv-x="1019" 
d="M444 559l-379 528h118l322 -459l322 459h117l-376 -528l400 -559h-119l-344 488l-342 -488h-116z" />
    <glyph glyph-name="uni0446" unicode="&#x446;" horiz-adv-x="1223" 
d="M1173 -368h-99v368h-893v1087h102v-998h644v998h101v-999h145v-456z" />
    <glyph glyph-name="uni0447" unicode="&#x447;" horiz-adv-x="1187" 
d="M265 1087v-365q0 -137 68 -199.5t199 -62.5q112 0 201.5 35t171.5 94v498h101v-1087h-101v501q-89 -60 -178.5 -94t-210.5 -34q-173 0 -262.5 88.5t-89.5 248.5v377h101z" />
    <glyph glyph-name="uni0448" unicode="&#x448;" horiz-adv-x="1744" 
d="M1562 1087v-1087h-1383v1087h101v-998h540v998h101v-998h540v998h101z" />
    <glyph glyph-name="uni0449" unicode="&#x449;" horiz-adv-x="1757" 
d="M1561 1087v-999h147v-456h-101v368h-1428v1087h101v-998h540v998h101v-998h540v998h100z" />
    <glyph glyph-name="uni044A" unicode="&#x44a;" horiz-adv-x="1323" 
d="M471 1087v-458h379q131 0 215 -36t125 -104t41 -164q0 -102 -43 -174.5t-131.5 -111.5t-225.5 -39h-461v998h-329v89h430zM842 540h-371v-454h356q157 0 229.5 59.5t72.5 178.5q0 109 -70.5 162.5t-216.5 53.5z" />
    <glyph glyph-name="uni044B" unicode="&#x44b;" horiz-adv-x="1480" 
d="M181 0v1087h102v-458h372q128 0 209.5 -36t121 -104t39.5 -164q0 -102 -42 -174.5t-129 -111.5t-221 -39h-452zM283 86h339q155 0 228 59t73 179q0 109 -70.5 163t-212.5 54h-357v-455zM1198 0v1087h101v-1087h-101z" />
    <glyph glyph-name="uni044C" unicode="&#x44c;" horiz-adv-x="1166" 
d="M283 629h387q128 0 210.5 -36t123 -104t40.5 -164q0 -102 -42.5 -174.5t-130.5 -111.5t-222 -39h-468v1087h102v-458zM942 324q0 109 -72 163t-213 54h-374v-455h358q153 0 227 59.5t74 178.5z" />
    <glyph glyph-name="uni044D" unicode="&#x44d;" horiz-adv-x="1005" 
d="M371 -20q-89 0 -155.5 14.5t-120.5 39.5v93q61 -25 129.5 -41.5t147.5 -16.5q138 0 230 56t141 156.5t56 234.5h-628v87h627q-7 200 -106.5 307.5t-300.5 107.5q-58 0 -127.5 -13t-129.5 -39l-24 88q58 25 133 39.5t152 14.5q161 0 274.5 -61t174 -183t60.5 -308
q0 -172 -60 -302t-178.5 -202t-294.5 -72z" />
    <glyph glyph-name="uni044E" unicode="&#x44e;" horiz-adv-x="1634" 
d="M1516 545q0 -165 -49.5 -293t-148.5 -200t-249 -72q-141 0 -237.5 67.5t-147.5 189.5t-55 286h-349v-523h-101v1087h101v-475h350q9 138 59.5 250.5t146.5 179t239 66.5q152 0 249.5 -74t144.5 -201.5t47 -287.5zM733 545q0 -136 34 -244.5t108.5 -170.5t195.5 -62
q119 0 194.5 60t111 168t35.5 249q0 138 -35 245t-109.5 168t-194.5 61t-195 -61t-110 -168.5t-35 -244.5z" />
    <glyph glyph-name="uni044F" unicode="&#x44f;" horiz-adv-x="1084" 
d="M161 0h-121l328 468q-89 11 -152 48t-95.5 100t-32.5 153q0 160 101.5 239t262.5 79h449v-1087h-101v458h-326zM187 771q0 -113 70 -169t211 -56h332v453h-337q-136 0 -206 -60.5t-70 -167.5z" />
    <glyph glyph-name="uni0450" unicode="&#x450;" horiz-adv-x="1125" 
d="M592 1108q139 0 231.5 -65t138 -178t45.5 -259v-73h-785q0 -224 103.5 -344t296.5 -120q101 0 175.5 16.5t165.5 56.5v-93q-80 -36 -160 -52.5t-184 -16.5q-165 0 -276.5 68.5t-168 193.5t-56.5 292q0 163 54.5 293t160 205.5t259.5 75.5zM591 1021q-156 0 -252.5 -103.5
t-113.5 -298.5h677q0 119 -34 210t-102.5 141.5t-174.5 50.5zM440 1569q27 -45 70.5 -102.5t92 -113t89.5 -95.5v-17h-73q-39 32 -81 72t-83 83t-75.5 83.5t-58.5 72.5v17h119z" />
    <glyph glyph-name="uni0451" unicode="&#x451;" horiz-adv-x="1125" 
d="M592 1108q139 0 231.5 -65t138 -178t45.5 -259v-73h-785q0 -224 103.5 -344t296.5 -120q101 0 175.5 16.5t165.5 56.5v-93q-80 -36 -160 -52.5t-184 -16.5q-165 0 -276.5 68.5t-168 193.5t-56.5 292q0 163 54.5 293t160 205.5t259.5 75.5zM591 1021q-156 0 -252.5 -103.5
t-113.5 -298.5h677q0 119 -34 210t-102.5 141.5t-174.5 50.5zM320 1391q0 35 16.5 56t48.5 21q36 0 52 -21t16 -56q0 -36 -16 -57t-52 -21q-32 0 -48.5 21t-16.5 57zM701 1391q0 35 16.5 56t48.5 21q35 0 51.5 -21t16.5 -56q0 -36 -16.5 -57t-51.5 -21q-32 0 -48.5 21
t-16.5 57z" />
    <glyph glyph-name="uni0452" unicode="&#x452;" horiz-adv-x="1209" 
d="M798 -492q-41 0 -73 6.5t-56 16.5v88q28 -12 58 -17t62 -5q71 0 110 47t39 144v903q0 161 -74 237t-214 76q-119 0 -201.5 -46.5t-124.5 -139.5t-42 -234v-584h-102v1271h-152v82h152v203h101v-203h457v-82h-457v-239q0 -43 -1.5 -80.5t-3.5 -77.5h6q27 62 78 111.5
t125.5 78.5t172.5 29q124 0 208.5 -42.5t128.5 -130t44 -223.5v-911q0 -91 -30 -153t-84 -93.5t-127 -31.5z" />
    <glyph glyph-name="uni0453" unicode="&#x453;" horiz-adv-x="863" 
d="M821 1087v-89h-538v-998h-102v1087h640zM796 1569v-17q-24 -32 -59 -72.5t-76 -83.5t-83 -83t-81 -72h-72v17q40 40 88 95.5t91.5 113t71.5 102.5h120z" />
    <glyph glyph-name="uni0454" unicode="&#x454;" horiz-adv-x="993" 
d="M624 -20q-165 0 -278 67t-170.5 192.5t-57.5 298.5q0 180 66 307.5t185 195t279 67.5q78 0 146 -14t126 -39l-27 -88q-59 26 -123 38.5t-123 12.5q-126 0 -217.5 -50.5t-143.5 -143t-63 -221.5h627v-87h-629q4 -132 47 -232.5t131 -157.5t224 -57q81 0 153 16t133 41v-91
q-54 -24 -124.5 -39.5t-160.5 -15.5z" />
    <glyph glyph-name="uni0455" unicode="&#x455;" horiz-adv-x="954" 
d="M860 285q0 -97 -48.5 -165.5t-141.5 -104t-229 -35.5q-113 0 -202 20t-149 49v100q75 -37 166 -60t187 -23q168 0 242 57t74 156q0 65 -36.5 107.5t-104.5 73.5t-164 63q-100 34 -177.5 67.5t-121.5 89t-44 151.5q0 131 105 204t282 73q98 0 182.5 -18.5t153.5 -47.5
l-36 -86q-62 29 -143 47t-162 18q-133 0 -208 -47t-75 -138q0 -70 36 -109.5t103 -66t159 -58.5q95 -33 175.5 -69t128.5 -93t48 -155z" />
    <glyph glyph-name="uni0456" unicode="&#x456;" horiz-adv-x="463" 
d="M281 1087v-1087h-101v1087h101zM232 1489q38 0 56 -22.5t18 -60.5t-18 -60t-56 -22q-36 0 -54 22t-18 60t18 60.5t54 22.5z" />
    <glyph glyph-name="uni0457" unicode="&#x457;" horiz-adv-x="463" 
d="M281 0h-101v1087h101v-1087zM-26 1391q0 35 16.5 56t48.5 21q36 0 52 -21t16 -56q0 -36 -16 -57t-52 -21q-32 0 -48.5 21t-16.5 57zM355 1391q0 35 16.5 56t48.5 21q35 0 51.5 -21t16.5 -56q0 -36 -16.5 -57t-51.5 -21q-32 0 -48.5 21t-16.5 57z" />
    <glyph glyph-name="uni0458" unicode="&#x458;" horiz-adv-x="463" 
d="M31 -492q-44 0 -78 6.5t-59 16.5v87q31 -12 62.5 -16.5t66.5 -4.5q76 0 116.5 47t40.5 144v1299h101v-1302q0 -90 -30.5 -152t-86.5 -93.5t-133 -31.5zM160 1406q0 38 18 60.5t54 22.5q38 0 56 -22.5t18 -60.5t-18 -60t-56 -22q-36 0 -54 22t-18 60z" />
    <glyph glyph-name="uni0459" unicode="&#x459;" horiz-adv-x="1697" 
d="M883 1087v-458h321q128 0 210.5 -36t122 -104t39.5 -164q0 -102 -42.5 -174.5t-130 -111.5t-224.5 -39h-398v998h-329q-19 -257 -45 -447t-66.5 -314.5t-101.5 -185.5t-150 -61q-28 0 -47.5 2.5t-31.5 6.5v82q11 -3 26 -5t37 -2q51 0 91.5 38.5t71.5 117.5t54.5 200
t41 285t31.5 372h520zM1186 540h-303v-454h288q156 0 229.5 59.5t73.5 178.5q0 109 -71.5 162.5t-216.5 53.5z" />
    <glyph glyph-name="uni045A" unicode="&#x45a;" horiz-adv-x="1847" 
d="M1013 1087v-459h338q130 0 212.5 -36t122 -103.5t39.5 -163.5q0 -102 -42 -174.5t-130 -111.5t-224 -39h-419v538h-626v-538h-103v1087h103v-461h627v461h102zM1336 540h-325v-454h309q156 0 229.5 59.5t73.5 178.5q0 109 -71 162.5t-216 53.5z" />
    <glyph glyph-name="uni045B" unicode="&#x45b;" horiz-adv-x="1209" 
d="M281 1556v-203h473v-83h-473v-238q0 -43 -1.5 -80.5t-4.5 -77.5h7q27 62 77.5 111.5t125.5 78.5t173 29q123 0 207.5 -42.5t128.5 -130.5t44 -224v-696h-100v690q0 161 -74 237.5t-215 76.5q-120 0 -202 -46.5t-124 -139.5t-42 -234v-584h-101v1270h-152v83h152v203h101z
" />
    <glyph glyph-name="uni045C" unicode="&#x45c;" horiz-adv-x="940" 
d="M773 1087h117l-492 -528l522 -559h-125l-512 551v-551h-102v1087h102v-528zM802 1569v-17q-24 -32 -59 -72.5t-76 -83.5t-83 -83t-81 -72h-72v17q40 40 88 95.5t91.5 113t71.5 102.5h120z" />
    <glyph glyph-name="uni045D" unicode="&#x45d;" horiz-adv-x="1229" 
d="M279 1087v-781q0 -23 -0.5 -47t-1 -49t-1.5 -49t-3 -47l649 973h124v-1087h-96v788q0 30 0.5 62.5t1.5 65t2 61.5l-652 -977h-121v1087h98zM475 1569q27 -45 70.5 -102.5t92 -113t89.5 -95.5v-17h-73q-39 32 -81 72t-83 83t-75.5 83.5t-58.5 72.5v17h119z" />
    <glyph glyph-name="uni045E" unicode="&#x45e;" horiz-adv-x="940" 
d="M1 1087h107l264 -690q24 -61 42.5 -112.5t32.5 -94t23 -77.5h6q15 46 40 118.5t57 161.5l261 694h108l-496 -1291q-36 -94 -79 -159.5t-101 -99t-140 -33.5q-37 0 -67 5.5t-58 14.5v87q26 -8 53.5 -13.5t60.5 -5.5q57 0 98.5 23.5t74.5 72.5t62 125l74 193zM800 1522
q-6 -96 -45.5 -158t-111.5 -92.5t-174 -30.5q-103 0 -172.5 29.5t-107 92t-42.5 159.5h96q10 -110 63.5 -157.5t163.5 -47.5q107 0 165.5 47t67.5 158h97z" />
    <glyph glyph-name="uni045F" unicode="&#x45f;" horiz-adv-x="1231" 
d="M566 0h-385v1087h102v-998h666v998h101v-1087h-385v-368h-99v368z" />
    <glyph glyph-name="uni0460" unicode="&#x460;" horiz-adv-x="1837" 
d="M490 -18q-82 153 -154.5 325t-130.5 360t-96.5 387.5t-51.5 407.5h107q12 -197 49 -388t89.5 -365.5t112 -324.5t117.5 -266h6q16 49 41.5 119t59.5 156l249 641q-13 69 -24.5 147t-18 152t-7.5 129h107q7 -195 46 -386t97.5 -368t125 -328t127.5 -266h5
q94 171 165.5 384.5t114 457.5t47.5 506h107q-5 -272 -52 -534t-133.5 -502t-209.5 -444h-85q-60 103 -115 216t-102 230t-86 231.5t-66 219.5l-346 -897h-95z" />
    <glyph glyph-name="uni0461" unicode="&#x461;" horiz-adv-x="1524" 
d="M1471 1087q-8 -199 -54.5 -390.5t-128 -367t-196.5 -329.5h-97q-46 80 -91.5 174t-83 191t-63.5 185l-264 -550h-93q-62 101 -121.5 222.5t-108.5 259.5t-81 290.5t-41 314.5h99q13 -205 60 -388.5t111 -335t128 -260.5h5q14 35 31 69.5t34.5 69.5t33.5 70l169 349
q-25 101 -38 214.5t-15 211.5h100q4 -179 42.5 -353.5t100 -336.5t134.5 -303h6q86 118 156.5 275t114.5 340t52 378h99z" />
    <glyph glyph-name="uni0462" unicode="&#x462;" horiz-adv-x="1384" 
d="M397 0v1148h-366v90h366v224h103v-224h451v-90h-451v-328h265q173 0 286 -43t168.5 -131t55.5 -225q0 -204 -121 -312.5t-364 -108.5h-393zM500 91h273q203 0 299.5 79.5t96.5 250.5q0 119 -48.5 186t-142 93.5t-228.5 26.5h-250v-636z" />
    <glyph glyph-name="uni0463" unicode="&#x463;" horiz-adv-x="1273" 
d="M390 1317v-230h364v-88h-364v-371h380q197 0 289 -80t92 -223q0 -102 -43 -174.5t-131 -111.5t-225 -39h-462v999h-259v88h259v230h100zM759 540h-369v-454h354q157 0 231.5 59.5t74.5 178.5q0 109 -72.5 162.5t-218.5 53.5z" />
    <glyph glyph-name="uni0464" unicode="&#x464;" horiz-adv-x="1882" 
d="M1422 -20q-212 0 -356 91t-218 255t-78 383h-461v-709h-103v1462h103v-660h463q10 148 60 272.5t137.5 216t211 142t278.5 50.5q105 0 195.5 -21.5t173.5 -61.5l-41 -90q-80 41 -160 60.5t-170 19.5q-129 0 -232 -41.5t-177 -119t-116.5 -186t-52.5 -241.5h754v-93h-756
q4 -146 40 -263.5t106 -201t172 -128t237 -44.5q110 0 195.5 16.5t162.5 42.5v-90q-72 -27 -159.5 -44t-208.5 -17z" />
    <glyph glyph-name="uni0465" unicode="&#x465;" horiz-adv-x="1563" 
d="M1198 -20q-161 0 -272 65t-169.5 185t-62.5 284h-411v-514h-102v1087h102v-483h413q13 159 80.5 271.5t181 172.5t263.5 60q78 0 145 -14t123 -39l-26 -88q-59 26 -121 38.5t-121 12.5q-126 0 -217 -50t-143 -143t-62 -221h622v-90h-624q3 -131 46.5 -231t131.5 -157
t223 -57q80 0 150 16t130 41v-91q-52 -24 -121.5 -39.5t-158.5 -15.5z" />
    <glyph glyph-name="uni0466" unicode="&#x466;" horiz-adv-x="1286" 
d="M672 1462l573 -1462h-109l-269 690h-193v-690h-96v690h-202l-269 -690h-107l573 1462h99zM621 1347q-6 -23 -15.5 -50.5t-20 -58t-22.5 -62.5t-25 -65l-125 -329h419l-130 336q-10 29 -21.5 58t-21.5 58.5t-19.5 57.5t-18.5 55z" />
    <glyph glyph-name="uni0467" unicode="&#x467;" horiz-adv-x="1022" 
d="M550 1087l436 -1087h-104l-196 494h-141v-494h-93v494h-151l-194 -494h-104l436 1087h111zM497 996h-6q-11 -33 -22 -64.5t-23.5 -65.5t-28.5 -74l-81 -210h316l-81 209q-16 42 -29.5 77.5t-24 66.5t-20.5 61z" />
    <glyph glyph-name="uni0468" unicode="&#x468;" horiz-adv-x="1763" 
d="M1248 1462l573 -1462h-112l-268 692h-191v-692h-95v692h-201l-269 -692h-110l271 692h-537v-692h-103v1462h103v-677h575l264 677h100zM1197 1347q-7 -26 -16 -52t-19 -54.5t-21.5 -59t-25.5 -65.5l-125 -331h415l-128 335q-11 30 -22 59.5t-21.5 58.5t-19.5 56t-17 53z
" />
    <glyph glyph-name="uni0469" unicode="&#x469;" horiz-adv-x="1395" 
d="M948 1087l435 -1087h-103l-197 497h-141v-497h-93v497h-148l-198 -497h-103l199 497h-318v-497h-100v1087h100v-502h355l200 502h112zM895 996h-6q-10 -30 -21.5 -62.5t-24.5 -69t-30 -77.5l-80 -202h316l-81 208q-16 42 -29.5 77t-23.5 66t-20 60z" />
    <glyph glyph-name="uni046A" unicode="&#x46a;" horiz-adv-x="1419" 
d="M1259 1462v-84l-447 -550q135 -3 216.5 -40t131 -112.5t86.5 -194.5l149 -481h-105l-146 469q-34 108 -75.5 167.5t-113 83t-194.5 23.5v-743h-102v743q-121 0 -192.5 -24t-113.5 -83.5t-77 -166.5l-147 -469h-108l151 481q27 86 60.5 150t81.5 107t118.5 65.5
t170.5 24.5l-445 550v84h1101zM1133 1368h-849l424 -526z" />
    <glyph glyph-name="uni046B" unicode="&#x46b;" horiz-adv-x="1242" 
d="M1082 1087v-79l-354 -387q115 -7 182 -37t108 -89t77 -152l135 -343h-104l-124 322q-32 85 -69 132.5t-98.5 67.5t-166.5 20v-542h-96v542q-106 0 -167.5 -20.5t-98 -69t-68.5 -130.5l-124 -322h-104l132 343q34 87 77 146.5t112 92t180 39.5l-356 387v79h927zM961 1000
h-684l344 -375z" />
    <glyph glyph-name="uni046C" unicode="&#x46c;" horiz-adv-x="1929" 
d="M1767 1462v-84l-448 -551q135 -3 217 -39.5t131.5 -112t86.5 -194.5l150 -481h-103l-148 469q-34 110 -76.5 169t-113.5 81.5t-194 22.5v-742h-103v742q-120 0 -192 -24t-114.5 -83t-76.5 -166l-147 -469h-107l154 484q31 100 69.5 162t98.5 92h-542v-738h-103v1462h103
v-631h799l-443 547v84h1102zM1640 1368h-847l424 -526z" />
    <glyph glyph-name="uni046D" unicode="&#x46d;" horiz-adv-x="1636" 
d="M1484 1087v-79l-355 -388q116 -6 183 -36t107.5 -89t76.5 -152l135 -343h-104l-124 322q-31 84 -68.5 131.5t-98.5 67.5t-166 20v-541h-96v541q-105 0 -167 -20.5t-99 -68.5t-68 -130l-125 -322h-104l133 343q25 66 57 114t76 77h-397v-534h-100v1087h100v-465h631
l-355 386v79h928zM1363 1000h-684l343 -372z" />
    <glyph glyph-name="uni046E" unicode="&#x46e;" horiz-adv-x="1145" 
d="M833 1734q21 0 40 -2.5t36 -9.5v-74q-13 5 -30.5 7t-31.5 2q-56 0 -115 -51.5t-111 -125.5q180 -15 280.5 -113.5t100.5 -250.5t-85 -236.5t-217 -113.5v-5q157 -31 243 -116.5t86 -239.5q0 -96 -35 -173t-103 -131.5t-168 -84t-232 -31.5q-126 -2 -191.5 -20t-89.5 -50
t-24 -75q0 -63 49 -95.5t157 -32.5q59 0 121 4.5t124.5 9t121.5 4.5q71 0 122 -8.5t88 -25.5v-104q-29 19 -83 32t-130 13q-59 0 -120 -4t-122.5 -8.5t-121.5 -4.5q-101 0 -170.5 24t-105.5 72.5t-36 122.5q0 69 37.5 121t127.5 82t245 32q206 2 319 86.5t113 245.5
q0 162 -116 235t-338 73h-216v90h225q141 0 233.5 36t138.5 104.5t46 164.5q0 134 -92.5 209.5t-245.5 75.5q-130 0 -225.5 -38.5t-183.5 -98.5l-53 73q80 58 173.5 99t215.5 50q-30 39 -70 82.5t-83 85.5t-84 76v16h78q54 -37 115 -92t115 -117q46 59 91.5 105t92 72.5
t94.5 26.5z" />
    <glyph glyph-name="uni046F" unicode="&#x46f;" horiz-adv-x="926" 
d="M723 1345q21 0 40 -2t35 -9v-75q-12 5 -30 7t-31 2q-55 0 -110 -47.5t-107 -117.5q123 -16 194.5 -86t71.5 -184q0 -94 -51 -158t-141 -90v-6q72 -14 123.5 -47.5t78.5 -85.5t27 -122q0 -98 -46.5 -165.5t-139.5 -106t-232 -47.5q-101 -7 -161 -22t-86.5 -43t-26.5 -73
q0 -60 47 -84.5t131 -24.5q64 0 121.5 3.5t110.5 7t99 3.5q69 0 112.5 -8.5t73.5 -24.5v-93q-34 20 -80.5 29t-105.5 9q-48 0 -104 -3.5t-115.5 -7t-119.5 -3.5q-85 0 -144.5 22.5t-90.5 66t-31 106.5q0 72 38 119t116.5 73t198.5 34q104 7 179 30.5t115 73t40 133.5
q0 71 -35.5 116t-106.5 66.5t-177 21.5h-151v88h135q148 0 224.5 51.5t76.5 152.5q0 98 -67 148.5t-189 50.5q-87 0 -160.5 -21t-148.5 -57l-37 85q67 31 131.5 51t142.5 27q-28 37 -64.5 77.5t-76.5 79.5t-78 69v17h77q54 -38 112.5 -91.5t113.5 -115.5q46 59 91.5 104.5
t92 71t95.5 25.5z" />
    <glyph glyph-name="uni0470" unicode="&#x470;" horiz-adv-x="1565" 
d="M1422 1462v-483q0 -135 -36.5 -233.5t-111.5 -163t-187.5 -96.5t-265.5 -34v-452h-100v452q-154 2 -266.5 34t-186 96.5t-109.5 163.5t-36 233v483h102v-479q0 -155 52 -251t161.5 -141t282.5 -48v919h100v-919q174 3 283.5 48t161 141t51.5 251v479h105z" />
    <glyph glyph-name="uni0471" unicode="&#x471;" horiz-adv-x="1477" 
d="M789 1554v-1478q153 7 254 70t150.5 178.5t49.5 278.5q0 137 -17.5 249.5t-49.5 234.5h102q32 -117 49 -230t17 -252q0 -191 -62.5 -326t-185.5 -209t-307 -83v-479h-99v479q-173 6 -289.5 71t-175.5 188t-59 303v538h98v-536q0 -154 49 -257.5t143.5 -158t233.5 -60.5
v1479h99z" />
    <glyph glyph-name="uni0472" unicode="&#x472;" horiz-adv-x="1566" 
d="M1436 733q0 -167 -41 -305t-123 -238t-204.5 -155t-285.5 -55q-164 0 -287 55t-204.5 155.5t-122.5 239t-41 305.5q0 222 75.5 391t223 264t364.5 95q208 0 352.5 -90.5t219 -259t74.5 -402.5zM783 71q182 0 301.5 78t179.5 219t64 330h-1092q5 -187 65.5 -328
t180.5 -220t301 -79zM790 1392q-179 0 -299.5 -76t-183.5 -211.5t-71 -315.5h1091q-11 287 -147.5 445t-389.5 158z" />
    <glyph glyph-name="uni0473" unicode="&#x473;" horiz-adv-x="1201" 
d="M1082 545q0 -168 -55 -295t-162.5 -198.5t-267.5 -71.5q-151 0 -258.5 70.5t-164 198t-56.5 296.5q0 263 129.5 413t359.5 150q158 0 263.5 -71.5t158.5 -198.5t53 -293zM599 68q127 0 209 55t123.5 155t45.5 234h-755q4 -135 46 -235t124.5 -154.5t206.5 -54.5z
M606 1019q-179 0 -275.5 -109.5t-107.5 -308.5h754q-7 123 -48 217.5t-120.5 147.5t-202.5 53z" />
    <glyph glyph-name="uni0474" unicode="&#x474;" horiz-adv-x="1210" 
d="M1211 1384q-52 0 -87.5 -30.5t-66 -101t-67.5 -191.5l-334 -1061h-115l-541 1462h108l393 -1057q28 -77 45 -126t28.5 -84.5t22.5 -75.5q7 30 14.5 57.5t17 60t22 75.5t31.5 102l208 659q48 153 87 240.5t90 124.5t136 37q24 0 46.5 -4t43.5 -11v-89q-21 6 -41.5 9.5
t-40.5 3.5z" />
    <glyph glyph-name="uni0475" unicode="&#x475;" horiz-adv-x="973" 
d="M962 1108q16 0 31.5 -1.5t28.5 -6.5v-86q-14 5 -28.5 7t-28.5 2q-31 0 -54.5 -20t-43.5 -62t-44 -108l-289 -833h-120l-414 1087h104l289 -768q26 -70 46 -127.5t31 -97.5h6q13 43 29 100.5t39 120.5l189 542q34 99 64.5 153t68.5 75.5t96 22.5z" />
    <glyph glyph-name="uni0476" unicode="&#x476;" horiz-adv-x="1210" 
d="M1211 1384q-52 0 -87.5 -30.5t-66 -101t-67.5 -191.5l-334 -1061h-115l-541 1462h108l393 -1057q28 -77 45 -126t28.5 -84.5t22.5 -75.5q7 30 14.5 57.5t17 60t22 75.5t31.5 102l208 659q48 153 87 240.5t90 124.5t136 37q24 0 46.5 -4t43.5 -11v-89q-21 6 -41.5 9.5
t-40.5 3.5zM631 1944q23 -46 58.5 -103.5t75 -112.5t72.5 -95v-17h-65q-33 32 -69 72t-70.5 82.5t-64 83t-49.5 73.5v17h112zM292 1944q23 -46 58 -103.5t74.5 -112.5t72.5 -95v-17h-65q-33 32 -69 72t-71 82.5t-64 83t-50 73.5v17h114z" />
    <glyph glyph-name="uni0477" unicode="&#x477;" horiz-adv-x="973" 
d="M962 1108q16 0 31.5 -1.5t28.5 -6.5v-86q-14 5 -28.5 7t-28.5 2q-31 0 -54.5 -20t-43.5 -62t-44 -108l-289 -833h-120l-414 1087h104l289 -768q26 -70 46 -127.5t31 -97.5h6q13 43 29 100.5t39 120.5l189 542q34 99 64.5 153t68.5 75.5t96 22.5zM517 1569
q23 -46 58.5 -103.5t75 -112.5t72.5 -95v-17h-65q-33 32 -69 72t-70.5 82.5t-64 83t-49.5 73.5v17h112zM178 1569q23 -46 58 -103.5t74.5 -112.5t72.5 -95v-17h-65q-33 32 -69 72t-71 82.5t-64 83t-50 73.5v17h114z" />
    <glyph glyph-name="uni0478" unicode="&#x478;" horiz-adv-x="2335" 
d="M1294 733q0 -167 -37 -305t-110.5 -238t-182.5 -155t-254 -55q-144 0 -253.5 55t-182.5 155.5t-110 239t-37 305.5q0 222 68 391t200 264t324 95q183 0 311.5 -90.5t196 -259t67.5 -402.5zM234 734q0 -196 52 -345.5t158 -233.5t268 -84q163 0 268 83t156 232t51 347
q0 209 -53.5 356t-158 225t-256.5 78q-162 0 -270 -83t-161.5 -231t-53.5 -344zM1390 1087h106l267 -691q23 -61 41.5 -112.5t32.5 -93.5t24 -78h6q14 47 39 119t57 161l261 695h105l-494 -1291q-35 -94 -78.5 -159.5t-102 -99t-139.5 -33.5q-37 0 -67.5 5.5t-58.5 14.5v87
q26 -8 53.5 -13.5t60.5 -5.5q57 0 98.5 23.5t74.5 72.5t63 125l74 193z" />
    <glyph glyph-name="uni0479" unicode="&#x479;" horiz-adv-x="2099" 
d="M1082 545q0 -126 -31 -229.5t-92 -178.5t-151.5 -116t-210.5 -41q-114 0 -203 40.5t-150.5 115.5t-93.5 178.5t-32 230.5q0 175 58.5 301.5t168 194t262.5 67.5q158 0 263.5 -71.5t158.5 -198.5t53 -293zM222 545q0 -143 41 -250t124.5 -167t211.5 -60q131 0 215 60
t124 168t40 249q0 137 -38 244t-120 168.5t-214 61.5q-189 0 -286.5 -126t-97.5 -348zM1161 1087h107l264 -690q24 -61 42.5 -112.5t32.5 -94t23 -77.5h6q15 46 40 118.5t57 161.5l261 694h108l-496 -1291q-36 -94 -79 -159.5t-101 -99t-140 -33.5q-37 0 -67 5.5t-58 14.5
v87q26 -8 53.5 -13.5t60.5 -5.5q57 0 98.5 23.5t74.5 72.5t62 125l74 193z" />
    </font>
</defs>
</svg>
